<?xml version="1.0" standalone="no"?>
<!DOCTYPE svg PUBLIC "-//W3C//DTD SVG 1.1//EN" "http://www.w3.org/Graphics/SVG/1.1/DTD/svg11.dtd" >
<svg xmlns="http://www.w3.org/2000/svg" xmlns:xlink="http://www.w3.org/1999/xlink" version="1.1">
<metadata>
Created by FontForge 20201107 at Wed Jul  8 16:02:46 2020
 By 
Copyright 2010 The Raleway Project Authors (impallari@gmail.com), with Reserved Font Name "Raleway".
</metadata>
<defs>
<font id="Raleway-Regular" horiz-adv-x="0" >
  <font-face 
    font-family="Raleway"
    font-weight="400"
    font-stretch="normal"
    units-per-em="1000"
    panose-1="0 0 0 0 0 0 0 0 0 0"
    ascent="800"
    descent="-200"
    x-height="521"
    cap-height="710"
    bbox="-216 -223.667 1310 1105"
    underline-thickness="50"
    underline-position="-125"
    unicode-range="U+000D-2215"
  />
<missing-glyph horiz-adv-x="608" 
d="M558 29q0 -29 -33 -29h-448q-16 0 -21.5 6t-5.5 19v662q0 23 19 23h471q18 0 18 -21v-660zM506 74v568q0 18 -15 18h-373q-16 0 -16 -19v-570q0 -10 5 -15.5t18 -5.5h353q28 0 28 24zM478 28l-407 641l52 27l415 -663z" />
    <glyph glyph-name="f_f" unicode="ff" horiz-adv-x="582" 
d="M100 0v467h-72v54h72v6q0 44 18.5 84t55 65t89.5 25q35 0 63.5 -8.5t51.5 -22.5l-22 -51q-19 13 -39.5 18t-41.5 5q-28 0 -48.5 -10.5t-33.5 -27.5t-19 -37t-6 -38v-8h144v-54h-144v-467h-68zM330 0v467h-72v54h72v14q0 64 19 110t53 70.5t82 24.5q30 0 59 -9t50 -24
l-20 -49q-14 11 -34.5 17t-41.5 6q-47 0 -73 -37t-26 -107v-16h144v-54h-144v-467h-68z" />
    <glyph glyph-name="fi" unicode="fi" horiz-adv-x="504" 
d="M100 467h-72v54h72v14q0 37 11 73t33.5 66t57 48t82.5 18q37 0 66.5 -8t51.5 -19t33 -20l-31 -49q-16 15 -47.5 25.5t-68.5 10.5q-42 0 -68.5 -21.5t-39 -54.5t-12.5 -67v-16h261v-521h-68v467h-193v-467h-68v467z" />
    <glyph glyph-name="fl" unicode="fl" horiz-adv-x="583" 
d="M490 -6q-46 0 -73 27.5t-27 73.5v476q0 26 -10 51t-33.5 41.5t-65.5 16.5q-39 0 -64 -20t-36.5 -53t-12.5 -73v-13h110v-54h-110v-467h-68v467h-72v54h72v19q0 59 20 104t60 70.5t100 25.5q88 0 133 -44t45 -112v-466q0 -37 13 -50t33 -13q21 0 40 4.5t29 7.5l12 -56
q-9 -4 -25.5 -8t-34.5 -6.5t-35 -2.5z" />
    <glyph glyph-name="f_f_i" unicode="ffi" horiz-adv-x="734" 
d="M100 0v467h-72v54h72v6q0 44 18.5 84t55 65t89.5 25q35 0 63.5 -8.5t51.5 -22.5l-22 -51q-19 13 -39.5 18t-41.5 5q-28 0 -48.5 -10.5t-33.5 -27.5t-19 -37t-6 -38v-8h144v-54h-144v-467h-68zM330 467h-72v54h72v14q0 37 11 73t33.5 66t57 48t82.5 18q37 0 67 -8
t51.5 -19t32.5 -20l-31 -49q-16 15 -47.5 25.5t-68.5 10.5q-42 0 -68.5 -21.5t-39 -54.5t-12.5 -67v-16h261v-521h-68v467h-193v-467h-68v467z" />
    <glyph glyph-name="f_f_l" unicode="ffl" horiz-adv-x="817" 
d="M100 0v467h-72v54h72v6q0 44 19 84t56 65t90 25q36 0 63 -8.5t50 -22.5l-22 -51q-19 13 -38 18t-41 5q-29 0 -49.5 -10.5t-34 -27.5t-19.5 -37t-6 -38v-8h144v-54h-144v-467h-68zM724 -6q-47 0 -74 27.5t-27 73.5v476q0 26 -10 51t-33.5 41.5t-64.5 16.5q-39 0 -64 -20
t-36.5 -53t-12.5 -73v-13h110v-54h-110v-467h-68v467h-72v54h72v19q0 59 20 104t60 70.5t100 25.5q88 0 132.5 -44t44.5 -112v-466q0 -37 13.5 -50t33.5 -13q21 0 40 4.5t29 7.5l12 -56q-10 -4 -26.5 -8t-34 -6.5t-34.5 -2.5z" />
    <glyph glyph-name=".notdef" horiz-adv-x="608" 
d="M558 29q0 -29 -33 -29h-448q-16 0 -21.5 6t-5.5 19v662q0 23 19 23h471q18 0 18 -21v-660zM506 74v568q0 18 -15 18h-373q-16 0 -16 -19v-570q0 -10 5 -15.5t18 -5.5h353q28 0 28 24zM478 28l-407 641l52 27l415 -663z" />
    <glyph glyph-name=".null" 
 />
    <glyph glyph-name="nonmarkingreturn" horiz-adv-x="333" 
 />
    <glyph glyph-name="NULL" 
 />
    <glyph glyph-name="NULL" 
 />
    <glyph glyph-name="CR" unicode="&#xd;" 
 />
    <glyph glyph-name="space" unicode=" " horiz-adv-x="255" 
 />
    <glyph glyph-name="exclam" unicode="!" horiz-adv-x="252" 
d="M92 228v489h68v-489h-68zM92 0v112h68v-112h-68z" />
    <glyph glyph-name="quotedbl" unicode="&#x22;" horiz-adv-x="292" 
d="M69 522v194h59v-194h-59zM164 522v194h59v-194h-59z" />
    <glyph glyph-name="numbersign" unicode="#" horiz-adv-x="680" 
d="M642 457h-129l-47 -196h134v-54h-147l-50 -207h-58l51 207h-189l-50 -207h-58l51 207h-113v54h126l47 196h-130v51h143l49 202h58l-50 -202h189l49 202h58l-50 -202h116v-51zM409 261l47 196h-189l-47 -196h189z" />
    <glyph glyph-name="dollar" unicode="$" horiz-adv-x="619" 
d="M289 28l46 -1v-130h-46v131zM293 37v636l38 5v-643zM289 815h46v-134l-46 -5v139zM510 577q-14 17 -34.5 30.5t-45 23.5t-53.5 16t-61 6q-93 0 -136.5 -35.5t-43.5 -96.5q0 -42 21 -66t64.5 -39t112.5 -31q75 -16 130.5 -38t85 -59.5t29.5 -101.5q0 -49 -18.5 -85
t-53 -60t-81.5 -35.5t-103 -11.5q-54 0 -105 11.5t-95.5 34t-84.5 57.5l35 57q19 -20 45.5 -37.5t59 -31.5t70 -21.5t77.5 -7.5q85 0 132.5 31t47.5 92q0 44 -23.5 70.5t-71.5 43.5t-119 33q-74 17 -124.5 38t-76.5 55.5t-26 91.5q0 66 32.5 111.5t90 69t130.5 23.5
q47 0 87.5 -9.5t75 -27.5t64.5 -45z" />
    <glyph glyph-name="percent" unicode="%" horiz-adv-x="714" 
d="M190 433q-41 0 -75 19t-54.5 52t-20.5 72q0 40 20.5 73t54.5 52t75 19t75 -19t54 -52t20 -72q0 -40 -20 -73t-54 -52t-75 -19zM190 472q27 0 49.5 14.5t35.5 38.5t13 51q0 29 -14 53t-36.5 37.5t-47.5 13.5q-28 0 -50 -14.5t-35.5 -38t-13.5 -50.5q0 -29 13.5 -52.5
t36 -38t49.5 -14.5zM525 -10q-41 0 -75 19t-54 52t-20 73t20 72.5t54 51.5t75 19q42 0 76 -19t54 -51.5t20 -72.5t-20 -72.5t-54 -52t-76 -19.5zM525 30q28 0 50.5 14.5t35 38t12.5 50.5q0 29 -13.5 53t-36 38t-48.5 14q-27 0 -49.5 -14.5t-35.5 -38.5t-13 -51
q0 -29 13.5 -52.5t36 -37.5t48.5 -14zM64 27l280 340l271 347l35 -30l-278 -340l-273 -348z" />
    <glyph glyph-name="ampersand" unicode="&#x26;" horiz-adv-x="667" 
d="M571 0l-354 373q-43 46 -69 78.5t-37 59t-11 52.5q0 44 23.5 79t64 56t90.5 21q47 0 84.5 -17.5t59.5 -49t22 -73.5q0 -45 -25.5 -80.5t-66 -66t-89.5 -61.5q-41 -28 -75.5 -56.5t-54.5 -60.5t-20 -73q0 -44 25 -74.5t63.5 -46t79.5 -15.5q54 0 99.5 24.5t79.5 68
t52.5 99.5t18.5 119h58q0 -76 -24 -142.5t-66.5 -116.5t-100 -78.5t-124.5 -28.5q-62 0 -114 24.5t-82.5 67.5t-30.5 101q0 54 25.5 94.5t66 73t85.5 61.5q46 30 81.5 55.5t55.5 52t20 57.5q0 39 -29 64t-74 25q-33 0 -59 -14t-41 -37t-15 -50q0 -17 8 -35.5t31 -46
t66 -72.5l393 -411h-90z" />
    <glyph glyph-name="quotesingle" unicode="'" horiz-adv-x="197" 
d="M69 521v195h59v-195h-59z" />
    <glyph glyph-name="parenleft" unicode="(" horiz-adv-x="269" 
d="M44 346q0 102 41 198.5t99 194.5l52 -25q-20 -30 -42.5 -74t-42 -94.5t-31.5 -102.5t-12 -100q0 -78 34 -170t93 -183l-51 -27q-42 63 -73.5 127t-49 128.5t-17.5 127.5z" />
    <glyph glyph-name="parenright" unicode=")" horiz-adv-x="268" 
d="M224 346q0 -63 -17 -127.5t-49 -128.5t-74 -127l-50 27q59 91 93 183t34 170q0 48 -12 100t-32 102.5t-42 94.5t-43 74l53 25q58 -98 98.5 -194.5t40.5 -198.5z" />
    <glyph glyph-name="asterisk" unicode="*" horiz-adv-x="321" 
d="M87 546l43 62l-68 22l11 36l69 -26l-2 73h41l-2 -73l69 26l11 -36l-68 -22l44 -62l-32 -22l-42 65l-43 -65z" />
    <glyph glyph-name="plus" unicode="+" horiz-adv-x="415" 
d="M363 383v-56h-124v-135h-63v135h-124v56h124v135h63v-135h124z" />
    <glyph glyph-name="comma" unicode="," horiz-adv-x="225" 
d="M86 -81l17 84h-23v95h66v-95l-25 -84h-35z" />
    <glyph glyph-name="hyphen" unicode="-" horiz-adv-x="422" 
d="M65 241v63h292v-63h-292z" />
    <glyph glyph-name="period" unicode="." horiz-adv-x="189" 
d="M65 0v98h59v-98h-59z" />
    <glyph glyph-name="slash" unicode="/" horiz-adv-x="604" 
d="M576 710l-472 -710h-77l472 710h77z" />
    <glyph glyph-name="zero" unicode="0" horiz-adv-x="612" 
d="M557 293q0 -88 -32.5 -156.5t-89.5 -107.5t-129 -39t-128.5 39t-89.5 107.5t-33 156.5t33 156.5t89.5 108t128.5 39.5t129 -39.5t89.5 -108t32.5 -156.5zM488 293q0 71 -23 125t-64 84.5t-95 30.5t-95 -30.5t-64.5 -84.5t-23.5 -125t23.5 -125t64.5 -84t95 -30t95 30.5
t64 84t23 124.5z" />
    <glyph glyph-name="one" unicode="1" horiz-adv-x="428" 
d="M406 62v-62h-339v62h142v428q-8 -12 -27 -26t-43.5 -26t-48.5 -20t-44 -8v66q23 0 50 13t52 30t42 32t19 20h70v-509h127z" />
    <glyph glyph-name="two" unicode="2" horiz-adv-x="521" 
d="M44 0q0 34 6 68.5t23 68.5t50 65.5t87 59.5q29 15 60 29.5t58.5 32t44 40t16.5 53.5q0 25 -14.5 49t-44 39t-73.5 15q-32 0 -58 -9t-46 -22.5t-34 -27t-23 -22.5l-43 47q5 6 22.5 21.5t45 32.5t65 29t82.5 12q61 0 104.5 -21.5t66.5 -57.5t23 -78q0 -41 -17.5 -70.5
t-45 -51t-57 -37t-53.5 -26.5q-47 -22 -79 -44t-51 -44.5t-29.5 -44t-14.5 -44.5h358v-62h-429z" />
    <glyph glyph-name="three" unicode="3" horiz-adv-x="534" 
d="M343 236q45 -7 77 -32t50 -63t18 -86q0 -60 -29 -106t-81 -71t-121 -25q-76 0 -133 30.5t-86 84.5l47 43q22 -43 65 -69.5t107 -26.5q74 0 117.5 36.5t43.5 104.5t-45.5 108.5t-129.5 40.5h-25v58h27q77 0 118 36t41 92q0 41 -19 68t-51.5 41t-74.5 14
q-57 0 -100.5 -25.5t-65.5 -70.5l-44 42q17 35 49 61t75 40.5t92 14.5q62 0 109 -22.5t74 -62.5t27 -94q0 -40 -16 -74t-45.5 -57t-70.5 -30z" />
    <glyph glyph-name="four" unicode="4" horiz-adv-x="546" 
d="M356 -127v178h-333v60l355 460h46v-458h88v-62h-88v-178h-68zM95 113h268v351z" />
    <glyph glyph-name="five" unicode="5" horiz-adv-x="545" 
d="M262 -149q-75 0 -136 37.5t-91 98.5l45 34q28 -49 76.5 -79t106.5 -30q50 0 89.5 22t63 61t23.5 90q0 49 -22.5 86.5t-61 58.5t-86.5 21q-46 0 -88 -20.5t-68 -59.5h-63l79 400h343v-63h-292l-49 -255q26 28 64 43.5t82 15.5q65 0 117.5 -29t83.5 -80t31 -117
q0 -70 -33.5 -123t-89.5 -82.5t-124 -29.5z" />
    <glyph glyph-name="six" unicode="6" horiz-adv-x="603" 
d="M559 234q0 67 -32.5 121.5t-88 86.5t-123.5 32q-45 0 -84.5 -16t-68.5 -45t-44 -68q0 98 24.5 167t68.5 106t103 37q56 0 101.5 -30.5t66.5 -81.5l44 40q-29 61 -85 96.5t-127 35.5q-78 0 -137 -47t-92 -141.5t-33 -239.5q0 -92 33 -159t90.5 -102.5t131.5 -35.5
q71 0 128 33t90.5 88.5t33.5 122.5zM309 50q-51 0 -93 25t-67.5 67t-25.5 92q0 51 25 92.5t67.5 66.5t93.5 25q50 0 92 -25t67.5 -67t25.5 -92t-25.5 -92t-67.5 -67t-92 -25z" />
    <glyph glyph-name="seven" unicode="7" horiz-adv-x="535" 
d="M417 520h-383v63h491l-359 -710h-78z" />
    <glyph glyph-name="eight" unicode="8" horiz-adv-x="593" 
d="M543 197q0 -62 -34.5 -108t-91 -71.5t-123.5 -25.5q-71 0 -126 28.5t-86.5 75.5t-31.5 105q0 45 21.5 81.5t54 61.5t66.5 36q-31 13 -58 34.5t-43 50.5t-16 64q0 44 19.5 77.5t51.5 57t71.5 35t79.5 11.5q39 0 78.5 -11.5t72 -34.5t52 -56.5t19.5 -77.5
q0 -35 -16.5 -64.5t-43.5 -51t-59 -34.5q39 -13 71.5 -39.5t52 -62.5t19.5 -81zM474 202q0 36 -15.5 63.5t-42 46.5t-58 29t-63.5 10q-43 0 -83.5 -18.5t-66 -52t-25.5 -79.5q0 -35 15.5 -62t41.5 -46.5t57.5 -29.5t63.5 -10q43 0 83.5 18.5t66.5 52.5t26 78zM143 526
q0 -38 23.5 -65.5t59.5 -41.5t70 -14q36 0 71.5 14.5t59 42t23.5 66.5q0 38 -22 65t-57.5 41t-75.5 14q-38 0 -73.5 -14.5t-57 -42t-21.5 -65.5z" />
    <glyph glyph-name="nine" unicode="9" horiz-adv-x="586" 
d="M36 327q0 -67 32.5 -121.5t88.5 -86.5t123 -32q46 0 85 16t69 45.5t44 67.5q-1 -98 -25.5 -167t-68 -106t-103.5 -37q-55 0 -101 31t-67 81l-44 -40q29 -61 85.5 -96.5t126.5 -35.5q78 0 137 47t92 141.5t33 239.5q0 93 -32.5 159.5t-90 102t-132.5 35.5
q-70 0 -127.5 -33t-91 -88t-33.5 -123zM287 511q50 0 92.5 -25t67.5 -67t25 -92t-25 -92t-67 -67t-93 -25q-50 0 -92.5 25t-68 67t-25.5 92q0 51 25.5 92.5t67.5 66.5t93 25z" />
    <glyph glyph-name="colon" unicode=":" horiz-adv-x="188" 
d="M65 420v98h58v-98h-58zM65 0v98h58v-98h-58z" />
    <glyph glyph-name="semicolon" unicode=";" horiz-adv-x="205" 
d="M70 420v98h58v-98h-58zM76 -81l17 84h-23v95h66v-95l-25 -84h-35z" />
    <glyph glyph-name="less" unicode="&#x3c;" horiz-adv-x="508" 
d="M33 276l419 252v-73l-320 -196l320 -195v-75l-419 250v37z" />
    <glyph glyph-name="equal" unicode="=" horiz-adv-x="438" 
d="M68 194v49h302v-49h-302zM68 309v49h302v-49h-302z" />
    <glyph glyph-name="greater" unicode="&#x3e;" horiz-adv-x="508" 
d="M474 239l-419 -250v75l320 195l-320 196v73l419 -252v-37z" />
    <glyph glyph-name="question" unicode="?" horiz-adv-x="476" 
d="M154 202q0 44 9.5 75.5t28 54.5t47.5 40q19 12 43.5 25t46 30.5t35.5 43t14 61.5q0 44 -19.5 72.5t-50.5 43t-66 14.5t-66.5 -13.5t-55.5 -36.5t-39 -52l-47 30q19 41 51.5 70t73.5 44t84 15q37 0 72 -11.5t62.5 -35.5t44 -59.5t16.5 -84.5q0 -40 -11 -67.5t-30.5 -47
t-43.5 -34.5t-50 -29q-23 -13 -44 -29t-34 -43.5t-13 -75.5h-58zM155 0v107h59v-107h-59z" />
    <glyph glyph-name="at" unicode="@" horiz-adv-x="837" 
d="M417 603q74 0 139.5 -27.5t116 -78t79.5 -120.5t29 -155q0 -17 -2.5 -46t-10.5 -62t-23.5 -62.5t-42.5 -48.5t-67 -19q-33 0 -50.5 13t-24 34t-9.5 45q-27 -29 -71.5 -50t-97.5 -21q-71 0 -110.5 38t-39.5 96q0 51 28 80t70.5 41.5t86.5 12.5t77.5 -8.5t49.5 -14.5
q0 48 -10.5 84t-37.5 56.5t-76 20.5q-39 0 -75 -12.5t-65 -34.5l-18 39q36 24 77 38t87 14q56 0 88.5 -18t48.5 -48.5t21 -66.5t5 -72v-129q0 -29 3.5 -52t14.5 -35.5t34 -12.5q31 0 51.5 21t32 53t16 67t4.5 62q0 73 -24.5 135.5t-69.5 109.5t-105 73.5t-130 26.5
q-69 0 -129 -25t-106 -70.5t-72 -108t-26 -135.5q0 -71 24.5 -133t69 -109t104.5 -73.5t130 -26.5q42 0 79 10.5t74 27.5l13 -32q-40 -20 -82.5 -30t-84.5 -10q-75 0 -140.5 28t-115.5 78.5t-78.5 119.5t-28.5 150q0 85 30.5 153.5t82.5 117.5t118.5 75.5t138.5 26.5z
M478 70q28 13 42 29.5t18.5 35.5t4.5 37v40q-13 1 -46.5 11.5t-81.5 10.5q-35 0 -66.5 -8t-51 -28.5t-19.5 -56.5q0 -28 14 -49t38 -32.5t55 -11.5q24 0 49 6.5t44 15.5z" />
    <glyph glyph-name="A" unicode="A" horiz-adv-x="676" 
d="M309 710h59l295 -710h-74l-92 222h-319l-91 -222h-75zM481 277l-143 351l-145 -351h288z" />
    <glyph glyph-name="B" unicode="B" horiz-adv-x="666" 
d="M623 183q0 -53 -27 -94.5t-72.5 -65t-99.5 -23.5h-335v710h342q50 0 86.5 -26.5t56 -68t19.5 -86.5q0 -53 -27 -98t-75 -67q61 -18 96.5 -67t35.5 -114zM553 195q0 36 -16 66.5t-43.5 49.5t-62.5 19h-272v-269h265q36 0 65 19t46.5 49.5t17.5 65.5zM159 649v-262h244
q35 0 62 18.5t43 48.5t16 64q0 36 -15 65.5t-41 47.5t-59 18h-250z" />
    <glyph glyph-name="C" unicode="C" horiz-adv-x="686" 
d="M42 360q0 65 22.5 127.5t65.5 114t106 82t143 30.5q95 0 162.5 -43.5t99.5 -111.5l-55 -34q-23 47 -58 74.5t-74.5 39.5t-78.5 12q-64 0 -113 -25.5t-82.5 -68t-50.5 -95t-17 -106.5q0 -59 20 -113t56 -95.5t84.5 -66t105.5 -24.5q40 0 82 14t78.5 43t58.5 75l58 -30
q-22 -53 -68 -90t-102.5 -56t-110.5 -19q-73 0 -134 31.5t-105.5 84t-68.5 118t-24 132.5z" />
    <glyph glyph-name="D" unicode="D" horiz-adv-x="715" 
d="M89 0v710h241q113 0 188.5 -47.5t113.5 -128t38 -178.5q0 -108 -41.5 -188t-118 -124t-180.5 -44h-241zM600 356q0 85 -31.5 151t-91.5 103.5t-147 37.5h-171v-586h171q88 0 148 39t91 105.5t31 149.5z" />
    <glyph glyph-name="E" unicode="E" horiz-adv-x="609" 
d="M566 62v-62h-477v710h468v-62h-398v-256h347v-59h-347v-271h407z" />
    <glyph glyph-name="F" unicode="F" horiz-adv-x="589" 
d="M89 0v710h466v-62h-396v-261h334v-58h-334v-329h-70z" />
    <glyph glyph-name="G" unicode="G" horiz-adv-x="716" 
d="M374 -5q-71 0 -132 30.5t-106 82.5t-69.5 116t-24.5 132q0 72 24.5 136.5t68.5 114.5t104 79t131 29q105 0 171 -43t100 -112l-54 -36q-34 66 -91 97t-127 31q-59 0 -106.5 -25t-81.5 -67t-51.5 -95t-17.5 -110q0 -60 20 -113.5t57 -95t85.5 -65t104.5 -23.5
q65 0 123 32.5t111 100.5v-74q-101 -122 -239 -122zM602 295h-158v54h217v-349h-59v295z" />
    <glyph glyph-name="H" unicode="H" horiz-adv-x="738" 
d="M649 710v-710h-69v332h-421v-332h-70v710h70v-316h421v316h69z" />
    <glyph glyph-name="I" unicode="I" horiz-adv-x="248" 
d="M89 0v710h70v-710h-70z" />
    <glyph glyph-name="J" unicode="J" horiz-adv-x="481" 
d="M34 89q21 -15 55.5 -26t79.5 -11q52 0 84 17.5t49 53t23 88.5t6 124v375h70v-361q0 -80 -8 -146t-31 -114t-69 -74t-122 -26q-49 0 -87 11t-70 33z" />
    <glyph glyph-name="K" unicode="K" horiz-adv-x="643" 
d="M89 0v709h70v-412l391 413h77l-290 -312l305 -398h-79l-271 356l-133 -138v-218h-70z" />
    <glyph glyph-name="L" unicode="L" horiz-adv-x="583" 
d="M89 0v710h70v-648h410v-62h-480z" />
    <glyph glyph-name="M" unicode="M" horiz-adv-x="877" 
d="M718 0v578l-257 -449h-44l-258 449v-578h-70v710h72l277 -486l279 486h71v-710h-70z" />
    <glyph glyph-name="N" unicode="N" horiz-adv-x="772" 
d="M159 581v-581h-70v710h58l466 -592v591h70v-709h-65z" />
    <glyph glyph-name="O" unicode="O" horiz-adv-x="751" 
d="M375 -5q-75 0 -136 30t-105 81.5t-68 116t-24 132.5q0 71 25 135.5t70.5 115t106.5 80t132 29.5q75 0 136 -31t104.5 -83t67.5 -116t24 -131q0 -71 -25 -135.5t-70 -115t-106 -79.5t-132 -29zM112 355q0 -58 19 -111.5t54 -95t83.5 -66t106.5 -24.5q61 0 109.5 25.5
t83 68t52.5 95.5t18 108q0 58 -19 111t-54.5 95t-83.5 66t-106 24q-60 0 -108.5 -25t-83 -67.5t-53 -95.5t-18.5 -108z" />
    <glyph glyph-name="P" unicode="P" horiz-adv-x="622" 
d="M89 0v710h294q46 0 84.5 -19t66.5 -51.5t44 -72t16 -80.5q0 -58 -25.5 -109.5t-71.5 -83.5t-108 -32h-230v-262h-70zM159 324h227q42 0 73 23t48 60t17 80q0 44 -20 81t-52.5 58.5t-71.5 21.5h-221v-324z" />
    <glyph glyph-name="Q" unicode="Q" horiz-adv-x="749" 
d="M375 -5q-75 0 -136 30.5t-105 81.5t-68 115.5t-24 132.5q0 71 25 135.5t70.5 115t106.5 80t132 29.5q75 0 136 -31t104.5 -83t67.5 -116t24 -131q0 -71 -25 -135.5t-70 -115t-106 -79.5t-132 -29zM375 58q61 0 109.5 25.5t83 68t52.5 95.5t18 108q0 58 -19 111.5
t-54.5 95t-83.5 66t-106 24.5q-60 0 -108.5 -25.5t-83 -68t-53 -95.5t-18.5 -108q0 -58 19 -111.5t54 -95t83.5 -66t106.5 -24.5zM439 218h69l184 -218h-69z" />
    <glyph glyph-name="R" unicode="R" horiz-adv-x="653" 
d="M89 0v710h300q46 0 84 -19t66.5 -51.5t44 -72t15.5 -80.5q0 -51 -19.5 -96t-55 -76t-83.5 -41l174 -274h-79l-167 262h-210v-262h-70zM159 324h232q42 0 73 23t48 60.5t17 79.5q0 43 -19.5 79.5t-52 59t-72.5 22.5h-226v-324z" />
    <glyph glyph-name="S" unicode="S" horiz-adv-x="607" 
d="M504 577q-15 17 -35 30.5t-45 23.5t-53.5 16t-60.5 6q-93 0 -136.5 -35.5t-43.5 -96.5q0 -42 20.5 -66t64.5 -39t112 -31q76 -16 131 -38t85 -59.5t30 -101.5q0 -49 -19 -85t-53 -60t-81 -35.5t-103 -11.5q-55 0 -105.5 11.5t-95.5 34t-84 57.5l35 57q19 -20 45.5 -37.5
t59 -31.5t70 -21.5t77.5 -7.5q85 0 132.5 31t47.5 92q0 44 -24 70.5t-72 43.5t-118 33q-74 17 -125 38t-76.5 55.5t-25.5 91.5q0 66 32.5 111.5t89.5 69t131 23.5q47 0 87.5 -9.5t75 -27.5t64.5 -45z" />
    <glyph glyph-name="T" unicode="T" horiz-adv-x="610" 
d="M593 648h-253v-648h-70v648h-253v62h576v-62z" />
    <glyph glyph-name="U" unicode="U" horiz-adv-x="755" 
d="M378 -5q-84 0 -142 30t-92 80.5t-49.5 114.5t-15.5 132v358h69v-358q0 -55 11.5 -108t37.5 -95t70 -66.5t110 -24.5q68 0 112.5 25.5t70 67.5t36.5 94.5t11 106.5v358h70v-358q0 -71 -16 -136t-51.5 -114t-92.5 -78t-139 -29z" />
    <glyph glyph-name="V" unicode="V" horiz-adv-x="679" 
d="M86 710l254 -623l253 623h73l-294 -710h-64l-295 710h73z" />
    <glyph glyph-name="W" unicode="W" horiz-adv-x="1046" 
d="M356 705h66l100 -252l101 252h67l-124 -303l136 -321l257 629h76l-301 -710h-62l-149 351l-150 -351h-61l-300 710h75l258 -629l135 321z" />
    <glyph glyph-name="X" unicode="X" horiz-adv-x="632" 
d="M85 710l232 -309l231 309h79l-272 -360l264 -350h-79l-223 299l-224 -299h-80l264 350l-272 360h80z" />
    <glyph glyph-name="Y" unicode="Y" horiz-adv-x="651" 
d="M93 710l232 -382l234 382h76l-275 -446v-264h-70v266l-274 444h77z" />
    <glyph glyph-name="Z" unicode="Z" horiz-adv-x="629" 
d="M31 55l483 593h-475v62h556v-55l-477 -593h476v-62h-563v55z" />
    <glyph glyph-name="bracketleft" unicode="[" horiz-adv-x="258" 
d="M88 -40v780h119v-57h-55v-666h55v-57h-119z" />
    <glyph glyph-name="backslash" unicode="\" horiz-adv-x="568" 
d="M105 710l435 -710h-76l-436 710h77z" />
    <glyph glyph-name="bracketright" unicode="]" horiz-adv-x="258" 
d="M50 -40v57h56v666h-56v57h120v-780h-120z" />
    <glyph glyph-name="asciicircum" unicode="^" horiz-adv-x="539" 
d="M43 303l198 407h58l197 -407h-60l-166 343l-169 -343h-58z" />
    <glyph glyph-name="underscore" unicode="_" horiz-adv-x="511" 
d="M65 -62v62h381v-62h-381z" />
    <glyph glyph-name="grave" unicode="`" horiz-adv-x="222" 
d="M49 730h71l60 -93l-44 -17z" />
    <glyph glyph-name="a" unicode="a" horiz-adv-x="545" 
d="M33 150q0 49 28 84.5t77.5 55t114.5 19.5q38 0 79 -6t73 -18v44q0 66 -39 105t-108 39q-42 0 -82.5 -15.5t-84.5 -45.5l-26 48q51 35 100 52.5t100 17.5q96 0 152 -55t56 -152v-241q0 -14 6 -20.5t19 -7.5v-54q-11 -1 -19 -2t-12 0q-25 1 -38 16t-14 32l-1 38
q-35 -45 -91 -69.5t-114 -24.5q-50 0 -90.5 21.5t-63 58t-22.5 80.5zM382 110q11 14 17 27t6 23v76q-34 13 -70.5 20t-73.5 7q-73 0 -118 -29t-45 -79q0 -29 15 -54.5t44 -42t68 -16.5q49 0 91.5 19t65.5 49z" />
    <glyph glyph-name="b" unicode="b" horiz-adv-x="617" 
d="M330 -10q-61 0 -113 31.5t-81 79.5v-101h-61v730h68v-318q35 53 84 85.5t114 32.5q55 0 98.5 -23t74.5 -61.5t47 -87t16 -99.5q0 -55 -18.5 -103t-52.5 -85.5t-78.5 -59t-97.5 -21.5zM314 50q42 0 78 17t62 47t40 67.5t14 77.5q0 55 -23.5 103.5t-65 78t-97.5 29.5
q-40 0 -74.5 -18t-61 -47.5t-43.5 -64.5v-162q4 -27 21 -50.5t42.5 -40.5t53.5 -27t54 -10z" />
    <glyph glyph-name="c" unicode="c" horiz-adv-x="549" 
d="M301 -10q-57 0 -104.5 21.5t-83 59.5t-55 87t-19.5 104q0 74 33 135t92 97t136 36q73 0 129 -33.5t83 -90.5l-66 -21q-22 40 -61.5 62.5t-87.5 22.5q-52 0 -95 -27t-68.5 -74t-25.5 -107q0 -59 26 -107t69 -76.5t95 -28.5q34 0 65.5 12t55 32.5t31.5 44.5l67 -20
q-14 -37 -46.5 -66.5t-76 -46t-93.5 -16.5z" />
    <glyph glyph-name="d" unicode="d" horiz-adv-x="622" 
d="M40 259q0 74 30.5 135.5t84.5 98.5t123 37q65 0 116.5 -34.5t80.5 -83.5v318h68v-648q0 -14 6 -20.5t18 -7.5v-54q-20 -3 -31 -2q-21 1 -37 17t-16 35v51q-31 -51 -84 -81t-110 -30q-54 0 -99.5 22t-79 60t-52 86.5t-18.5 100.5zM475 179v161q-13 36 -42 65.5t-65.5 47
t-72.5 17.5q-42 0 -76 -17.5t-58.5 -47.5t-37.5 -68t-13 -78q0 -42 14.5 -80t41.5 -67.5t62 -45.5t76 -16q26 0 54 10t53.5 27.5t42.5 41.5t21 50z" />
    <glyph glyph-name="e" unicode="e" horiz-adv-x="587" 
d="M300 -10q-56 0 -104 21.5t-83 59t-54.5 86.5t-19.5 105q0 73 33.5 134t92.5 97.5t134 36.5q77 0 134.5 -37t90.5 -97.5t33 -132.5v-15.5t-1 -11.5h-446q5 -56 31.5 -99.5t69 -69t92.5 -25.5q51 0 96.5 26t63.5 68l59 -16q-16 -37 -49 -67t-77.5 -46.5t-95.5 -16.5z
M108 285h385q-4 57 -30.5 100t-69 67.5t-93.5 24.5t-93 -24.5t-68.5 -68t-30.5 -99.5z" />
    <glyph glyph-name="f" unicode="f" horiz-adv-x="330" 
d="M100 0v467h-72v54h72v14q0 64 18.5 110t53 70.5t81.5 24.5q31 0 60 -9t50 -24l-21 -49q-13 11 -34 17t-42 6q-47 0 -72.5 -37t-25.5 -107v-16h144v-54h-144v-467h-68z" />
    <glyph glyph-name="g" unicode="g" horiz-adv-x="618" 
d="M284 -7q-53 0 -98 22t-77.5 59.5t-50.5 85.5t-18 99q0 55 17.5 103.5t50 86.5t76.5 59.5t98 21.5q67 0 116.5 -34t83.5 -84v109h61v-523q0 -72 -34.5 -121.5t-93 -74.5t-127.5 -25q-89 0 -144 32t-90 86l42 33q31 -49 82.5 -73t109.5 -24q51 0 93.5 18.5t68 55.5t25.5 93
v103q-30 -49 -82 -78.5t-109 -29.5zM303 50q31 0 59.5 11t52.5 29.5t40 41.5t20 47v161q-15 38 -43 67.5t-63.5 46t-73.5 16.5q-44 0 -78.5 -18.5t-58 -49t-36.5 -68.5t-13 -76q0 -42 15 -79.5t41.5 -67t62 -45.5t75.5 -16z" />
    <glyph glyph-name="h" unicode="h" horiz-adv-x="583" 
d="M513 0h-68v291q0 88 -31 132.5t-89 44.5q-38 0 -75.5 -19.5t-66 -53t-40.5 -76.5v-319h-68v730h68v-327q31 58 86.5 92.5t118.5 34.5q45 0 76.5 -16t51 -46.5t28.5 -71t9 -91.5v-305z" />
    <glyph glyph-name="i" unicode="i" horiz-adv-x="218" 
d="M75 0v521h68v-521h-68zM75 630v100h68v-100h-68z" />
    <glyph glyph-name="j" unicode="j" horiz-adv-x="225" 
d="M-3 -181q-33 0 -62.5 9t-51.5 30l33 46q15 -14 34.5 -19t38.5 -5q24 0 45 12t34.5 33.5t13.5 47.5v548h68v-544q0 -46 -22 -82t-57 -56t-74 -20zM82 630v100h68v-100h-68z" />
    <glyph glyph-name="k" unicode="k" horiz-adv-x="530" 
d="M447 0l-193 267l-111 -104v-163h-68v730h68v-494l295 284h75l-213 -213l221 -307h-74z" />
    <glyph glyph-name="l" unicode="l" horiz-adv-x="272" 
d="M78 730h68v-612q0 -39 14 -51t34 -12q18 0 36 4t31 8l12 -55q-19 -8 -46.5 -13t-47.5 -5q-46 0 -73.5 27t-27.5 74v635z" />
    <glyph glyph-name="m" unicode="m" horiz-adv-x="919" 
d="M850 0h-68v291q0 91 -29 134t-86 43q-59 0 -105.5 -42t-65.5 -108v-318h-68v291q0 92 -28 134.5t-86 42.5t-105 -41t-66 -108v-319h-68v521h62v-118q33 61 84.5 94t114.5 33q65 0 105 -37t49 -97q36 66 86.5 100t114.5 34q44 0 74.5 -16t49 -45.5t27 -71t8.5 -92.5v-305z
" />
    <glyph glyph-name="n" unicode="n" horiz-adv-x="583" 
d="M513 0h-68v291q0 92 -27 134.5t-85 42.5q-40 0 -79 -19.5t-68.5 -53t-42.5 -76.5v-319h-68v521h62v-118q21 38 55 66.5t77 44.5t89 16q43 0 73 -16t48 -45.5t26 -71t8 -92.5v-305z" />
    <glyph glyph-name="o" unicode="o" horiz-adv-x="595" 
d="M297 -10q-56 0 -103.5 21.5t-82 59t-53.5 86t-19 102.5q0 56 19 104.5t54 86t82.5 59t103.5 21.5t103 -21.5t82 -59t54 -86t19 -104.5q0 -54 -19 -102.5t-53.5 -86t-82 -59t-104.5 -21.5zM108 258q0 -58 25.5 -105.5t68.5 -75t95 -27.5t95 28t69 76.5t26 105.5
q0 58 -26 106t-69 76t-95 28t-94.5 -29t-68.5 -76.5t-26 -106.5z" />
    <glyph glyph-name="p" unicode="p" horiz-adv-x="617" 
d="M341 -10q-65 0 -116.5 34t-81.5 84v-321h-68v734h61v-101q31 49 83 79.5t111 30.5q54 0 99 -22.5t78 -60.5t51.5 -86.5t18.5 -100.5q0 -73 -29.5 -134.5t-82.5 -98.5t-124 -37zM322 50q43 0 77 17.5t58.5 47.5t37.5 67.5t13 77.5q0 42 -14.5 80t-41.5 67t-62 46t-76 17
q-26 0 -54 -10t-53.5 -28.5t-42.5 -41.5t-21 -49v-160q16 -37 43 -66.5t62.5 -47t73.5 -17.5z" />
    <glyph glyph-name="q" unicode="q" horiz-adv-x="617" 
d="M276 -10q-53 0 -96.5 22t-74.5 60t-48 86.5t-17 101.5q0 55 19 103.5t52.5 86t79 59t97.5 21.5q61 0 112.5 -31.5t80.5 -79.5v102h61v-734h-68v321q-77 -118 -198 -118zM297 50q41 0 74.5 16.5t59 44.5t43.5 62v161q-3 27 -20 51.5t-42 44t-54 30t-57 10.5
q-43 0 -77.5 -18t-60.5 -48t-40 -68t-14 -77q0 -56 24.5 -104t66.5 -76.5t97 -28.5z" />
    <glyph glyph-name="r" unicode="r" horiz-adv-x="351" 
d="M335 461q-68 -2 -119.5 -38t-72.5 -99v-324h-68v521h64v-125q27 55 71.5 89t94.5 38q10 1 17.5 1t12.5 -1v-62z" />
    <glyph glyph-name="s" unicode="s" horiz-adv-x="483" 
d="M246 -10q-64 0 -119 21t-95 64l28 48q44 -41 88.5 -59.5t94.5 -18.5q61 0 99 24.5t38 70.5q0 31 -18.5 47.5t-53 27t-82.5 22.5q-54 15 -90.5 31.5t-55 42t-18.5 66.5q0 51 25.5 84.5t70 51t99.5 17.5q60 0 106 -19t75 -53l-33 -46q-28 32 -66.5 47.5t-85.5 15.5
q-32 0 -61 -8.5t-47.5 -28t-18.5 -53.5q0 -28 14 -43.5t42 -26t69 -22.5q59 -16 103 -32.5t68 -42.5t24 -73q0 -73 -55 -114t-145 -41z" />
    <glyph glyph-name="t" unicode="t" horiz-adv-x="335" 
d="M325 25q-8 -3 -25 -11t-41 -14t-52 -6q-29 0 -54.5 11t-40.5 33.5t-15 55.5v373h-72v54h72v176h68v-176h120v-54h-120v-354q2 -28 20.5 -42t42.5 -14q28 0 51 9.5t28 13.5z" />
    <glyph glyph-name="u" unicode="u" horiz-adv-x="594" 
d="M70 215v306h68v-294q0 -89 30.5 -133t90.5 -44q40 0 77.5 17.5t66.5 50t44 75.5v328h68v-439q0 -14 6 -20.5t18 -7.5v-54q-12 -1 -19 -1.5t-13 -0.5q-20 2 -34.5 16t-15.5 34l-2 70q-34 -60 -92.5 -94t-126.5 -34q-82 0 -124 57t-42 168z" />
    <glyph glyph-name="v" unicode="v" horiz-adv-x="533" 
d="M230 0l-211 521h71l178 -453l179 453h67l-211 -521h-73z" />
    <glyph glyph-name="w" unicode="w" horiz-adv-x="813" 
d="M731 521h67l-224 -521h-59l-109 259l-108 -259h-59l-224 521h66l190 -451l96 235l-88 215h61l66 -169l67 169h60l-87 -215l96 -235z" />
    <glyph glyph-name="x" unicode="x" horiz-adv-x="504" 
d="M91 521l153 -204l8 -15l8 15l152 204h77l-198 -262l198 -259h-77l-152 203l-8 14l-8 -14l-152 -203h-77l197 259l-197 262h76z" />
    <glyph glyph-name="y" unicode="y" horiz-adv-x="542" 
d="M105 -160q14 -1 27 -1.5t19 1.5q12 2 23 14t26 46t42 100l-227 521h72l191 -451l176 451h68l-270 -672q-7 -19 -21 -35.5t-34.5 -26t-50.5 -10.5q-9 -1 -18.5 -0.5t-22.5 2.5v61z" />
    <glyph glyph-name="z" unicode="z" horiz-adv-x="492" 
d="M31 46l349 424h-341v51h418v-46l-347 -424h346v-51h-425v46z" />
    <glyph glyph-name="braceleft" unicode="{" horiz-adv-x="259" 
d="M154 683v-261q0 -12 -5.5 -30t-21.5 -32q16 -13 21.5 -31.5t5.5 -30.5v-272h55v-57h-94q-8 0 -15.5 6.5t-7.5 23.5v281q0 20 -10 36.5t-29 18.5v52q14 0 22.5 9.5t12.5 22.5t4 21v270q0 19 9 24.5t14 5.5h94v-57h-55z" />
    <glyph glyph-name="bar" unicode="|" horiz-adv-x="231" 
d="M86 -130v905h59v-905h-59z" />
    <glyph glyph-name="braceright" unicode="}" horiz-adv-x="259" 
d="M50 683v57h94q5 0 14 -5.5t9 -24.5v-270q0 -8 3.5 -21t12 -22.5t22.5 -9.5v-52q-18 -2 -28 -18.5t-10 -36.5v-281q0 -17 -8 -23.5t-15 -6.5h-94v57h55v272q0 12 5 30.5t21 31.5q-16 14 -21 32t-5 30v261h-55z" />
    <glyph glyph-name="asciitilde" unicode="~" horiz-adv-x="511" 
d="M66 241q0 5 6 21t19 35t33 33t50 14t56 -14.5t51.5 -29t52.5 -14.5q25 0 40.5 12t22 25t6.5 15h43q0 -2 -5.5 -17t-18.5 -33.5t-34.5 -32.5t-54.5 -14t-60.5 14.5t-51 29t-48.5 14.5q-23 0 -37 -14t-20.5 -28.5t-6.5 -15.5h-43z" />
    <glyph glyph-name="uni00A0" unicode="&#xa0;" horiz-adv-x="255" 
 />
    <glyph glyph-name="exclamdown" unicode="&#xa1;" horiz-adv-x="251" 
d="M159 487v-489h-68v489h68zM159 715v-112h-68v112h68z" />
    <glyph glyph-name="cent" unicode="&#xa2;" horiz-adv-x="561" 
d="M276 -120v111q-51 4 -93.5 28t-74 62t-48.5 83.5t-17 93.5q0 68 28.5 127.5t80.5 98.5t124 45v116h37v-116q74 -2 124.5 -34.5t78.5 -88.5l-65 -21q-23 41 -59 61t-79 22v-417q27 1 57 12t54 31t31 45l67 -20q-16 -42 -52 -71t-78 -43.5t-79 -14.5v-110h-37zM113 258
q0 -49 21 -93t58 -74t84 -37v412q-39 -4 -69.5 -23t-51.5 -48.5t-31.5 -65t-10.5 -71.5z" />
    <glyph glyph-name="sterling" unicode="&#xa3;" horiz-adv-x="499" 
d="M52 372h336v-54h-336v54zM54 42q46 46 73 81.5t39 67t12 63.5q0 45 -15.5 81.5t-35 69.5t-34.5 67t-15 72q0 47 24.5 86t65.5 62t91 23q54 0 102.5 -28t78.5 -77l-40 -42q-24 41 -63 65.5t-80 24.5q-32 0 -58.5 -16t-42 -42.5t-15.5 -59.5t14.5 -64.5t34 -63.5t34 -69.5
t14.5 -84.5q0 -33 -9.5 -64.5t-32.5 -64.5t-61 -75q19 4 37 6.5t36 2.5q28 0 51 -4.5t45 -9t46 -4.5q20 0 41 4.5t48 13.5l17 -52q-25 -13 -53.5 -19.5t-55.5 -6.5q-30 0 -56 6t-53 12t-58 6q-24 0 -53 -5t-55 -12z" />
    <glyph glyph-name="currency" unicode="&#xa4;" horiz-adv-x="537" 
d="M156 480q22 19 50.5 29t61.5 10t61.5 -10t51.5 -29l70 71l34 -33l-72 -72q17 -22 26 -50.5t9 -59.5q0 -30 -9 -58.5t-27 -51.5l73 -72l-30 -29l-74 69q-22 -17 -51 -28t-62 -11t-62 10.5t-52 28.5l-71 -69l-30 29l71 71q-36 50 -36 111q0 31 9 59.5t26 51.5l-70 71l33 33
zM145 335q0 -37 16.5 -67t44.5 -47.5t62 -17.5t62 18t44.5 49t16.5 67q0 38 -16.5 68t-44.5 47.5t-62 17.5q-33 0 -61.5 -17.5t-45 -48.5t-16.5 -69z" />
    <glyph glyph-name="yen" unicode="&#xa5;" horiz-adv-x="676" 
d="M432 366h84v-48h-111l-33 -54v-27h145v-48h-145v-189h-70v189h-143v48h143v29l-31 52h-112v48h86l-216 344h76l232 -382l234 382h77z" />
    <glyph glyph-name="brokenbar" unicode="&#xa6;" horiz-adv-x="234" 
d="M147 277v-407h-60v407h60zM147 775v-407h-60v407h60z" />
    <glyph glyph-name="section" unicode="&#xa7;" horiz-adv-x="506" 
d="M417 195q23 -14 34.5 -40.5t11.5 -64.5q0 -45 -19 -78.5t-49 -55.5t-65 -33t-69 -11t-64.5 8.5t-55 21.5t-44.5 29.5t-35 31.5l45 42q37 -35 73.5 -51.5t78.5 -16.5q33 0 63.5 13t50.5 38t20 60q0 39 -19 57.5t-48.5 25.5t-58.5 8q-56 3 -100.5 21.5t-69.5 54t-25 86.5
q0 27 7.5 49.5t18.5 36.5q-21 15 -36 46t-15 71q0 51 28.5 89.5t73.5 60t93 21.5q37 0 66 -8t51.5 -21.5t39 -30.5t28.5 -35l-54 -25q-11 22 -32 35t-46 18t-49 5q-33 0 -63 -13t-49 -37.5t-19 -58.5q0 -57 37.5 -79t94.5 -23q36 0 71.5 -8t65 -27t46.5 -48t17 -72
q0 -28 -8.5 -53t-21.5 -39zM138 333q0 -37 15.5 -58t40.5 -30.5t54.5 -13t57 -6t47.5 -10.5q13 11 21 30.5t8 40.5q0 38 -21 59.5t-52 31t-60 9.5q-24 0 -47 3.5t-39 10.5q-11 -11 -18 -29.5t-7 -37.5z" />
    <glyph glyph-name="dieresis" unicode="&#xa8;" horiz-adv-x="329" 
d="M61 633v94h58v-94h-58zM210 633v94h58v-94h-58z" />
    <glyph glyph-name="copyright" unicode="&#xa9;" horiz-adv-x="832" 
d="M415 -7q-79 0 -146 27t-116.5 76t-77 115t-27.5 144q0 77 27.5 143t77 114.5t116.5 75.5t146 27t146.5 -27t117.5 -75.5t77.5 -114.5t27.5 -143q0 -78 -27.5 -144t-77.5 -115t-117.5 -76t-146.5 -27zM415 30q70 0 129.5 23.5t104.5 66.5t70.5 102t25.5 131
q0 69 -25 128.5t-69.5 103.5t-104.5 68.5t-131 24.5q-70 0 -130 -24.5t-104.5 -68.5t-69 -102.5t-24.5 -128.5q0 -69 24.5 -127.5t69 -103t104.5 -69t130 -24.5zM423 123q-46 0 -88 16.5t-74.5 47t-52 73t-19.5 95.5q0 42 14 83.5t42 75.5t71 54.5t101 20.5
q66 0 117.5 -28.5t74.5 -82.5l-66 -21q-13 30 -35.5 45.5t-46.5 21t-44 5.5q-40 0 -70 -15t-49.5 -40.5t-29 -56t-9.5 -62.5q0 -42 14.5 -74t38 -54t52 -33.5t55.5 -11.5q25 0 51 9.5t48 26.5t32 40l66 -19q-10 -24 -36 -51t-66 -46t-91 -19z" />
    <glyph glyph-name="ordfeminine" unicode="&#xaa;" horiz-adv-x="434" 
d="M166 346q-49 0 -83.5 31.5t-34.5 78.5q0 48 42 78.5t107 30.5q58 0 101 -18v28q0 43 -25 68t-70 25q-28 0 -56 -10.5t-58 -30.5l-20 37q70 46 139 46q70 0 110 -36.5t40 -104.5v-143q0 -11 4.5 -16t14.5 -6v-52q-9 -1 -15 -1.5t-13 -0.5q-18 1 -29 11t-12 25l-1 25
q-25 -31 -61.5 -48t-79.5 -17zM182 391q33 0 61 11.5t43 31.5q12 12 12 26v52q-20 9 -44 12.5t-48 3.5q-45 0 -73.5 -18.5t-28.5 -49.5q0 -29 22.5 -49t55.5 -20z" />
    <glyph glyph-name="guillemotleft" unicode="&#xab;" horiz-adv-x="573" 
d="M41 276l248 178v-59l-193 -136l193 -134v-59l-248 173v37zM261 276l249 178v-59l-193 -136l193 -134v-59l-249 173v37z" />
    <glyph glyph-name="logicalnot" unicode="&#xac;" horiz-adv-x="582" 
d="M512 364v-238h-60v176h-379v62h439z" />
    <glyph glyph-name="uni00AD" unicode="&#xad;" horiz-adv-x="570" 
d="M65 241v63h439v-63h-439z" />
    <glyph glyph-name="registered" unicode="&#xae;" horiz-adv-x="832" 
d="M416 -7q-80 0 -147 27t-116.5 76t-77 115t-27.5 144q0 77 27.5 143t77 114.5t116.5 75.5t147 27q79 0 146 -27t117 -75.5t77.5 -114.5t27.5 -143q0 -78 -27.5 -144t-77.5 -115t-117 -76t-146 -27zM416 29q92 0 166.5 41t118 114.5t43.5 169.5q0 69 -24.5 128t-69 103
t-104 68.5t-130.5 24.5t-130.5 -24.5t-104 -68.5t-69 -102.5t-24.5 -127.5t24.5 -128.5t68.5 -103.5t104 -69t131 -25zM263 580h191q40 0 70 -21t47.5 -54t17.5 -68q0 -32 -13 -60.5t-36 -48.5t-54 -26l111 -175h-58l-106 168h-117v-168h-53v453zM454 341q40 0 61.5 28
t21.5 68q0 42 -24.5 68.5t-62.5 26.5h-134v-191h138z" />
    <glyph glyph-name="macron" unicode="&#xaf;" horiz-adv-x="396" 
d="M54 663v47h289v-47h-289z" />
    <glyph glyph-name="degree" unicode="&#xb0;" horiz-adv-x="266" 
d="M50 642q0 35 24.5 58.5t58.5 23.5q35 0 59 -23.5t24 -58.5q0 -36 -24 -60t-59 -24q-34 0 -58.5 24.5t-24.5 59.5zM102 672q-13 -14 -13 -31q0 -19 13 -31q13 -13 31 -13q19 0 32 13q5 6 8.5 14t3.5 17t-3.5 17t-8.5 14q-6 7 -14.5 10t-17.5 3q-19 0 -31 -13z" />
    <glyph glyph-name="plusminus" unicode="&#xb1;" horiz-adv-x="467" 
d="M72 61v57h323v-57h-323zM395 393v-57h-130v-140h-63v140h-130v57h130v140h63v-140h130z" />
    <glyph glyph-name="uni00B2" unicode="&#xb2;" horiz-adv-x="388" 
d="M36 407q0 52 14 86.5t41.5 57.5t70.5 39q30 12 62 24t53.5 30.5t21.5 48.5q0 31 -25.5 52.5t-76.5 21.5q-33 0 -58 -9t-42 -22t-27 -24l-30 31q6 8 25.5 24.5t54.5 30t83 13.5q73 0 109.5 -34t36.5 -85q0 -31 -14 -52t-36 -35t-46 -23t-45 -15q-44 -15 -66 -35.5
t-29.5 -41.5t-7.5 -40h239v-43h-308z" />
    <glyph glyph-name="uni00B3" unicode="&#xb3;" horiz-adv-x="390" 
d="M190 401q-62 0 -104.5 24t-50.5 65l27 29q2 -16 18.5 -33.5t44.5 -28.5t64 -11q49 0 83 19.5t34 51.5q0 35 -41 54.5t-108 19.5h-23v41h23q63 0 99 17t36 49q0 33 -31.5 52.5t-74.5 19.5q-41 0 -71.5 -15.5t-45.5 -40.5l-30 34q12 20 34.5 34t51.5 21.5t61 7.5
q44 0 78.5 -14.5t55 -39.5t20.5 -56q0 -34 -23.5 -56.5t-67.5 -31.5q46 -7 74 -35.5t28 -66.5q0 -34 -22.5 -59t-59 -38t-79.5 -13z" />
    <glyph glyph-name="acute" unicode="&#xb4;" horiz-adv-x="222" 
d="M94 620l-45 17l59 93h72z" />
    <glyph glyph-name="uni00B5" unicode="&#xb5;" horiz-adv-x="620" 
d="M82 521h68v-294q0 -89 30.5 -133t92.5 -44q39 0 76.5 17.5t66.5 50t44 75.5v328h68v-433q0 -14 6 -21t18 -7v-60q-12 -1 -19 -1.5t-14 -0.5q-22 2 -36.5 18t-14.5 36v66q-17 -35 -48 -64.5t-70 -46.5t-81 -17q-31 0 -56 11t-41 30t-26 44l4 -287h-68v733z" />
    <glyph glyph-name="paragraph" unicode="&#xb6;" horiz-adv-x="602" 
d="M34 469q0 113 74.5 177t207.5 64h241v-54h-70v-736h-60v311h-74v-311h-59v311q-80 1 -138.5 30t-90 82t-31.5 126zM93 471q0 -62 27.5 -102t73.5 -60.5t100 -23.5v371q-98 -1 -149.5 -50.5t-51.5 -134.5zM427 656h-74v-371h74v371z" />
    <glyph glyph-name="periodcentered" unicode="&#xb7;" horiz-adv-x="189" 
d="M65 246v112h59v-112h-59z" />
    <glyph glyph-name="cedilla" unicode="&#xb8;" horiz-adv-x="283" 
d="M149 -180q-25 0 -55.5 7t-58.5 21l20 39q21 -10 40 -16t43 -6q33 0 51 12.5t18 38.5t-18 45.5t-52 38.5l29 19q39 -24 63 -49.5t24 -64.5q0 -40 -28 -62.5t-76 -22.5z" />
    <glyph glyph-name="uni00B9" unicode="&#xb9;" horiz-adv-x="272" 
d="M250 451v-45h-201v45h81v309q-7 -8 -23.5 -20t-36 -20.5t-36.5 -8.5v45q22 0 44 13t37 27t15 15h45v-360h75z" />
    <glyph glyph-name="ordmasculine" unicode="&#xba;" horiz-adv-x="449" 
d="M224 346q-53 0 -94 25t-63.5 67t-22.5 90q0 49 23 91t63.5 66.5t93.5 24.5q54 0 94 -24.5t63.5 -66.5t23.5 -91q0 -48 -23 -90t-63.5 -67t-94.5 -25zM101 527q0 -37 17 -67t44.5 -47.5t61.5 -17.5q35 0 62.5 18t44 48.5t16.5 67.5t-16.5 66.5t-44.5 47.5t-62 18
q-33 0 -61 -17.5t-45 -48.5t-17 -68z" />
    <glyph glyph-name="guillemotright" unicode="&#xbb;" horiz-adv-x="573" 
d="M532 239l-248 -173v59l193 134l-193 136v59l248 -178v-37zM312 239l-249 -173v59l193 134l-193 136v59l249 -178v-37z" />
    <glyph glyph-name="onequarter" unicode="&#xbc;" horiz-adv-x="796" 
d="M250 371v-45h-201v45h81v309q-7 -8 -23.5 -20t-36 -20.5t-36.5 -8.5v45q22 0 44 13t37 27t15 15h45v-360h75zM56 27l279 340l272 347l35 -30l-279 -340l-273 -348zM664 0v103h-228v42l242 254h31v-252h57v-44h-57v-103h-45zM484 147h181v191z" />
    <glyph glyph-name="onehalf" unicode="&#xbd;" horiz-adv-x="807" 
d="M461 0q0 52 13.5 86.5t40.5 57.5t69 40q30 11 60.5 22.5t51.5 30t21 49.5t-25 53t-74 22q-33 0 -57 -9.5t-41 -22.5t-27 -24l-28 32q5 7 24 23.5t53 30t82 13.5q71 0 106 -34t35 -85q0 -31 -13.5 -52.5t-34.5 -35t-44.5 -22.5t-43.5 -15q-43 -14 -65 -35t-29 -42t-7 -39
h238v-44h-305zM250 371v-45h-201v45h81v309q-7 -8 -23.5 -20t-36 -20.5t-36.5 -8.5v45q22 0 44 13t37 27t15 15h45v-360h75zM55 27l280 340l271 347l35 -30l-278 -340l-273 -348z" />
    <glyph glyph-name="threequarters" unicode="&#xbe;" horiz-adv-x="914" 
d="M190 321q-62 0 -104.5 24t-50.5 65l27 29q2 -16 18.5 -33.5t44.5 -28.5t64 -11q49 0 83 19.5t34 51.5q0 35 -41 54.5t-108 19.5h-23v41h23q63 0 99 17t36 49q0 33 -31.5 52.5t-74.5 19.5q-41 0 -71.5 -15.5t-45.5 -40.5l-30 34q12 20 34.5 34t51.5 21.5t61 7.5
q44 0 78.5 -14.5t55 -39.5t20.5 -56q0 -34 -23.5 -56.5t-67.5 -31.5q46 -7 74 -35.5t28 -66.5q0 -34 -22.5 -59t-59 -38t-79.5 -13zM174 27l279 340l272 347l35 -30l-279 -340l-273 -348zM782 0v103h-228v42l242 254h31v-252h57v-44h-57v-103h-45zM602 147h181v191z" />
    <glyph glyph-name="questiondown" unicode="&#xbf;" horiz-adv-x="469" 
d="M318 304q0 -44 -9.5 -75.5t-28 -54t-47.5 -40.5q-20 -12 -44 -25t-45.5 -30.5t-35.5 -43t-14 -61.5q0 -43 19.5 -72t51 -43.5t65.5 -14.5q36 0 67 13.5t55 37t39 51.5l46 -30q-18 -41 -50.5 -70t-73.5 -44t-84 -15q-37 0 -72 11.5t-63 35.5t-44.5 59.5t-16.5 84.5
q0 40 11.5 67.5t30.5 47t43.5 34.5t50.5 29q24 14 44.5 29.5t33.5 43t13 75.5h58zM316 506v-107h-58v107h58z" />
    <glyph glyph-name="Agrave" unicode="&#xc0;" horiz-adv-x="676" 
d="M309 710h59l295 -710h-74l-92 222h-319l-91 -222h-75zM481 277l-143 351l-145 -351h288zM245 917h71l60 -93l-44 -17z" />
    <glyph glyph-name="Aacute" unicode="&#xc1;" horiz-adv-x="676" 
d="M309 710h59l295 -710h-74l-92 222h-319l-91 -222h-75zM481 277l-143 351l-145 -351h288zM362 807l-45 17l59 93h72z" />
    <glyph glyph-name="Acircumflex" unicode="&#xc2;" horiz-adv-x="676" 
d="M309 710h59l295 -710h-74l-92 222h-319l-91 -222h-75zM481 277l-143 351l-145 -351h288zM215 832l98 85h50l99 -85l-39 -21l-85 63l-85 -63z" />
    <glyph glyph-name="Atilde" unicode="&#xc3;" horiz-adv-x="676" 
d="M309 710h59l295 -710h-74l-92 222h-319l-91 -222h-75zM481 277l-143 351l-145 -351h288zM399 825q-30 0 -51 10t-38 20t-39 10t-32.5 -10.5t-14 -22.5t-3.5 -15h-42q0 5 3.5 20t13.5 31.5t27.5 29t46.5 12.5q28 0 47.5 -10.5t38 -21t42.5 -10.5q26 0 38 11.5t15.5 23.5
t3.5 14h42q0 -5 -4 -19.5t-14.5 -31.5t-30 -29t-49.5 -12z" />
    <glyph glyph-name="Adieresis" unicode="&#xc4;" horiz-adv-x="676" 
d="M309 710h59l295 -710h-74l-92 222h-319l-91 -222h-75zM481 277l-143 351l-145 -351h288zM235 820v94h58v-94h-58zM384 820v94h58v-94h-58z" />
    <glyph glyph-name="Aring" unicode="&#xc5;" horiz-adv-x="676" 
d="M309 710h59l295 -710h-74l-92 222h-319l-91 -222h-75zM481 277l-143 351l-145 -351h288zM249 857q0 37 25.5 60.5t63.5 23.5q39 0 64 -23.5t25 -60.5t-25 -60t-64 -23q-38 0 -63.5 23t-25.5 60zM338 906q-20 0 -34.5 -13t-14.5 -36q0 -21 14 -35t35 -14q19 0 34.5 13.5
t15.5 35.5q0 23 -15 36t-35 13z" />
    <glyph glyph-name="AE" unicode="&#xc6;" horiz-adv-x="961" 
d="M431 710h481v-62h-394v-255h340v-62h-340v-269h403v-62h-471v222h-259l-141 -222h-76zM445 284v342l-222 -342h222z" />
    <glyph glyph-name="Ccedilla" unicode="&#xc7;" horiz-adv-x="686" 
d="M42 360q0 65 22.5 127.5t65.5 114t106 82t143 30.5q95 0 162.5 -43.5t99.5 -111.5l-55 -34q-23 47 -58 74.5t-74.5 39.5t-78.5 12q-64 0 -113 -25.5t-82.5 -68t-50.5 -95t-17 -106.5q0 -59 20 -113t56 -95.5t84.5 -66t105.5 -24.5q40 0 82 14t78.5 43t58.5 75l58 -30
q-22 -53 -68 -90t-102.5 -56t-110.5 -19q-73 0 -134 31.5t-105.5 84t-68.5 118t-24 132.5zM363 -180q-25 0 -55.5 7t-58.5 21l20 39q21 -10 40 -16t43 -6q33 0 51 12.5t18 38.5t-18 45.5t-52 38.5l29 19q39 -24 63 -49.5t24 -64.5q0 -40 -28 -62.5t-76 -22.5z" />
    <glyph glyph-name="Egrave" unicode="&#xc8;" horiz-adv-x="609" 
d="M566 62v-62h-477v710h468v-62h-398v-256h347v-59h-347v-271h407zM244 917h71l60 -93l-44 -17z" />
    <glyph glyph-name="Eacute" unicode="&#xc9;" horiz-adv-x="609" 
d="M566 62v-62h-477v710h468v-62h-398v-256h347v-59h-347v-271h407zM360 807l-45 17l59 93h72z" />
    <glyph glyph-name="Ecircumflex" unicode="&#xca;" horiz-adv-x="609" 
d="M566 62v-62h-477v710h468v-62h-398v-256h347v-59h-347v-271h407zM214 832l98 85h50l99 -85l-39 -21l-85 63l-85 -63z" />
    <glyph glyph-name="Edieresis" unicode="&#xcb;" horiz-adv-x="609" 
d="M566 62v-62h-477v710h468v-62h-398v-256h347v-59h-347v-271h407zM233 820v94h58v-94h-58zM382 820v94h58v-94h-58z" />
    <glyph glyph-name="Igrave" unicode="&#xcc;" horiz-adv-x="248" 
d="M89 0v710h70v-710h-70zM31 917h71l60 -93l-44 -17z" />
    <glyph glyph-name="Iacute" unicode="&#xcd;" horiz-adv-x="248" 
d="M89 0v710h70v-710h-70zM147 807l-45 17l59 93h72z" />
    <glyph glyph-name="Icircumflex" unicode="&#xce;" horiz-adv-x="248" 
d="M89 0v710h70v-710h-70zM1 832l98 85h50l99 -85l-39 -21l-85 63l-85 -63z" />
    <glyph glyph-name="Idieresis" unicode="&#xcf;" horiz-adv-x="248" 
d="M89 0v710h70v-710h-70zM20 820v94h58v-94h-58zM169 820v94h58v-94h-58z" />
    <glyph glyph-name="Eth" unicode="&#xd0;" horiz-adv-x="721" 
d="M34 330v54h301v-54h-301zM95 0v710h241q114 0 189.5 -47.5t113 -128t37.5 -178.5q0 -108 -41.5 -188t-118 -124t-180.5 -44h-241zM606 356q0 85 -31.5 151t-91.5 103.5t-147 37.5h-171v-586h171q88 0 148 39t91 105.5t31 149.5z" />
    <glyph glyph-name="Ntilde" unicode="&#xd1;" horiz-adv-x="772" 
d="M159 581v-581h-70v710h58l466 -592v591h70v-709h-65zM450 825q-30 0 -51 10t-38 20t-39 10t-32.5 -10.5t-14 -22.5t-3.5 -15h-42q0 5 3.5 20t13.5 31.5t27.5 29t46.5 12.5q28 0 47.5 -10.5t38 -21t42.5 -10.5q26 0 38 11.5t15.5 23.5t3.5 14h42q0 -5 -4 -19.5
t-14.5 -31.5t-30 -29t-49.5 -12z" />
    <glyph glyph-name="Ograve" unicode="&#xd2;" horiz-adv-x="751" 
d="M375 -5q-75 0 -136 30t-105 81.5t-68 116t-24 132.5q0 71 25 135.5t70.5 115t106.5 80t132 29.5q75 0 136 -31t104.5 -83t67.5 -116t24 -131q0 -71 -25 -135.5t-70 -115t-106 -79.5t-132 -29zM112 355q0 -58 19 -111.5t54 -95t83.5 -66t106.5 -24.5q61 0 109.5 25.5
t83 68t52.5 95.5t18 108q0 58 -19 111t-54.5 95t-83.5 66t-106 24q-60 0 -108.5 -25t-83 -67.5t-53 -95.5t-18.5 -108zM283 917h71l60 -93l-44 -17z" />
    <glyph glyph-name="Oacute" unicode="&#xd3;" horiz-adv-x="751" 
d="M375 -5q-75 0 -136 30t-105 81.5t-68 116t-24 132.5q0 71 25 135.5t70.5 115t106.5 80t132 29.5q75 0 136 -31t104.5 -83t67.5 -116t24 -131q0 -71 -25 -135.5t-70 -115t-106 -79.5t-132 -29zM112 355q0 -58 19 -111.5t54 -95t83.5 -66t106.5 -24.5q61 0 109.5 25.5
t83 68t52.5 95.5t18 108q0 58 -19 111t-54.5 95t-83.5 66t-106 24q-60 0 -108.5 -25t-83 -67.5t-53 -95.5t-18.5 -108zM400 807l-45 17l59 93h72z" />
    <glyph glyph-name="Ocircumflex" unicode="&#xd4;" horiz-adv-x="751" 
d="M375 -5q-75 0 -136 30t-105 81.5t-68 116t-24 132.5q0 71 25 135.5t70.5 115t106.5 80t132 29.5q75 0 136 -31t104.5 -83t67.5 -116t24 -131q0 -71 -25 -135.5t-70 -115t-106 -79.5t-132 -29zM112 355q0 -58 19 -111.5t54 -95t83.5 -66t106.5 -24.5q61 0 109.5 25.5
t83 68t52.5 95.5t18 108q0 58 -19 111t-54.5 95t-83.5 66t-106 24q-60 0 -108.5 -25t-83 -67.5t-53 -95.5t-18.5 -108zM253 832l98 85h50l99 -85l-39 -21l-85 63l-85 -63z" />
    <glyph glyph-name="Otilde" unicode="&#xd5;" horiz-adv-x="751" 
d="M375 -5q-75 0 -136 30t-105 81.5t-68 116t-24 132.5q0 71 25 135.5t70.5 115t106.5 80t132 29.5q75 0 136 -31t104.5 -83t67.5 -116t24 -131q0 -71 -25 -135.5t-70 -115t-106 -79.5t-132 -29zM112 355q0 -58 19 -111.5t54 -95t83.5 -66t106.5 -24.5q61 0 109.5 25.5
t83 68t52.5 95.5t18 108q0 58 -19 111t-54.5 95t-83.5 66t-106 24q-60 0 -108.5 -25t-83 -67.5t-53 -95.5t-18.5 -108zM437 825q-30 0 -51 10t-38 20t-39 10t-32.5 -10.5t-14 -22.5t-3.5 -15h-42q0 5 3.5 20t13.5 31.5t27.5 29t46.5 12.5q28 0 47.5 -10.5t38 -21t42.5 -10.5
q26 0 38 11.5t15.5 23.5t3.5 14h42q0 -5 -4 -19.5t-14.5 -31.5t-30 -29t-49.5 -12z" />
    <glyph glyph-name="Odieresis" unicode="&#xd6;" horiz-adv-x="751" 
d="M375 -5q-75 0 -136 30t-105 81.5t-68 116t-24 132.5q0 71 25 135.5t70.5 115t106.5 80t132 29.5q75 0 136 -31t104.5 -83t67.5 -116t24 -131q0 -71 -25 -135.5t-70 -115t-106 -79.5t-132 -29zM112 355q0 -58 19 -111.5t54 -95t83.5 -66t106.5 -24.5q61 0 109.5 25.5
t83 68t52.5 95.5t18 108q0 58 -19 111t-54.5 95t-83.5 66t-106 24q-60 0 -108.5 -25t-83 -67.5t-53 -95.5t-18.5 -108zM273 820v94h58v-94h-58zM422 820v94h58v-94h-58z" />
    <glyph glyph-name="multiply" unicode="&#xd7;" horiz-adv-x="457" 
d="M394 151l-44 -43l-122 121l-121 -121l-43 44l121 120l-120 121l44 43l119 -120l121 121l43 -44l-120 -121z" />
    <glyph glyph-name="Oslash" unicode="&#xd8;" horiz-adv-x="751" 
d="M375 -5q-75 0 -136 30t-105 81.5t-68 116t-24 132.5q0 71 25 135.5t70.5 115t106.5 80t132 29.5q75 0 136 -31t104.5 -83t67.5 -116t24 -131q0 -71 -25 -135.5t-70 -115t-106 -79.5t-132 -29zM112 355q0 -58 19 -111.5t54 -95t83.5 -66t106.5 -24.5q61 0 109.5 25.5
t83 68t52.5 95.5t18 108q0 58 -19 111t-54.5 95t-83.5 66t-106 24q-60 0 -108.5 -25t-83 -67.5t-53 -95.5t-18.5 -108zM650 710l-472 -710h-77l472 710h77z" />
    <glyph glyph-name="Ugrave" unicode="&#xd9;" horiz-adv-x="755" 
d="M378 -5q-84 0 -142 30t-92 80.5t-49.5 114.5t-15.5 132v358h69v-358q0 -55 11.5 -108t37.5 -95t70 -66.5t110 -24.5q68 0 112.5 25.5t70 67.5t36.5 94.5t11 106.5v358h70v-358q0 -71 -16 -136t-51.5 -114t-92.5 -78t-139 -29zM285 917h71l60 -93l-44 -17z" />
    <glyph glyph-name="Uacute" unicode="&#xda;" horiz-adv-x="755" 
d="M378 -5q-84 0 -142 30t-92 80.5t-49.5 114.5t-15.5 132v358h69v-358q0 -55 11.5 -108t37.5 -95t70 -66.5t110 -24.5q68 0 112.5 25.5t70 67.5t36.5 94.5t11 106.5v358h70v-358q0 -71 -16 -136t-51.5 -114t-92.5 -78t-139 -29zM402 807l-45 17l59 93h72z" />
    <glyph glyph-name="Ucircumflex" unicode="&#xdb;" horiz-adv-x="755" 
d="M378 -5q-84 0 -142 30t-92 80.5t-49.5 114.5t-15.5 132v358h69v-358q0 -55 11.5 -108t37.5 -95t70 -66.5t110 -24.5q68 0 112.5 25.5t70 67.5t36.5 94.5t11 106.5v358h70v-358q0 -71 -16 -136t-51.5 -114t-92.5 -78t-139 -29zM255 832l98 85h50l99 -85l-39 -21l-85 63
l-85 -63z" />
    <glyph glyph-name="Udieresis" unicode="&#xdc;" horiz-adv-x="755" 
d="M378 -5q-84 0 -142 30t-92 80.5t-49.5 114.5t-15.5 132v358h69v-358q0 -55 11.5 -108t37.5 -95t70 -66.5t110 -24.5q68 0 112.5 25.5t70 67.5t36.5 94.5t11 106.5v358h70v-358q0 -71 -16 -136t-51.5 -114t-92.5 -78t-139 -29zM275 820v94h58v-94h-58zM424 820v94h58v-94
h-58z" />
    <glyph glyph-name="Yacute" unicode="&#xdd;" horiz-adv-x="651" 
d="M93 710l232 -382l234 382h76l-275 -446v-264h-70v266l-274 444h77zM348 807l-45 17l59 93h72z" />
    <glyph glyph-name="Thorn" unicode="&#xde;" horiz-adv-x="603" 
d="M364 569q47 0 85 -19t66.5 -51t44 -72t15.5 -82q0 -57 -25.5 -108.5t-71.5 -83.5t-107 -32h-212v-121h-70v710h70v-141h205zM368 184q43 0 73.5 23t47.5 60.5t17 78.5q0 43 -19.5 79.5t-52.5 59t-72 22.5h-203v-323h209z" />
    <glyph glyph-name="germandbls" unicode="&#xdf;" horiz-adv-x="551" 
d="M238 57q93 2 149 39.5t56 114.5q0 47 -21.5 82.5t-59 55t-86.5 19.5h-19v62h18q35 0 62.5 14.5t43 40t15.5 59.5q0 36 -17 60.5t-44.5 37t-61.5 12.5q-44 0 -74 -20t-44.5 -53.5t-14.5 -75.5v-505h-65v515q0 59 26 104t71 70t103 25q53 0 95 -20t66.5 -56.5t24.5 -83.5
q0 -35 -14 -67t-38 -54.5t-53 -29.5q74 -16 115.5 -69.5t41.5 -126.5q0 -51 -20 -90t-56 -65.5t-86.5 -41t-112.5 -16.5v63z" />
    <glyph glyph-name="agrave" unicode="&#xe0;" horiz-adv-x="545" 
d="M33 150q0 49 28 84.5t77.5 55t114.5 19.5q38 0 79 -6t73 -18v44q0 66 -39 105t-108 39q-42 0 -82.5 -15.5t-84.5 -45.5l-26 48q51 35 100 52.5t100 17.5q96 0 152 -55t56 -152v-241q0 -14 6 -20.5t19 -7.5v-54q-11 -1 -19 -2t-12 0q-25 1 -38 16t-14 32l-1 38
q-35 -45 -91 -69.5t-114 -24.5q-50 0 -90.5 21.5t-63 58t-22.5 80.5zM382 110q11 14 17 27t6 23v76q-34 13 -70.5 20t-73.5 7q-73 0 -118 -29t-45 -79q0 -29 15 -54.5t44 -42t68 -16.5q49 0 91.5 19t65.5 49zM170 731h71l60 -93l-44 -17z" />
    <glyph glyph-name="aacute" unicode="&#xe1;" horiz-adv-x="545" 
d="M33 150q0 49 28 84.5t77.5 55t114.5 19.5q38 0 79 -6t73 -18v44q0 66 -39 105t-108 39q-42 0 -82.5 -15.5t-84.5 -45.5l-26 48q51 35 100 52.5t100 17.5q96 0 152 -55t56 -152v-241q0 -14 6 -20.5t19 -7.5v-54q-11 -1 -19 -2t-12 0q-25 1 -38 16t-14 32l-1 38
q-35 -45 -91 -69.5t-114 -24.5q-50 0 -90.5 21.5t-63 58t-22.5 80.5zM382 110q11 14 17 27t6 23v76q-34 13 -70.5 20t-73.5 7q-73 0 -118 -29t-45 -79q0 -29 15 -54.5t44 -42t68 -16.5q49 0 91.5 19t65.5 49zM287 620l-45 17l59 93h72z" />
    <glyph glyph-name="acircumflex" unicode="&#xe2;" horiz-adv-x="545" 
d="M33 150q0 49 28 84.5t77.5 55t114.5 19.5q38 0 79 -6t73 -18v44q0 66 -39 105t-108 39q-42 0 -82.5 -15.5t-84.5 -45.5l-26 48q51 35 100 52.5t100 17.5q96 0 152 -55t56 -152v-241q0 -14 6 -20.5t19 -7.5v-54q-11 -1 -19 -2t-12 0q-25 1 -38 16t-14 32l-1 38
q-35 -45 -91 -69.5t-114 -24.5q-50 0 -90.5 21.5t-63 58t-22.5 80.5zM382 110q11 14 17 27t6 23v76q-34 13 -70.5 20t-73.5 7q-73 0 -118 -29t-45 -79q0 -29 15 -54.5t44 -42t68 -16.5q49 0 91.5 19t65.5 49zM140 645l98 85h50l99 -85l-39 -21l-85 63l-85 -63z" />
    <glyph glyph-name="atilde" unicode="&#xe3;" horiz-adv-x="545" 
d="M33 150q0 49 28 84.5t77.5 55t114.5 19.5q38 0 79 -6t73 -18v44q0 66 -39 105t-108 39q-42 0 -82.5 -15.5t-84.5 -45.5l-26 48q51 35 100 52.5t100 17.5q96 0 152 -55t56 -152v-241q0 -14 6 -20.5t19 -7.5v-54q-11 -1 -19 -2t-12 0q-25 1 -38 16t-14 32l-1 38
q-35 -45 -91 -69.5t-114 -24.5q-50 0 -90.5 21.5t-63 58t-22.5 80.5zM382 110q11 14 17 27t6 23v76q-34 13 -70.5 20t-73.5 7q-73 0 -118 -29t-45 -79q0 -29 15 -54.5t44 -42t68 -16.5q49 0 91.5 19t65.5 49zM324 638q-30 0 -51 10t-38 20t-39 10t-32.5 -10.5t-14 -22.5
t-3.5 -15h-42q0 5 3.5 20t13.5 31.5t27.5 29t46.5 12.5q28 0 47.5 -10.5t38 -21t42.5 -10.5q26 0 38 11.5t15.5 23.5t3.5 14h42q0 -5 -4 -19.5t-14.5 -31.5t-30 -29t-49.5 -12z" />
    <glyph glyph-name="adieresis" unicode="&#xe4;" horiz-adv-x="545" 
d="M33 150q0 49 28 84.5t77.5 55t114.5 19.5q38 0 79 -6t73 -18v44q0 66 -39 105t-108 39q-42 0 -82.5 -15.5t-84.5 -45.5l-26 48q51 35 100 52.5t100 17.5q96 0 152 -55t56 -152v-241q0 -14 6 -20.5t19 -7.5v-54q-11 -1 -19 -2t-12 0q-25 1 -38 16t-14 32l-1 38
q-35 -45 -91 -69.5t-114 -24.5q-50 0 -90.5 21.5t-63 58t-22.5 80.5zM382 110q11 14 17 27t6 23v76q-34 13 -70.5 20t-73.5 7q-73 0 -118 -29t-45 -79q0 -29 15 -54.5t44 -42t68 -16.5q49 0 91.5 19t65.5 49zM160 634v94h58v-94h-58zM309 634v94h58v-94h-58z" />
    <glyph glyph-name="aring" unicode="&#xe5;" horiz-adv-x="545" 
d="M33 150q0 49 28 84.5t77.5 55t114.5 19.5q38 0 79 -6t73 -18v44q0 66 -39 105t-108 39q-42 0 -82.5 -15.5t-84.5 -45.5l-26 48q51 35 100 52.5t100 17.5q96 0 152 -55t56 -152v-241q0 -14 6 -20.5t19 -7.5v-54q-11 -1 -19 -2t-12 0q-25 1 -38 16t-14 32l-1 38
q-35 -45 -91 -69.5t-114 -24.5q-50 0 -90.5 21.5t-63 58t-22.5 80.5zM382 110q11 14 17 27t6 23v76q-34 13 -70.5 20t-73.5 7q-73 0 -118 -29t-45 -79q0 -29 15 -54.5t44 -42t68 -16.5q49 0 91.5 19t65.5 49zM174 670q0 37 25.5 60.5t63.5 23.5q39 0 64 -23.5t25 -60.5
t-25 -60t-64 -23q-38 0 -63.5 23t-25.5 60zM263 719q-20 0 -34.5 -13t-14.5 -36q0 -21 14 -35t35 -14q19 0 34.5 13.5t15.5 35.5q0 23 -15 36t-35 13z" />
    <glyph glyph-name="ae" unicode="&#xe6;" horiz-adv-x="932" 
d="M205 -10q-49 0 -88 21.5t-61.5 58t-22.5 82.5q0 47 27.5 82t76.5 55t113 20q35 0 69.5 -5.5t64.5 -14.5q2 19 5.5 39t11.5 37q-9 53 -46.5 83.5t-97.5 30.5q-39 0 -81 -16t-86 -46l-24 45q103 68 197 68q65 0 111 -27.5t69 -76.5q32 47 84 75.5t115 28.5q76 0 134.5 -37
t92 -97.5t33.5 -135.5q0 -5 -0.5 -12.5t-0.5 -11.5h-453q5 -56 32.5 -99.5t71.5 -69t96 -25.5q51 0 96.5 26t62.5 68l60 -16q-16 -37 -49 -67t-77.5 -46.5t-95.5 -16.5q-68 0 -124 31.5t-91 83.5q-21 -41 -59 -66t-82 -37t-84 -12zM221 42q53 0 98 20t68 53q16 17 18 35
q-9 20 -14.5 46.5t-6.5 49.5q-29 10 -61 15t-64 5q-72 0 -117 -30t-45 -79q0 -32 16.5 -58.5t44.5 -41.5t63 -15zM837 282q-4 57 -30.5 101t-69 69t-96.5 25q-52 0 -95 -25t-69 -69t-29 -101h389z" />
    <glyph glyph-name="ccedilla" unicode="&#xe7;" horiz-adv-x="549" 
d="M301 -10q-57 0 -104.5 21.5t-83 59.5t-55 87t-19.5 104q0 74 33 135t92 97t136 36q73 0 129 -33.5t83 -90.5l-66 -21q-22 40 -61.5 62.5t-87.5 22.5q-52 0 -95 -27t-68.5 -74t-25.5 -107q0 -59 26 -107t69 -76.5t95 -28.5q34 0 65.5 12t55 32.5t31.5 44.5l67 -20
q-14 -37 -46.5 -66.5t-76 -46t-93.5 -16.5zM289 -180q-25 0 -55.5 7t-58.5 21l20 39q21 -10 40 -16t43 -6q33 0 51 12.5t18 38.5t-18 45.5t-52 38.5l29 19q39 -24 63 -49.5t24 -64.5q0 -40 -28 -62.5t-76 -22.5z" />
    <glyph glyph-name="egrave" unicode="&#xe8;" horiz-adv-x="587" 
d="M300 -10q-56 0 -104 21.5t-83 59t-54.5 86.5t-19.5 105q0 73 33.5 134t92.5 97.5t134 36.5q77 0 134.5 -37t90.5 -97.5t33 -132.5v-15.5t-1 -11.5h-446q5 -56 31.5 -99.5t69 -69t92.5 -25.5q51 0 96.5 26t63.5 68l59 -16q-16 -37 -49 -67t-77.5 -46.5t-95.5 -16.5z
M108 285h385q-4 57 -30.5 100t-69 67.5t-93.5 24.5t-93 -24.5t-68.5 -68t-30.5 -99.5zM204 731h71l60 -93l-44 -17z" />
    <glyph glyph-name="eacute" unicode="&#xe9;" horiz-adv-x="587" 
d="M300 -10q-56 0 -104 21.5t-83 59t-54.5 86.5t-19.5 105q0 73 33.5 134t92.5 97.5t134 36.5q77 0 134.5 -37t90.5 -97.5t33 -132.5v-15.5t-1 -11.5h-446q5 -56 31.5 -99.5t69 -69t92.5 -25.5q51 0 96.5 26t63.5 68l59 -16q-16 -37 -49 -67t-77.5 -46.5t-95.5 -16.5z
M108 285h385q-4 57 -30.5 100t-69 67.5t-93.5 24.5t-93 -24.5t-68.5 -68t-30.5 -99.5zM320 620l-45 17l59 93h72z" />
    <glyph glyph-name="ecircumflex" unicode="&#xea;" horiz-adv-x="587" 
d="M300 -10q-56 0 -104 21.5t-83 59t-54.5 86.5t-19.5 105q0 73 33.5 134t92.5 97.5t134 36.5q77 0 134.5 -37t90.5 -97.5t33 -132.5v-15.5t-1 -11.5h-446q5 -56 31.5 -99.5t69 -69t92.5 -25.5q51 0 96.5 26t63.5 68l59 -16q-16 -37 -49 -67t-77.5 -46.5t-95.5 -16.5z
M108 285h385q-4 57 -30.5 100t-69 67.5t-93.5 24.5t-93 -24.5t-68.5 -68t-30.5 -99.5zM174 645l98 85h50l99 -85l-39 -21l-85 63l-85 -63z" />
    <glyph glyph-name="edieresis" unicode="&#xeb;" horiz-adv-x="587" 
d="M300 -10q-56 0 -104 21.5t-83 59t-54.5 86.5t-19.5 105q0 73 33.5 134t92.5 97.5t134 36.5q77 0 134.5 -37t90.5 -97.5t33 -132.5v-15.5t-1 -11.5h-446q5 -56 31.5 -99.5t69 -69t92.5 -25.5q51 0 96.5 26t63.5 68l59 -16q-16 -37 -49 -67t-77.5 -46.5t-95.5 -16.5z
M108 285h385q-4 57 -30.5 100t-69 67.5t-93.5 24.5t-93 -24.5t-68.5 -68t-30.5 -99.5zM193 634v94h58v-94h-58zM342 634v94h58v-94h-58z" />
    <glyph glyph-name="igrave" unicode="&#xec;" horiz-adv-x="218" 
d="M75 0v521h68v-521h-68zM16 731h71l60 -93l-44 -17z" />
    <glyph glyph-name="iacute" unicode="&#xed;" horiz-adv-x="218" 
d="M75 0v521h68v-521h-68zM132 620l-45 17l59 93h72z" />
    <glyph glyph-name="icircumflex" unicode="&#xee;" horiz-adv-x="218" 
d="M75 0v521h68v-521h-68zM-14 645l98 85h50l99 -85l-39 -21l-85 63l-85 -63z" />
    <glyph glyph-name="idieresis" unicode="&#xef;" horiz-adv-x="218" 
d="M75 0v521h68v-521h-68zM5 634v94h58v-94h-58zM154 634v94h58v-94h-58z" />
    <glyph glyph-name="eth" unicode="&#xf0;" horiz-adv-x="602" 
d="M559 277q0 -65 -21 -117.5t-57.5 -90.5t-83.5 -58.5t-101 -20.5q-69 0 -127.5 32.5t-92.5 88t-34 122.5q0 49 19 92.5t52.5 77t78 52.5t95.5 19q66 0 121 -32.5t82 -84.5q-8 48 -25.5 95t-50.5 93.5t-87.5 93t-136.5 91.5h96q82 -48 135 -104.5t83.5 -116t42.5 -119
t12 -113.5zM111 232q0 -50 25 -91.5t67.5 -66t94.5 -24.5q54 0 97 26.5t69 70t26 94.5q0 50 -25.5 89.5t-68.5 63t-95 23.5t-95.5 -25t-69 -67t-25.5 -93zM495 683l-102 -63l-22 -8l-122 -76l-22 31l120 73l20 7l106 66z" />
    <glyph glyph-name="ntilde" unicode="&#xf1;" horiz-adv-x="583" 
d="M513 0h-68v291q0 92 -27 134.5t-85 42.5q-40 0 -79 -19.5t-68.5 -53t-42.5 -76.5v-319h-68v521h62v-118q21 38 55 66.5t77 44.5t89 16q43 0 73 -16t48 -45.5t26 -71t8 -92.5v-305zM357 638q-30 0 -51 10t-38 20t-39 10t-32.5 -10.5t-14 -22.5t-3.5 -15h-42q0 5 3.5 20
t13.5 31.5t27.5 29t46.5 12.5q28 0 47.5 -10.5t38 -21t42.5 -10.5q26 0 38 11.5t15.5 23.5t3.5 14h42q0 -5 -4 -19.5t-14.5 -31.5t-30 -29t-49.5 -12z" />
    <glyph glyph-name="ograve" unicode="&#xf2;" horiz-adv-x="595" 
d="M297 -10q-56 0 -103.5 21.5t-82 59t-53.5 86t-19 102.5q0 56 19 104.5t54 86t82.5 59t103.5 21.5t103 -21.5t82 -59t54 -86t19 -104.5q0 -54 -19 -102.5t-53.5 -86t-82 -59t-104.5 -21.5zM108 258q0 -58 25.5 -105.5t68.5 -75t95 -27.5t95 28t69 76.5t26 105.5
q0 58 -26 106t-69 76t-95 28t-94.5 -29t-68.5 -76.5t-26 -106.5zM204 731h71l60 -93l-44 -17z" />
    <glyph glyph-name="oacute" unicode="&#xf3;" horiz-adv-x="595" 
d="M297 -10q-56 0 -103.5 21.5t-82 59t-53.5 86t-19 102.5q0 56 19 104.5t54 86t82.5 59t103.5 21.5t103 -21.5t82 -59t54 -86t19 -104.5q0 -54 -19 -102.5t-53.5 -86t-82 -59t-104.5 -21.5zM108 258q0 -58 25.5 -105.5t68.5 -75t95 -27.5t95 28t69 76.5t26 105.5
q0 58 -26 106t-69 76t-95 28t-94.5 -29t-68.5 -76.5t-26 -106.5zM321 620l-45 17l59 93h72z" />
    <glyph glyph-name="ocircumflex" unicode="&#xf4;" horiz-adv-x="595" 
d="M297 -10q-56 0 -103.5 21.5t-82 59t-53.5 86t-19 102.5q0 56 19 104.5t54 86t82.5 59t103.5 21.5t103 -21.5t82 -59t54 -86t19 -104.5q0 -54 -19 -102.5t-53.5 -86t-82 -59t-104.5 -21.5zM108 258q0 -58 25.5 -105.5t68.5 -75t95 -27.5t95 28t69 76.5t26 105.5
q0 58 -26 106t-69 76t-95 28t-94.5 -29t-68.5 -76.5t-26 -106.5zM174 645l98 85h50l99 -85l-39 -21l-85 63l-85 -63z" />
    <glyph glyph-name="otilde" unicode="&#xf5;" horiz-adv-x="595" 
d="M297 -10q-56 0 -103.5 21.5t-82 59t-53.5 86t-19 102.5q0 56 19 104.5t54 86t82.5 59t103.5 21.5t103 -21.5t82 -59t54 -86t19 -104.5q0 -54 -19 -102.5t-53.5 -86t-82 -59t-104.5 -21.5zM108 258q0 -58 25.5 -105.5t68.5 -75t95 -27.5t95 28t69 76.5t26 105.5
q0 58 -26 106t-69 76t-95 28t-94.5 -29t-68.5 -76.5t-26 -106.5zM358 638q-30 0 -51 10t-38 20t-39 10t-32.5 -10.5t-14 -22.5t-3.5 -15h-42q0 5 3.5 20t13.5 31.5t27.5 29t46.5 12.5q28 0 47.5 -10.5t38 -21t42.5 -10.5q26 0 38 11.5t15.5 23.5t3.5 14h42q0 -5 -4 -19.5
t-14.5 -31.5t-30 -29t-49.5 -12z" />
    <glyph glyph-name="odieresis" unicode="&#xf6;" horiz-adv-x="595" 
d="M297 -10q-56 0 -103.5 21.5t-82 59t-53.5 86t-19 102.5q0 56 19 104.5t54 86t82.5 59t103.5 21.5t103 -21.5t82 -59t54 -86t19 -104.5q0 -54 -19 -102.5t-53.5 -86t-82 -59t-104.5 -21.5zM108 258q0 -58 25.5 -105.5t68.5 -75t95 -27.5t95 28t69 76.5t26 105.5
q0 58 -26 106t-69 76t-95 28t-94.5 -29t-68.5 -76.5t-26 -106.5zM194 634v94h58v-94h-58zM343 634v94h58v-94h-58z" />
    <glyph glyph-name="divide" unicode="&#xf7;" horiz-adv-x="537" 
d="M239 399v91h59v-91h-59zM239 74v90h59v-90h-59zM67 254v57h403v-57h-403z" />
    <glyph glyph-name="oslash" unicode="&#xf8;" horiz-adv-x="595" 
d="M297 -10q-56 0 -103.5 21.5t-82 59t-53.5 86t-19 102.5q0 55 19 104t54 86.5t82.5 59t102.5 21.5q57 0 104 -21.5t82 -59t54 -86.5t19 -104q0 -54 -19 -102.5t-53.5 -86t-82 -59t-104.5 -21.5zM297 50q52 0 95 28t69 76.5t26 105.5q0 58 -26 106t-69 76t-95 28
t-94.5 -28.5t-68.5 -76.5t-26 -107q0 -58 25.5 -105.5t68.5 -75t95 -27.5zM82 -1l64 82l41 -25l-45 -57h-60zM193 61l-40 23l250 378l44 -20zM454 446l-44 20l41 57h62z" />
    <glyph glyph-name="ugrave" unicode="&#xf9;" horiz-adv-x="594" 
d="M70 215v306h68v-294q0 -89 30.5 -133t90.5 -44q40 0 77.5 17.5t66.5 50t44 75.5v328h68v-439q0 -14 6 -20.5t18 -7.5v-54q-12 -1 -19 -1.5t-13 -0.5q-20 2 -34.5 16t-15.5 34l-2 70q-34 -60 -92.5 -94t-126.5 -34q-82 0 -124 57t-42 168zM197 731h71l60 -93l-44 -17z" />
    <glyph glyph-name="uacute" unicode="&#xfa;" horiz-adv-x="594" 
d="M70 215v306h68v-294q0 -89 30.5 -133t90.5 -44q40 0 77.5 17.5t66.5 50t44 75.5v328h68v-439q0 -14 6 -20.5t18 -7.5v-54q-12 -1 -19 -1.5t-13 -0.5q-20 2 -34.5 16t-15.5 34l-2 70q-34 -60 -92.5 -94t-126.5 -34q-82 0 -124 57t-42 168zM314 620l-45 17l59 93h72z" />
    <glyph glyph-name="ucircumflex" unicode="&#xfb;" horiz-adv-x="594" 
d="M70 215v306h68v-294q0 -89 30.5 -133t90.5 -44q40 0 77.5 17.5t66.5 50t44 75.5v328h68v-439q0 -14 6 -20.5t18 -7.5v-54q-12 -1 -19 -1.5t-13 -0.5q-20 2 -34.5 16t-15.5 34l-2 70q-34 -60 -92.5 -94t-126.5 -34q-82 0 -124 57t-42 168zM167 645l98 85h50l99 -85
l-39 -21l-85 63l-85 -63z" />
    <glyph glyph-name="udieresis" unicode="&#xfc;" horiz-adv-x="594" 
d="M70 215v306h68v-294q0 -89 30.5 -133t90.5 -44q40 0 77.5 17.5t66.5 50t44 75.5v328h68v-439q0 -14 6 -20.5t18 -7.5v-54q-12 -1 -19 -1.5t-13 -0.5q-20 2 -34.5 16t-15.5 34l-2 70q-34 -60 -92.5 -94t-126.5 -34q-82 0 -124 57t-42 168zM187 634v94h58v-94h-58zM336 634
v94h58v-94h-58z" />
    <glyph glyph-name="yacute" unicode="&#xfd;" horiz-adv-x="542" 
d="M105 -160q14 -1 27 -1.5t19 1.5q12 2 23 14t26 46t42 100l-227 521h72l191 -451l176 451h68l-270 -672q-7 -19 -21 -35.5t-34.5 -26t-50.5 -10.5q-9 -1 -18.5 -0.5t-22.5 2.5v61zM302 620l-45 17l59 93h72z" />
    <glyph glyph-name="thorn" unicode="&#xfe;" horiz-adv-x="603" 
d="M565 257q-1 -53 -21 -102.5t-54.5 -87.5t-80.5 -60.5t-100 -22.5q-55 0 -98.5 27t-66.5 63v-287h-69v923h69v-276q29 40 71 69t103 29q58 0 103.5 -24t77.5 -64t49 -88.5t17 -98.5zM495 258q0 56 -22.5 104t-63 78t-94.5 30q-40 0 -72.5 -17t-57 -45t-41.5 -60v-176
q0 -24 16 -46.5t40.5 -40.5t53 -28t54.5 -10q41 0 75 17.5t59.5 47.5t39 68t13.5 78z" />
    <glyph glyph-name="ydieresis" unicode="&#xff;" horiz-adv-x="542" 
d="M105 -160q14 -1 27 -1.5t19 1.5q12 2 23 14t26 46t42 100l-227 521h72l191 -451l176 451h68l-270 -672q-7 -19 -21 -35.5t-34.5 -26t-50.5 -10.5q-9 -1 -18.5 -0.5t-22.5 2.5v61zM175 634v94h58v-94h-58zM324 634v94h58v-94h-58z" />
    <glyph glyph-name="Amacron" unicode="&#x100;" horiz-adv-x="676" 
d="M309 710h59l295 -710h-74l-92 222h-319l-91 -222h-75zM481 277l-143 351l-145 -351h288zM195 850v47h289v-47h-289z" />
    <glyph glyph-name="amacron" unicode="&#x101;" horiz-adv-x="545" 
d="M33 150q0 49 28 84.5t77.5 55t114.5 19.5q38 0 79 -6t73 -18v44q0 66 -39 105t-108 39q-42 0 -82.5 -15.5t-84.5 -45.5l-26 48q51 35 100 52.5t100 17.5q96 0 152 -55t56 -152v-241q0 -14 6 -20.5t19 -7.5v-54q-11 -1 -19 -2t-12 0q-25 1 -38 16t-14 32l-1 38
q-35 -45 -91 -69.5t-114 -24.5q-50 0 -90.5 21.5t-63 58t-22.5 80.5zM382 110q11 14 17 27t6 23v76q-34 13 -70.5 20t-73.5 7q-73 0 -118 -29t-45 -79q0 -29 15 -54.5t44 -42t68 -16.5q49 0 91.5 19t65.5 49zM120 663v47h289v-47h-289z" />
    <glyph glyph-name="Abreve" unicode="&#x102;" horiz-adv-x="676" 
d="M309 710h59l295 -710h-74l-92 222h-319l-91 -222h-75zM481 277l-143 351l-145 -351h288zM338 851q21 0 37.5 19t19.5 47h41q0 -42 -28.5 -71.5t-69.5 -29.5t-69.5 29.5t-28.5 71.5h42q0 -26 17 -46t39 -20z" />
    <glyph glyph-name="abreve" unicode="&#x103;" horiz-adv-x="545" 
d="M33 150q0 49 28 84.5t77.5 55t114.5 19.5q38 0 79 -6t73 -18v44q0 66 -39 105t-108 39q-42 0 -82.5 -15.5t-84.5 -45.5l-26 48q51 35 100 52.5t100 17.5q96 0 152 -55t56 -152v-241q0 -14 6 -20.5t19 -7.5v-54q-11 -1 -19 -2t-12 0q-25 1 -38 16t-14 32l-1 38
q-35 -45 -91 -69.5t-114 -24.5q-50 0 -90.5 21.5t-63 58t-22.5 80.5zM382 110q11 14 17 27t6 23v76q-34 13 -70.5 20t-73.5 7q-73 0 -118 -29t-45 -79q0 -29 15 -54.5t44 -42t68 -16.5q49 0 91.5 19t65.5 49zM263 664q21 0 37.5 19t19.5 47h41q0 -42 -28.5 -71.5
t-69.5 -29.5t-69.5 29.5t-28.5 71.5h42q0 -26 17 -46t39 -20z" />
    <glyph glyph-name="Aogonek" unicode="&#x104;" horiz-adv-x="676" 
d="M309 710h59l295 -710h-74l-92 222h-319l-91 -222h-75zM481 277l-143 351l-145 -351h288zM538 -105q0 31 22.5 60.5t67.5 60.5h19l17 -16q-41 -31 -59.5 -53.5t-18.5 -42.5q0 -19 19.5 -28t56.5 -13l-17 -45q-43 5 -66.5 16.5t-32 27.5t-8.5 33z" />
    <glyph glyph-name="aogonek" unicode="&#x105;" horiz-adv-x="545" 
d="M33 150q0 49 28 84.5t77.5 55t114.5 19.5q38 0 79 -6t73 -18v44q0 66 -39 105t-108 39q-42 0 -82.5 -15.5t-84.5 -45.5l-26 48q51 35 100 52.5t100 17.5q96 0 152 -55t56 -152v-241q0 -14 6 -20.5t19 -7.5v-54q-11 -1 -19 -2t-12 0q-25 1 -38 16t-14 32l-1 38
q-35 -45 -91 -69.5t-114 -24.5q-50 0 -90.5 21.5t-63 58t-22.5 80.5zM382 110q11 14 17 27t6 23v76q-34 13 -70.5 20t-73.5 7q-73 0 -118 -29t-45 -79q0 -29 15 -54.5t44 -42t68 -16.5q49 0 91.5 19t65.5 49zM372 -105q0 31 22.5 60.5t67.5 60.5h19l17 -16
q-41 -31 -59.5 -53.5t-18.5 -42.5q0 -19 19.5 -28t56.5 -13l-17 -45q-43 5 -66.5 16.5t-32 27.5t-8.5 33z" />
    <glyph glyph-name="Cacute" unicode="&#x106;" horiz-adv-x="686" 
d="M42 360q0 65 22.5 127.5t65.5 114t106 82t143 30.5q95 0 162.5 -43.5t99.5 -111.5l-55 -34q-23 47 -58 74.5t-74.5 39.5t-78.5 12q-64 0 -113 -25.5t-82.5 -68t-50.5 -95t-17 -106.5q0 -59 20 -113t56 -95.5t84.5 -66t105.5 -24.5q40 0 82 14t78.5 43t58.5 75l58 -30
q-22 -53 -68 -90t-102.5 -56t-110.5 -19q-73 0 -134 31.5t-105.5 84t-68.5 118t-24 132.5zM401 807l-45 17l59 93h72z" />
    <glyph glyph-name="cacute" unicode="&#x107;" horiz-adv-x="549" 
d="M301 -10q-57 0 -104.5 21.5t-83 59.5t-55 87t-19.5 104q0 74 33 135t92 97t136 36q73 0 129 -33.5t83 -90.5l-66 -21q-22 40 -61.5 62.5t-87.5 22.5q-52 0 -95 -27t-68.5 -74t-25.5 -107q0 -59 26 -107t69 -76.5t95 -28.5q34 0 65.5 12t55 32.5t31.5 44.5l67 -20
q-14 -37 -46.5 -66.5t-76 -46t-93.5 -16.5zM321 620l-45 17l59 93h72z" />
    <glyph glyph-name="Ccircumflex" unicode="&#x108;" horiz-adv-x="686" 
d="M42 360q0 65 22.5 127.5t65.5 114t106 82t143 30.5q95 0 162.5 -43.5t99.5 -111.5l-55 -34q-23 47 -58 74.5t-74.5 39.5t-78.5 12q-64 0 -113 -25.5t-82.5 -68t-50.5 -95t-17 -106.5q0 -59 20 -113t56 -95.5t84.5 -66t105.5 -24.5q40 0 82 14t78.5 43t58.5 75l58 -30
q-22 -53 -68 -90t-102.5 -56t-110.5 -19q-73 0 -134 31.5t-105.5 84t-68.5 118t-24 132.5zM254 832l98 85h50l99 -85l-39 -21l-85 63l-85 -63z" />
    <glyph glyph-name="ccircumflex" unicode="&#x109;" horiz-adv-x="549" 
d="M301 -10q-57 0 -104.5 21.5t-83 59.5t-55 87t-19.5 104q0 74 33 135t92 97t136 36q73 0 129 -33.5t83 -90.5l-66 -21q-22 40 -61.5 62.5t-87.5 22.5q-52 0 -95 -27t-68.5 -74t-25.5 -107q0 -59 26 -107t69 -76.5t95 -28.5q34 0 65.5 12t55 32.5t31.5 44.5l67 -20
q-14 -37 -46.5 -66.5t-76 -46t-93.5 -16.5zM175 645l98 85h50l99 -85l-39 -21l-85 63l-85 -63z" />
    <glyph glyph-name="Cdotaccent" unicode="&#x10a;" horiz-adv-x="686" 
d="M42 360q0 65 22.5 127.5t65.5 114t106 82t143 30.5q95 0 162.5 -43.5t99.5 -111.5l-55 -34q-23 47 -58 74.5t-74.5 39.5t-78.5 12q-64 0 -113 -25.5t-82.5 -68t-50.5 -95t-17 -106.5q0 -59 20 -113t56 -95.5t84.5 -66t105.5 -24.5q40 0 82 14t78.5 43t58.5 75l58 -30
q-22 -53 -68 -90t-102.5 -56t-110.5 -19q-73 0 -134 31.5t-105.5 84t-68.5 118t-24 132.5zM346 820v97h62v-97h-62z" />
    <glyph glyph-name="cdotaccent" unicode="&#x10b;" horiz-adv-x="549" 
d="M301 -10q-57 0 -104.5 21.5t-83 59.5t-55 87t-19.5 104q0 74 33 135t92 97t136 36q73 0 129 -33.5t83 -90.5l-66 -21q-22 40 -61.5 62.5t-87.5 22.5q-52 0 -95 -27t-68.5 -74t-25.5 -107q0 -59 26 -107t69 -76.5t95 -28.5q34 0 65.5 12t55 32.5t31.5 44.5l67 -20
q-14 -37 -46.5 -66.5t-76 -46t-93.5 -16.5zM267 633v97h62v-97h-62z" />
    <glyph glyph-name="Ccaron" unicode="&#x10c;" horiz-adv-x="686" 
d="M42 360q0 65 22.5 127.5t65.5 114t106 82t143 30.5q95 0 162.5 -43.5t99.5 -111.5l-55 -34q-23 47 -58 74.5t-74.5 39.5t-78.5 12q-64 0 -113 -25.5t-82.5 -68t-50.5 -95t-17 -106.5q0 -59 20 -113t56 -95.5t84.5 -66t105.5 -24.5q40 0 82 14t78.5 43t58.5 75l58 -30
q-22 -53 -68 -90t-102.5 -56t-110.5 -19q-73 0 -134 31.5t-105.5 84t-68.5 118t-24 132.5zM292 917l85 -63l85 63l39 -20l-99 -86h-50l-98 86z" />
    <glyph glyph-name="ccaron" unicode="&#x10d;" horiz-adv-x="549" 
d="M301 -10q-57 0 -104.5 21.5t-83 59.5t-55 87t-19.5 104q0 74 33 135t92 97t136 36q73 0 129 -33.5t83 -90.5l-66 -21q-22 40 -61.5 62.5t-87.5 22.5q-52 0 -95 -27t-68.5 -74t-25.5 -107q0 -59 26 -107t69 -76.5t95 -28.5q34 0 65.5 12t55 32.5t31.5 44.5l67 -20
q-14 -37 -46.5 -66.5t-76 -46t-93.5 -16.5zM213 730l85 -63l85 63l39 -20l-99 -86h-50l-98 86z" />
    <glyph glyph-name="Dcaron" unicode="&#x10e;" horiz-adv-x="715" 
d="M89 0v710h241q113 0 188.5 -47.5t113.5 -128t38 -178.5q0 -108 -41.5 -188t-118 -124t-180.5 -44h-241zM600 356q0 85 -31.5 151t-91.5 103.5t-147 37.5h-171v-586h171q88 0 148 39t91 105.5t31 149.5zM259 917l85 -63l85 63l39 -20l-99 -86h-50l-98 86z" />
    <glyph glyph-name="dcaron" unicode="&#x10f;" horiz-adv-x="622" 
d="M40 259q0 74 30.5 135.5t84.5 98.5t123 37q65 0 116.5 -34.5t80.5 -83.5v318h68v-648q0 -14 6 -20.5t18 -7.5v-54q-20 -3 -31 -2q-21 1 -37 17t-16 35v51q-31 -51 -84 -81t-110 -30q-54 0 -99.5 22t-79 60t-52 86.5t-18.5 100.5zM475 179v161q-13 36 -42 65.5t-65.5 47
t-72.5 17.5q-42 0 -76 -17.5t-58.5 -47.5t-37.5 -68t-13 -78q0 -42 14.5 -80t41.5 -67.5t62 -45.5t76 -16q26 0 54 10t53.5 27.5t42.5 41.5t21 50zM625 620l-45 17l59 93h72z" />
    <glyph glyph-name="Dcroat" unicode="&#x110;" horiz-adv-x="721" 
d="M34 330v54h301v-54h-301zM95 0v710h241q114 0 189.5 -47.5t113 -128t37.5 -178.5q0 -108 -41.5 -188t-118 -124t-180.5 -44h-241zM606 356q0 85 -31.5 151t-91.5 103.5t-147 37.5h-171v-586h171q88 0 148 39t91 105.5t31 149.5z" />
    <glyph glyph-name="dcroat" unicode="&#x111;" horiz-adv-x="622" 
d="M361 617v46h252v-46h-252zM40 259q0 74 30.5 135.5t84.5 98.5t123 37q65 0 116.5 -34.5t80.5 -83.5v318h68v-648q0 -14 6 -20.5t18 -7.5v-54q-20 -3 -31 -2q-21 1 -37 17t-16 35v51q-31 -51 -84 -81t-110 -30q-54 0 -99.5 22t-79 60t-52 86.5t-18.5 100.5zM475 179v161
q-13 36 -42 65.5t-65.5 47t-72.5 17.5q-42 0 -76 -17.5t-58.5 -47.5t-37.5 -68t-13 -78q0 -42 14.5 -80t41.5 -67.5t62 -45.5t76 -16q26 0 54 10t53.5 27.5t42.5 41.5t21 50z" />
    <glyph glyph-name="Emacron" unicode="&#x112;" horiz-adv-x="609" 
d="M566 62v-62h-477v710h468v-62h-398v-256h347v-59h-347v-271h407zM193 850v47h289v-47h-289z" />
    <glyph glyph-name="emacron" unicode="&#x113;" horiz-adv-x="587" 
d="M300 -10q-56 0 -104 21.5t-83 59t-54.5 86.5t-19.5 105q0 73 33.5 134t92.5 97.5t134 36.5q77 0 134.5 -37t90.5 -97.5t33 -132.5v-15.5t-1 -11.5h-446q5 -56 31.5 -99.5t69 -69t92.5 -25.5q51 0 96.5 26t63.5 68l59 -16q-16 -37 -49 -67t-77.5 -46.5t-95.5 -16.5z
M108 285h385q-4 57 -30.5 100t-69 67.5t-93.5 24.5t-93 -24.5t-68.5 -68t-30.5 -99.5zM153 663v47h289v-47h-289z" />
    <glyph glyph-name="Ebreve" unicode="&#x114;" horiz-adv-x="609" 
d="M566 62v-62h-477v710h468v-62h-398v-256h347v-59h-347v-271h407zM337 851q21 0 37.5 19t19.5 47h41q0 -42 -28.5 -71.5t-69.5 -29.5t-69.5 29.5t-28.5 71.5h42q0 -26 17 -46t39 -20z" />
    <glyph glyph-name="ebreve" unicode="&#x115;" horiz-adv-x="587" 
d="M300 -10q-56 0 -104 21.5t-83 59t-54.5 86.5t-19.5 105q0 73 33.5 134t92.5 97.5t134 36.5q77 0 134.5 -37t90.5 -97.5t33 -132.5v-15.5t-1 -11.5h-446q5 -56 31.5 -99.5t69 -69t92.5 -25.5q51 0 96.5 26t63.5 68l59 -16q-16 -37 -49 -67t-77.5 -46.5t-95.5 -16.5z
M108 285h385q-4 57 -30.5 100t-69 67.5t-93.5 24.5t-93 -24.5t-68.5 -68t-30.5 -99.5zM297 664q21 0 37.5 19t19.5 47h41q0 -42 -28.5 -71.5t-69.5 -29.5t-69.5 29.5t-28.5 71.5h42q0 -26 17 -46t39 -20z" />
    <glyph glyph-name="Edotaccent" unicode="&#x116;" horiz-adv-x="609" 
d="M566 62v-62h-477v710h468v-62h-398v-256h347v-59h-347v-271h407zM306 820v97h62v-97h-62z" />
    <glyph glyph-name="edotaccent" unicode="&#x117;" horiz-adv-x="587" 
d="M300 -10q-56 0 -104 21.5t-83 59t-54.5 86.5t-19.5 105q0 73 33.5 134t92.5 97.5t134 36.5q77 0 134.5 -37t90.5 -97.5t33 -132.5v-15.5t-1 -11.5h-446q5 -56 31.5 -99.5t69 -69t92.5 -25.5q51 0 96.5 26t63.5 68l59 -16q-16 -37 -49 -67t-77.5 -46.5t-95.5 -16.5z
M108 285h385q-4 57 -30.5 100t-69 67.5t-93.5 24.5t-93 -24.5t-68.5 -68t-30.5 -99.5zM266 633v97h62v-97h-62z" />
    <glyph glyph-name="Eogonek" unicode="&#x118;" horiz-adv-x="609" 
d="M566 62v-62h-477v710h468v-62h-398v-256h347v-59h-347v-271h407zM441 -105q0 31 22.5 60.5t67.5 60.5h19l17 -16q-41 -31 -59.5 -53.5t-18.5 -42.5q0 -19 19.5 -28t56.5 -13l-17 -45q-43 5 -66.5 16.5t-32 27.5t-8.5 33z" />
    <glyph glyph-name="eogonek" unicode="&#x119;" horiz-adv-x="587" 
d="M300 -10q-56 0 -104 21.5t-83 59t-54.5 86.5t-19.5 105q0 73 33.5 134t92.5 97.5t134 36.5q77 0 134.5 -37t90.5 -97.5t33 -132.5v-15.5t-1 -11.5h-446q5 -56 31.5 -99.5t69 -69t92.5 -25.5q51 0 96.5 26t63.5 68l59 -16q-16 -37 -49 -67t-77.5 -46.5t-95.5 -16.5z
M108 285h385q-4 57 -30.5 100t-69 67.5t-93.5 24.5t-93 -24.5t-68.5 -68t-30.5 -99.5zM246 -105q0 31 22.5 60.5t67.5 60.5h19l17 -16q-41 -31 -59.5 -53.5t-18.5 -42.5q0 -19 19.5 -28t56.5 -13l-17 -45q-43 5 -66.5 16.5t-32 27.5t-8.5 33z" />
    <glyph glyph-name="Ecaron" unicode="&#x11a;" horiz-adv-x="609" 
d="M566 62v-62h-477v710h468v-62h-398v-256h347v-59h-347v-271h407zM252 917l85 -63l85 63l39 -20l-99 -86h-50l-98 86z" />
    <glyph glyph-name="ecaron" unicode="&#x11b;" horiz-adv-x="587" 
d="M300 -10q-56 0 -104 21.5t-83 59t-54.5 86.5t-19.5 105q0 73 33.5 134t92.5 97.5t134 36.5q77 0 134.5 -37t90.5 -97.5t33 -132.5v-15.5t-1 -11.5h-446q5 -56 31.5 -99.5t69 -69t92.5 -25.5q51 0 96.5 26t63.5 68l59 -16q-16 -37 -49 -67t-77.5 -46.5t-95.5 -16.5z
M108 285h385q-4 57 -30.5 100t-69 67.5t-93.5 24.5t-93 -24.5t-68.5 -68t-30.5 -99.5zM212 730l85 -63l85 63l39 -20l-99 -86h-50l-98 86z" />
    <glyph glyph-name="Gcircumflex" unicode="&#x11c;" horiz-adv-x="716" 
d="M374 -5q-71 0 -132 30.5t-106 82.5t-69.5 116t-24.5 132q0 72 24.5 136.5t68.5 114.5t104 79t131 29q105 0 171 -43t100 -112l-54 -36q-34 66 -91 97t-127 31q-59 0 -106.5 -25t-81.5 -67t-51.5 -95t-17.5 -110q0 -60 20 -113.5t57 -95t85.5 -65t104.5 -23.5
q65 0 123 32.5t111 100.5v-74q-101 -122 -239 -122zM602 295h-158v54h217v-349h-59v295zM246 832l98 85h50l99 -85l-39 -21l-85 63l-85 -63z" />
    <glyph glyph-name="gcircumflex" unicode="&#x11d;" horiz-adv-x="618" 
d="M284 -7q-53 0 -98 22t-77.5 59.5t-50.5 85.5t-18 99q0 55 17.5 103.5t50 86.5t76.5 59.5t98 21.5q67 0 116.5 -34t83.5 -84v109h61v-523q0 -72 -34.5 -121.5t-93 -74.5t-127.5 -25q-89 0 -144 32t-90 86l42 33q31 -49 82.5 -73t109.5 -24q51 0 93.5 18.5t68 55.5t25.5 93
v103q-30 -49 -82 -78.5t-109 -29.5zM303 50q31 0 59.5 11t52.5 29.5t40 41.5t20 47v161q-15 38 -43 67.5t-63.5 46t-73.5 16.5q-44 0 -78.5 -18.5t-58 -49t-36.5 -68.5t-13 -76q0 -42 15 -79.5t41.5 -67t62 -45.5t75.5 -16zM178 645l98 85h50l99 -85l-39 -21l-85 63l-85 -63
z" />
    <glyph glyph-name="Gbreve" unicode="&#x11e;" horiz-adv-x="716" 
d="M374 -5q-71 0 -132 30.5t-106 82.5t-69.5 116t-24.5 132q0 72 24.5 136.5t68.5 114.5t104 79t131 29q105 0 171 -43t100 -112l-54 -36q-34 66 -91 97t-127 31q-59 0 -106.5 -25t-81.5 -67t-51.5 -95t-17.5 -110q0 -60 20 -113.5t57 -95t85.5 -65t104.5 -23.5
q65 0 123 32.5t111 100.5v-74q-101 -122 -239 -122zM602 295h-158v54h217v-349h-59v295zM369 851q21 0 37.5 19t19.5 47h41q0 -42 -28.5 -71.5t-69.5 -29.5t-69.5 29.5t-28.5 71.5h42q0 -26 17 -46t39 -20z" />
    <glyph glyph-name="gbreve" unicode="&#x11f;" horiz-adv-x="618" 
d="M284 -7q-53 0 -98 22t-77.5 59.5t-50.5 85.5t-18 99q0 55 17.5 103.5t50 86.5t76.5 59.5t98 21.5q67 0 116.5 -34t83.5 -84v109h61v-523q0 -72 -34.5 -121.5t-93 -74.5t-127.5 -25q-89 0 -144 32t-90 86l42 33q31 -49 82.5 -73t109.5 -24q51 0 93.5 18.5t68 55.5t25.5 93
v103q-30 -49 -82 -78.5t-109 -29.5zM303 50q31 0 59.5 11t52.5 29.5t40 41.5t20 47v161q-15 38 -43 67.5t-63.5 46t-73.5 16.5q-44 0 -78.5 -18.5t-58 -49t-36.5 -68.5t-13 -76q0 -42 15 -79.5t41.5 -67t62 -45.5t75.5 -16zM301 664q21 0 37.5 19t19.5 47h41
q0 -42 -28.5 -71.5t-69.5 -29.5t-69.5 29.5t-28.5 71.5h42q0 -26 17 -46t39 -20z" />
    <glyph glyph-name="Gdotaccent" unicode="&#x120;" horiz-adv-x="716" 
d="M374 -5q-71 0 -132 30.5t-106 82.5t-69.5 116t-24.5 132q0 72 24.5 136.5t68.5 114.5t104 79t131 29q105 0 171 -43t100 -112l-54 -36q-34 66 -91 97t-127 31q-59 0 -106.5 -25t-81.5 -67t-51.5 -95t-17.5 -110q0 -60 20 -113.5t57 -95t85.5 -65t104.5 -23.5
q65 0 123 32.5t111 100.5v-74q-101 -122 -239 -122zM602 295h-158v54h217v-349h-59v295zM338 820v97h62v-97h-62z" />
    <glyph glyph-name="gdotaccent" unicode="&#x121;" horiz-adv-x="618" 
d="M284 -7q-53 0 -98 22t-77.5 59.5t-50.5 85.5t-18 99q0 55 17.5 103.5t50 86.5t76.5 59.5t98 21.5q67 0 116.5 -34t83.5 -84v109h61v-523q0 -72 -34.5 -121.5t-93 -74.5t-127.5 -25q-89 0 -144 32t-90 86l42 33q31 -49 82.5 -73t109.5 -24q51 0 93.5 18.5t68 55.5t25.5 93
v103q-30 -49 -82 -78.5t-109 -29.5zM303 50q31 0 59.5 11t52.5 29.5t40 41.5t20 47v161q-15 38 -43 67.5t-63.5 46t-73.5 16.5q-44 0 -78.5 -18.5t-58 -49t-36.5 -68.5t-13 -76q0 -42 15 -79.5t41.5 -67t62 -45.5t75.5 -16zM270 633v97h62v-97h-62z" />
    <glyph glyph-name="uni0122" unicode="&#x122;" horiz-adv-x="716" 
d="M374 -5q-71 0 -132 30.5t-106 82.5t-69.5 116t-24.5 132q0 72 24.5 136.5t68.5 114.5t104 79t131 29q105 0 171 -43t100 -112l-54 -36q-34 66 -91 97t-127 31q-59 0 -106.5 -25t-81.5 -67t-51.5 -95t-17.5 -110q0 -60 20 -113.5t57 -95t85.5 -65t104.5 -23.5
q65 0 123 32.5t111 100.5v-74q-101 -122 -239 -122zM602 295h-158v54h217v-349h-59v295zM346 -199l17 74h-20v76h63v-76l-25 -74h-35z" />
    <glyph glyph-name="uni0123" unicode="&#x123;" horiz-adv-x="618" 
d="M284 -7q-53 0 -98 22t-77.5 59.5t-50.5 85.5t-18 99q0 55 17.5 103.5t50 86.5t76.5 59.5t98 21.5q67 0 116.5 -34t83.5 -84v109h61v-523q0 -72 -34.5 -121.5t-93 -74.5t-127.5 -25q-89 0 -144 32t-90 86l42 33q31 -49 82.5 -73t109.5 -24q51 0 93.5 18.5t68 55.5t25.5 93
v103q-30 -49 -82 -78.5t-109 -29.5zM303 50q31 0 59.5 11t52.5 29.5t40 41.5t20 47v161q-15 38 -43 67.5t-63.5 46t-73.5 16.5q-44 0 -78.5 -18.5t-58 -49t-36.5 -68.5t-13 -76q0 -42 15 -79.5t41.5 -67t62 -45.5t75.5 -16zM329 730l-17 -64h20v-70h-63v70l25 64h35z" />
    <glyph glyph-name="Hcircumflex" unicode="&#x124;" horiz-adv-x="738" 
d="M649 710v-710h-69v332h-421v-332h-70v710h70v-316h421v316h69zM248 832l98 85h50l99 -85l-39 -21l-85 63l-85 -63z" />
    <glyph glyph-name="hcircumflex" unicode="&#x125;" horiz-adv-x="583" 
d="M513 0h-68v291q0 88 -31 132.5t-89 44.5q-38 0 -75.5 -19.5t-66 -53t-40.5 -76.5v-319h-68v730h68v-327q31 58 86.5 92.5t118.5 34.5q45 0 76.5 -16t51 -46.5t28.5 -71t9 -91.5v-305zM190 834l98 85h50l99 -85l-39 -21l-85 63l-85 -63z" />
    <glyph glyph-name="Hbar" unicode="&#x126;" horiz-adv-x="748" 
d="M44 536v53h660v-53h-660zM654 710v-710h-69v332h-421v-332h-70v710h70v-316h421v316h69z" />
    <glyph glyph-name="hbar" unicode="&#x127;" horiz-adv-x="583" 
d="M14 617v46h252v-46h-252zM513 0h-68v291q0 88 -31 132.5t-89 44.5q-38 0 -75.5 -19.5t-66 -53t-40.5 -76.5v-319h-68v730h68v-327q31 58 86.5 92.5t118.5 34.5q45 0 76.5 -16t51 -46.5t28.5 -71t9 -91.5v-305z" />
    <glyph glyph-name="Itilde" unicode="&#x128;" horiz-adv-x="248" 
d="M89 0v710h70v-710h-70zM185 825q-30 0 -51 10t-38 20t-39 10t-32.5 -10.5t-14 -22.5t-3.5 -15h-42q0 5 3.5 20t13.5 31.5t27.5 29t46.5 12.5q28 0 47.5 -10.5t38 -21t42.5 -10.5q26 0 38 11.5t15.5 23.5t3.5 14h42q0 -5 -4 -19.5t-14.5 -31.5t-30 -29t-49.5 -12z" />
    <glyph glyph-name="itilde" unicode="&#x129;" horiz-adv-x="218" 
d="M75 0v521h68v-521h-68zM170 638q-30 0 -51 10t-38 20t-39 10t-32.5 -10.5t-14 -22.5t-3.5 -15h-42q0 5 3.5 20t13.5 31.5t27.5 29t46.5 12.5q28 0 47.5 -10.5t38 -21t42.5 -10.5q26 0 38 11.5t15.5 23.5t3.5 14h42q0 -5 -4 -19.5t-14.5 -31.5t-30 -29t-49.5 -12z" />
    <glyph glyph-name="Imacron" unicode="&#x12a;" horiz-adv-x="248" 
d="M89 0v710h70v-710h-70zM-20 850v47h289v-47h-289z" />
    <glyph glyph-name="imacron" unicode="&#x12b;" horiz-adv-x="218" 
d="M75 0v521h68v-521h-68zM-35 663v47h289v-47h-289z" />
    <glyph glyph-name="Ibreve" unicode="&#x12c;" horiz-adv-x="248" 
d="M89 0v710h70v-710h-70zM124 851q21 0 37.5 19t19.5 47h41q0 -42 -28.5 -71.5t-69.5 -29.5t-69.5 29.5t-28.5 71.5h42q0 -26 17 -46t39 -20z" />
    <glyph glyph-name="ibreve" unicode="&#x12d;" horiz-adv-x="218" 
d="M75 0v521h68v-521h-68zM109 664q21 0 37.5 19t19.5 47h41q0 -42 -28.5 -71.5t-69.5 -29.5t-69.5 29.5t-28.5 71.5h42q0 -26 17 -46t39 -20z" />
    <glyph glyph-name="Iogonek" unicode="&#x12e;" horiz-adv-x="248" 
d="M89 0v710h70v-710h-70zM33 -105q0 31 22.5 60.5t67.5 60.5h19l17 -16q-41 -31 -59.5 -53.5t-18.5 -42.5q0 -19 19.5 -28t56.5 -13l-17 -45q-43 5 -66.5 16.5t-32 27.5t-8.5 33z" />
    <glyph glyph-name="iogonek" unicode="&#x12f;" horiz-adv-x="218" 
d="M75 0v521h68v-521h-68zM75 630v100h68v-100h-68zM17 -105q0 31 22.5 60.5t67.5 60.5h19l17 -16q-41 -31 -59.5 -53.5t-18.5 -42.5q0 -19 19.5 -28t56.5 -13l-17 -45q-43 5 -66.5 16.5t-32 27.5t-8.5 33z" />
    <glyph glyph-name="Idotaccent" unicode="&#x130;" horiz-adv-x="248" 
d="M89 0v710h70v-710h-70zM93 820v97h62v-97h-62z" />
    <glyph glyph-name="dotlessi" unicode="&#x131;" horiz-adv-x="218" 
d="M75 0v521h68v-521h-68z" />
    <glyph glyph-name="IJ" unicode="&#x132;" horiz-adv-x="729" 
d="M89 0v710h70v-710h-70zM282 89q21 -15 55.5 -26t79.5 -11q52 0 84 17.5t49 53t23 88.5t6 124v375h70v-361q0 -80 -8 -146t-31 -114t-69 -74t-122 -26q-49 0 -87 11t-70 33z" />
    <glyph glyph-name="ij" unicode="&#x133;" horiz-adv-x="443" 
d="M75 0v521h68v-521h-68zM75 630v100h68v-100h-68zM215 -181q-33 0 -62.5 9t-51.5 30l33 46q15 -14 34.5 -19t38.5 -5q24 0 45 12t34.5 33.5t13.5 47.5v548h68v-544q0 -46 -22 -82t-57 -56t-74 -20zM300 630v100h68v-100h-68z" />
    <glyph glyph-name="Jcircumflex" unicode="&#x134;" horiz-adv-x="481" 
d="M34 89q21 -15 55.5 -26t79.5 -11q52 0 84 17.5t49 53t23 88.5t6 124v375h70v-361q0 -80 -8 -146t-31 -114t-69 -74t-122 -26q-49 0 -87 11t-70 33zM244 832l98 85h50l99 -85l-39 -21l-85 63l-85 -63z" />
    <glyph glyph-name="jcircumflex" unicode="&#x135;" horiz-adv-x="218" 
d="M-11 -181q-32 0 -61.5 9t-52.5 30l34 46q15 -14 34.5 -19t38.5 -5q24 0 45 12t34.5 33.5t13.5 47.5v548h68v-544q0 -46 -22.5 -82t-57 -56t-74.5 -20zM-14 645l98 85h50l99 -85l-39 -21l-85 63l-85 -63z" />
    <glyph glyph-name="uni0136" unicode="&#x136;" horiz-adv-x="643" 
d="M89 0v709h70v-412l391 413h77l-290 -312l305 -398h-79l-271 356l-133 -138v-218h-70zM300 -199l17 74h-20v76h63v-76l-25 -74h-35z" />
    <glyph glyph-name="uni0137" unicode="&#x137;" horiz-adv-x="530" 
d="M447 0l-193 267l-111 -104v-163h-68v730h68v-494l295 284h75l-213 -213l221 -307h-74zM244 -199l17 74h-20v76h63v-76l-25 -74h-35z" />
    <glyph glyph-name="kgreenlandic" unicode="&#x138;" horiz-adv-x="530" 
d="M447 0l-192 267l-112 -104v-163h-68v521h68v-287l293 286h77l-213 -213l221 -307h-74z" />
    <glyph glyph-name="Lacute" unicode="&#x139;" horiz-adv-x="583" 
d="M89 0v710h70v-648h410v-62h-480zM145 807l-45 17l59 93h72z" />
    <glyph glyph-name="lacute" unicode="&#x13a;" horiz-adv-x="272" 
d="M78 730h68v-612q0 -39 14 -51t34 -12q18 0 36 4t31 8l12 -55q-19 -8 -46.5 -13t-47.5 -5q-46 0 -73.5 27t-27.5 74v635zM136 809l-45 17l59 93h72z" />
    <glyph glyph-name="uni013B" unicode="&#x13b;" horiz-adv-x="583" 
d="M89 0v710h70v-648h410v-62h-480zM303 -199l17 74h-20v76h63v-76l-25 -74h-35z" />
    <glyph glyph-name="uni013C" unicode="&#x13c;" horiz-adv-x="272" 
d="M78 730h68v-612q0 -39 14 -51t34 -12q18 0 36 4t31 8l12 -55q-19 -8 -46.5 -13t-47.5 -5q-46 0 -73.5 27t-27.5 74v635zM143 -199l17 74h-20v76h63v-76l-25 -74h-35z" />
    <glyph glyph-name="Lcaron" unicode="&#x13d;" horiz-adv-x="583" 
d="M89 0v710h70v-648h410v-62h-480zM422 625l-45 17l59 93h72z" />
    <glyph glyph-name="lcaron" unicode="&#x13e;" horiz-adv-x="272" 
d="M78 730h68v-612q0 -39 14 -51t34 -12q18 0 36 4t31 8l12 -55q-19 -8 -46.5 -13t-47.5 -5q-46 0 -73.5 27t-27.5 74v635zM237 620l-45 17l59 93h72z" />
    <glyph glyph-name="Ldot" unicode="&#x13f;" horiz-adv-x="583" 
d="M89 0v710h70v-648h410v-62h-480zM366 348v112h59v-112h-59z" />
    <glyph glyph-name="ldot" unicode="&#x140;" horiz-adv-x="314" 
d="M78 730h68v-612q0 -39 14 -51t34 -12q18 0 36 4t31 8l12 -55q-19 -8 -46.5 -13t-47.5 -5q-46 0 -73.5 27t-27.5 74v635zM239 246v112h59v-112h-59z" />
    <glyph glyph-name="Lslash" unicode="&#x141;" horiz-adv-x="590" 
d="M38 229l-22 40l305 253l22 -39zM96 0v710h70v-648h410v-62h-480z" />
    <glyph glyph-name="lslash" unicode="&#x142;" horiz-adv-x="292" 
d="M33 289l-23 39l244 193l24 -39zM97 730h68v-612q0 -39 13.5 -51t34.5 -12q18 0 36 4t31 8l12 -55q-19 -8 -46.5 -13t-47.5 -5q-46 0 -73.5 27t-27.5 74v635z" />
    <glyph glyph-name="Nacute" unicode="&#x143;" horiz-adv-x="772" 
d="M159 581v-581h-70v710h58l466 -592v591h70v-709h-65zM412 807l-45 17l59 93h72z" />
    <glyph glyph-name="nacute" unicode="&#x144;" horiz-adv-x="583" 
d="M513 0h-68v291q0 92 -27 134.5t-85 42.5q-40 0 -79 -19.5t-68.5 -53t-42.5 -76.5v-319h-68v521h62v-118q21 38 55 66.5t77 44.5t89 16q43 0 73 -16t48 -45.5t26 -71t8 -92.5v-305zM320 620l-45 17l59 93h72z" />
    <glyph glyph-name="uni0145" unicode="&#x145;" horiz-adv-x="772" 
d="M159 581v-581h-70v710h58l466 -592v591h70v-709h-65zM358 -199l17 74h-20v76h63v-76l-25 -74h-35z" />
    <glyph glyph-name="uni0146" unicode="&#x146;" horiz-adv-x="583" 
d="M513 0h-68v291q0 92 -27 134.5t-85 42.5q-40 0 -79 -19.5t-68.5 -53t-42.5 -76.5v-319h-68v521h62v-118q21 38 55 66.5t77 44.5t89 16q43 0 73 -16t48 -45.5t26 -71t8 -92.5v-305zM259 -199l17 74h-20v76h63v-76l-25 -74h-35z" />
    <glyph glyph-name="Ncaron" unicode="&#x147;" horiz-adv-x="772" 
d="M159 581v-581h-70v710h58l466 -592v591h70v-709h-65zM304 917l85 -63l85 63l39 -20l-99 -86h-50l-98 86z" />
    <glyph glyph-name="ncaron" unicode="&#x148;" horiz-adv-x="583" 
d="M513 0h-68v291q0 92 -27 134.5t-85 42.5q-40 0 -79 -19.5t-68.5 -53t-42.5 -76.5v-319h-68v521h62v-118q21 38 55 66.5t77 44.5t89 16q43 0 73 -16t48 -45.5t26 -71t8 -92.5v-305zM211 730l85 -63l85 63l39 -20l-99 -86h-50l-98 86z" />
    <glyph glyph-name="napostrophe" unicode="&#x149;" horiz-adv-x="583" 
d="M513 0h-68v291q0 92 -27 134.5t-85 42.5q-40 0 -79 -19.5t-68.5 -53t-42.5 -76.5v-319h-68v521h62v-118q21 38 55 66.5t77 44.5t89 16q43 0 73 -16t48 -45.5t26 -71t8 -92.5v-305zM129 730l-87 -110l-45 17l38 59l-1 34h95z" />
    <glyph glyph-name="Eng" unicode="&#x14a;" horiz-adv-x="766" 
d="M159 579v-579h-70v710h53l466 -588v587h69v-734q0 -46 -22.5 -81t-57.5 -55t-74 -20q-33 0 -62 9t-52 30l34 46q15 -14 34.5 -19t37.5 -5q24 0 45 12t35 33.5t14 47.5v36z" />
    <glyph glyph-name="eng" unicode="&#x14b;" horiz-adv-x="583" 
d="M360 -181q-33 0 -62.5 9t-51.5 30l33 46q15 -14 34.5 -19t38.5 -5q24 0 45 12t34.5 33.5t13.5 47.5v318q0 92 -27 134.5t-85 42.5q-40 0 -79 -19.5t-68.5 -53t-42.5 -76.5v-319h-68v521h62v-118q21 38 55 66.5t77 44.5t89 16q43 0 73 -16t48 -45.5t26 -71t8 -92.5v-328
q0 -46 -22 -82t-57 -56t-74 -20z" />
    <glyph glyph-name="Omacron" unicode="&#x14c;" horiz-adv-x="751" 
d="M375 -5q-75 0 -136 30t-105 81.5t-68 116t-24 132.5q0 71 25 135.5t70.5 115t106.5 80t132 29.5q75 0 136 -31t104.5 -83t67.5 -116t24 -131q0 -71 -25 -135.5t-70 -115t-106 -79.5t-132 -29zM112 355q0 -58 19 -111.5t54 -95t83.5 -66t106.5 -24.5q61 0 109.5 25.5
t83 68t52.5 95.5t18 108q0 58 -19 111t-54.5 95t-83.5 66t-106 24q-60 0 -108.5 -25t-83 -67.5t-53 -95.5t-18.5 -108zM232 850v47h289v-47h-289z" />
    <glyph glyph-name="omacron" unicode="&#x14d;" horiz-adv-x="595" 
d="M297 -10q-56 0 -103.5 21.5t-82 59t-53.5 86t-19 102.5q0 56 19 104.5t54 86t82.5 59t103.5 21.5t103 -21.5t82 -59t54 -86t19 -104.5q0 -54 -19 -102.5t-53.5 -86t-82 -59t-104.5 -21.5zM108 258q0 -58 25.5 -105.5t68.5 -75t95 -27.5t95 28t69 76.5t26 105.5
q0 58 -26 106t-69 76t-95 28t-94.5 -29t-68.5 -76.5t-26 -106.5zM153 663v47h289v-47h-289z" />
    <glyph glyph-name="Obreve" unicode="&#x14e;" horiz-adv-x="751" 
d="M375 -5q-75 0 -136 30t-105 81.5t-68 116t-24 132.5q0 71 25 135.5t70.5 115t106.5 80t132 29.5q75 0 136 -31t104.5 -83t67.5 -116t24 -131q0 -71 -25 -135.5t-70 -115t-106 -79.5t-132 -29zM112 355q0 -58 19 -111.5t54 -95t83.5 -66t106.5 -24.5q61 0 109.5 25.5
t83 68t52.5 95.5t18 108q0 58 -19 111t-54.5 95t-83.5 66t-106 24q-60 0 -108.5 -25t-83 -67.5t-53 -95.5t-18.5 -108zM376 851q21 0 37.5 19t19.5 47h41q0 -42 -28.5 -71.5t-69.5 -29.5t-69.5 29.5t-28.5 71.5h42q0 -26 17 -46t39 -20z" />
    <glyph glyph-name="obreve" unicode="&#x14f;" horiz-adv-x="595" 
d="M297 -10q-56 0 -103.5 21.5t-82 59t-53.5 86t-19 102.5q0 56 19 104.5t54 86t82.5 59t103.5 21.5t103 -21.5t82 -59t54 -86t19 -104.5q0 -54 -19 -102.5t-53.5 -86t-82 -59t-104.5 -21.5zM108 258q0 -58 25.5 -105.5t68.5 -75t95 -27.5t95 28t69 76.5t26 105.5
q0 58 -26 106t-69 76t-95 28t-94.5 -29t-68.5 -76.5t-26 -106.5zM297 664q21 0 37.5 19t19.5 47h41q0 -42 -28.5 -71.5t-69.5 -29.5t-69.5 29.5t-28.5 71.5h42q0 -26 17 -46t39 -20z" />
    <glyph glyph-name="Ohungarumlaut" unicode="&#x150;" horiz-adv-x="751" 
d="M375 -5q-75 0 -136 30t-105 81.5t-68 116t-24 132.5q0 71 25 135.5t70.5 115t106.5 80t132 29.5q75 0 136 -31t104.5 -83t67.5 -116t24 -131q0 -71 -25 -135.5t-70 -115t-106 -79.5t-132 -29zM112 355q0 -58 19 -111.5t54 -95t83.5 -66t106.5 -24.5q61 0 109.5 25.5
t83 68t52.5 95.5t18 108q0 58 -19 111t-54.5 95t-83.5 66t-106 24q-60 0 -108.5 -25t-83 -67.5t-53 -95.5t-18.5 -108zM313 807l-37 17l57 93h64zM439 807l-38 17l57 93h64z" />
    <glyph glyph-name="ohungarumlaut" unicode="&#x151;" horiz-adv-x="595" 
d="M297 -10q-56 0 -103.5 21.5t-82 59t-53.5 86t-19 102.5q0 56 19 104.5t54 86t82.5 59t103.5 21.5t103 -21.5t82 -59t54 -86t19 -104.5q0 -54 -19 -102.5t-53.5 -86t-82 -59t-104.5 -21.5zM108 258q0 -58 25.5 -105.5t68.5 -75t95 -27.5t95 28t69 76.5t26 105.5
q0 58 -26 106t-69 76t-95 28t-94.5 -29t-68.5 -76.5t-26 -106.5zM234 621l-37 17l57 93h64zM360 621l-38 17l57 93h64z" />
    <glyph glyph-name="OE" unicode="&#x152;" horiz-adv-x="1153" 
d="M1112 62v-62h-472v180q-22 -53 -61.5 -94.5t-91 -66t-111.5 -24.5q-74 0 -135.5 30t-106 81.5t-68.5 116t-24 132.5q0 71 25 135.5t70.5 115t106.5 80t132 29.5q62 0 114 -24.5t90 -67t60 -93.5v180h463v-62h-393v-255h339v-62h-339v-269h402zM376 58q60 0 108.5 25.5
t83 68t52.5 96t18 108.5q0 58 -19 111t-54.5 94.5t-83.5 66t-106 24.5q-60 0 -108.5 -25.5t-83 -68t-53 -95.5t-18.5 -108q0 -58 19 -111.5t54 -95t83.5 -66t107.5 -24.5z" />
    <glyph glyph-name="oe" unicode="&#x153;" horiz-adv-x="1034" 
d="M296 -10q-72 0 -130.5 35.5t-92.5 96.5t-34 136q0 77 34 138.5t93 97.5t132 36q51 0 95 -20.5t77 -57t50 -87.5q28 78 87.5 121.5t138.5 43.5q73 0 129 -33.5t90 -94t39 -142.5v-12.5v-11.5h-446q5 -54 32.5 -98t71.5 -70t96 -26q54 0 99.5 26t61.5 68l58 -16
q-17 -38 -51 -67.5t-78 -46t-93 -16.5q-50 0 -95 20.5t-80.5 57t-57.5 85.5q-22 -51 -56 -87.5t-77 -56t-93 -19.5zM297 50q53 0 96 28t68.5 75.5t25.5 105.5q0 60 -25.5 107.5t-68 75.5t-95.5 28q-52 0 -95 -28.5t-69 -77t-26 -107.5q0 -58 25.5 -105t68.5 -74.5t95 -27.5z
M938 282q-3 57 -30 101t-69.5 69t-93.5 25t-92.5 -25t-67 -69t-28.5 -101h381z" />
    <glyph glyph-name="Racute" unicode="&#x154;" horiz-adv-x="653" 
d="M89 0v710h300q46 0 84 -19t66.5 -51.5t44 -72t15.5 -80.5q0 -51 -19.5 -96t-55 -76t-83.5 -41l174 -274h-79l-167 262h-210v-262h-70zM159 324h232q42 0 73 23t48 60.5t17 79.5q0 43 -19.5 79.5t-52 59t-72.5 22.5h-226v-324zM328 809l-45 17l59 93h72z" />
    <glyph glyph-name="racute" unicode="&#x155;" horiz-adv-x="351" 
d="M335 461q-68 -2 -119.5 -38t-72.5 -99v-324h-68v521h64v-125q27 55 71.5 89t94.5 38q10 1 17.5 1t12.5 -1v-62zM224 620l-45 17l59 93h72z" />
    <glyph glyph-name="uni0156" unicode="&#x156;" horiz-adv-x="653" 
d="M89 0v710h300q46 0 84 -19t66.5 -51.5t44 -72t15.5 -80.5q0 -51 -19.5 -96t-55 -76t-83.5 -41l174 -274h-79l-167 262h-210v-262h-70zM159 324h232q42 0 73 23t48 60.5t17 79.5q0 43 -19.5 79.5t-52 59t-72.5 22.5h-226v-324zM296 -199l17 74h-20v76h63v-76l-25 -74h-35z
" />
    <glyph glyph-name="uni0157" unicode="&#x157;" horiz-adv-x="351" 
d="M335 461q-68 -2 -119.5 -38t-72.5 -99v-324h-68v521h64v-125q27 55 71.5 89t94.5 38q10 1 17.5 1t12.5 -1v-62zM76 -199l17 74h-20v76h63v-76l-25 -74h-35z" />
    <glyph glyph-name="Rcaron" unicode="&#x158;" horiz-adv-x="653" 
d="M89 0v710h300q46 0 84 -19t66.5 -51.5t44 -72t15.5 -80.5q0 -51 -19.5 -96t-55 -76t-83.5 -41l174 -274h-79l-167 262h-210v-262h-70zM159 324h232q42 0 73 23t48 60.5t17 79.5q0 43 -19.5 79.5t-52 59t-72.5 22.5h-226v-324zM219 919l85 -63l85 63l39 -20l-99 -86h-50
l-98 86z" />
    <glyph glyph-name="rcaron" unicode="&#x159;" horiz-adv-x="351" 
d="M335 461q-68 -2 -119.5 -38t-72.5 -99v-324h-68v521h64v-125q27 55 71.5 89t94.5 38q10 1 17.5 1t12.5 -1v-62zM116 730l85 -63l85 63l39 -20l-99 -86h-50l-98 86z" />
    <glyph glyph-name="Sacute" unicode="&#x15a;" horiz-adv-x="607" 
d="M504 577q-15 17 -35 30.5t-45 23.5t-53.5 16t-60.5 6q-93 0 -136.5 -35.5t-43.5 -96.5q0 -42 20.5 -66t64.5 -39t112 -31q76 -16 131 -38t85 -59.5t30 -101.5q0 -49 -19 -85t-53 -60t-81 -35.5t-103 -11.5q-55 0 -105.5 11.5t-95.5 34t-84 57.5l35 57q19 -20 45.5 -37.5
t59 -31.5t70 -21.5t77.5 -7.5q85 0 132.5 31t47.5 92q0 44 -24 70.5t-72 43.5t-118 33q-74 17 -125 38t-76.5 55.5t-25.5 91.5q0 66 32.5 111.5t89.5 69t131 23.5q47 0 87.5 -9.5t75 -27.5t64.5 -45zM337 822l-45 17l59 93h72z" />
    <glyph glyph-name="sacute" unicode="&#x15b;" horiz-adv-x="483" 
d="M246 -10q-64 0 -119 21t-95 64l28 48q44 -41 88.5 -59.5t94.5 -18.5q61 0 99 24.5t38 70.5q0 31 -18.5 47.5t-53 27t-82.5 22.5q-54 15 -90.5 31.5t-55 42t-18.5 66.5q0 51 25.5 84.5t70 51t99.5 17.5q60 0 106 -19t75 -53l-33 -46q-28 32 -66.5 47.5t-85.5 15.5
q-32 0 -61 -8.5t-47.5 -28t-18.5 -53.5q0 -28 14 -43.5t42 -26t69 -22.5q59 -16 103 -32.5t68 -42.5t24 -73q0 -73 -55 -114t-145 -41zM271 620l-45 17l59 93h72z" />
    <glyph glyph-name="Scircumflex" unicode="&#x15c;" horiz-adv-x="607" 
d="M504 577q-15 17 -35 30.5t-45 23.5t-53.5 16t-60.5 6q-93 0 -136.5 -35.5t-43.5 -96.5q0 -42 20.5 -66t64.5 -39t112 -31q76 -16 131 -38t85 -59.5t30 -101.5q0 -49 -19 -85t-53 -60t-81 -35.5t-103 -11.5q-55 0 -105.5 11.5t-95.5 34t-84 57.5l35 57q19 -20 45.5 -37.5
t59 -31.5t70 -21.5t77.5 -7.5q85 0 132.5 31t47.5 92q0 44 -24 70.5t-72 43.5t-118 33q-74 17 -125 38t-76.5 55.5t-25.5 91.5q0 66 32.5 111.5t89.5 69t131 23.5q47 0 87.5 -9.5t75 -27.5t64.5 -45zM191 847l98 85h50l99 -85l-39 -21l-85 63l-85 -63z" />
    <glyph glyph-name="scircumflex" unicode="&#x15d;" horiz-adv-x="483" 
d="M246 -10q-64 0 -119 21t-95 64l28 48q44 -41 88.5 -59.5t94.5 -18.5q61 0 99 24.5t38 70.5q0 31 -18.5 47.5t-53 27t-82.5 22.5q-54 15 -90.5 31.5t-55 42t-18.5 66.5q0 51 25.5 84.5t70 51t99.5 17.5q60 0 106 -19t75 -53l-33 -46q-28 32 -66.5 47.5t-85.5 15.5
q-32 0 -61 -8.5t-47.5 -28t-18.5 -53.5q0 -28 14 -43.5t42 -26t69 -22.5q59 -16 103 -32.5t68 -42.5t24 -73q0 -73 -55 -114t-145 -41zM125 645l98 85h50l99 -85l-39 -21l-85 63l-85 -63z" />
    <glyph glyph-name="Scedilla" unicode="&#x15e;" horiz-adv-x="607" 
d="M504 577q-15 17 -35 30.5t-45 23.5t-53.5 16t-60.5 6q-93 0 -136.5 -35.5t-43.5 -96.5q0 -42 20.5 -66t64.5 -39t112 -31q76 -16 131 -38t85 -59.5t30 -101.5q0 -49 -19 -85t-53 -60t-81 -35.5t-103 -11.5q-55 0 -105.5 11.5t-95.5 34t-84 57.5l35 57q19 -20 45.5 -37.5
t59 -31.5t70 -21.5t77.5 -7.5q85 0 132.5 31t47.5 92q0 44 -24 70.5t-72 43.5t-118 33q-74 17 -125 38t-76.5 55.5t-25.5 91.5q0 66 32.5 111.5t89.5 69t131 23.5q47 0 87.5 -9.5t75 -27.5t64.5 -45zM304 -180q-25 0 -55.5 7t-58.5 21l20 39q21 -10 40 -16t43 -6
q33 0 51 12.5t18 38.5t-18 45.5t-52 38.5l29 19q39 -24 63 -49.5t24 -64.5q0 -40 -28 -62.5t-76 -22.5z" />
    <glyph glyph-name="scedilla" unicode="&#x15f;" horiz-adv-x="483" 
d="M246 -10q-64 0 -119 21t-95 64l28 48q44 -41 88.5 -59.5t94.5 -18.5q61 0 99 24.5t38 70.5q0 31 -18.5 47.5t-53 27t-82.5 22.5q-54 15 -90.5 31.5t-55 42t-18.5 66.5q0 51 25.5 84.5t70 51t99.5 17.5q60 0 106 -19t75 -53l-33 -46q-28 32 -66.5 47.5t-85.5 15.5
q-32 0 -61 -8.5t-47.5 -28t-18.5 -53.5q0 -28 14 -43.5t42 -26t69 -22.5q59 -16 103 -32.5t68 -42.5t24 -73q0 -73 -55 -114t-145 -41zM233 -180q-25 0 -55.5 7t-58.5 21l20 39q21 -10 40 -16t43 -6q33 0 51 12.5t18 38.5t-18 45.5t-52 38.5l29 19q39 -24 63 -49.5t24 -64.5
q0 -40 -28 -62.5t-76 -22.5z" />
    <glyph glyph-name="Scaron" unicode="&#x160;" horiz-adv-x="607" 
d="M504 577q-15 17 -35 30.5t-45 23.5t-53.5 16t-60.5 6q-93 0 -136.5 -35.5t-43.5 -96.5q0 -42 20.5 -66t64.5 -39t112 -31q76 -16 131 -38t85 -59.5t30 -101.5q0 -49 -19 -85t-53 -60t-81 -35.5t-103 -11.5q-55 0 -105.5 11.5t-95.5 34t-84 57.5l35 57q19 -20 45.5 -37.5
t59 -31.5t70 -21.5t77.5 -7.5q85 0 132.5 31t47.5 92q0 44 -24 70.5t-72 43.5t-118 33q-74 17 -125 38t-76.5 55.5t-25.5 91.5q0 66 32.5 111.5t89.5 69t131 23.5q47 0 87.5 -9.5t75 -27.5t64.5 -45zM229 932l85 -63l85 63l39 -20l-99 -86h-50l-98 86z" />
    <glyph glyph-name="scaron" unicode="&#x161;" horiz-adv-x="483" 
d="M246 -10q-64 0 -119 21t-95 64l28 48q44 -41 88.5 -59.5t94.5 -18.5q61 0 99 24.5t38 70.5q0 31 -18.5 47.5t-53 27t-82.5 22.5q-54 15 -90.5 31.5t-55 42t-18.5 66.5q0 51 25.5 84.5t70 51t99.5 17.5q60 0 106 -19t75 -53l-33 -46q-28 32 -66.5 47.5t-85.5 15.5
q-32 0 -61 -8.5t-47.5 -28t-18.5 -53.5q0 -28 14 -43.5t42 -26t69 -22.5q59 -16 103 -32.5t68 -42.5t24 -73q0 -73 -55 -114t-145 -41zM163 730l85 -63l85 63l39 -20l-99 -86h-50l-98 86z" />
    <glyph glyph-name="uni0162" unicode="&#x162;" horiz-adv-x="610" 
d="M593 648h-253v-648h-70v648h-253v62h576v-62zM295 -180q-25 0 -55.5 7t-58.5 21l20 39q21 -10 40 -16t43 -6q33 0 51 12.5t18 38.5t-18 45.5t-52 38.5l29 19q39 -24 63 -49.5t24 -64.5q0 -40 -28 -62.5t-76 -22.5z" />
    <glyph glyph-name="uni0163" unicode="&#x163;" horiz-adv-x="335" 
d="M325 25q-8 -3 -25 -11t-41 -14t-52 -6q-29 0 -54.5 11t-40.5 33.5t-15 55.5v373h-72v54h72v176h68v-176h120v-54h-120v-354q2 -28 20.5 -42t42.5 -14q28 0 51 9.5t28 13.5zM195 -180q-25 0 -55.5 7t-58.5 21l20 39q21 -10 40 -16t43 -6q33 0 51 12.5t18 38.5t-18 45.5
t-52 38.5l29 19q39 -24 63 -49.5t24 -64.5q0 -40 -28 -62.5t-76 -22.5z" />
    <glyph glyph-name="Tcaron" unicode="&#x164;" horiz-adv-x="610" 
d="M593 648h-253v-648h-70v648h-253v62h576v-62zM222 917l85 -63l85 63l39 -20l-99 -86h-50l-98 86z" />
    <glyph glyph-name="tcaron" unicode="&#x165;" horiz-adv-x="335" 
d="M325 25q-8 -3 -25 -11t-41 -14t-52 -6q-29 0 -54.5 11t-40.5 33.5t-15 55.5v373h-72v54h72v176h68v-176h120v-54h-120v-354q2 -28 20.5 -42t42.5 -14q28 0 51 9.5t28 13.5zM277 620l-45 17l59 93h72z" />
    <glyph glyph-name="Tbar" unicode="&#x166;" horiz-adv-x="641" 
d="M76 308v53h490v-53h-490zM608 648h-253v-648h-69v648h-253v62h575v-62z" />
    <glyph glyph-name="tbar" unicode="&#x167;" horiz-adv-x="337" 
d="M33 280v45h241v-45h-241zM326 25q-8 -3 -25 -11t-41 -14t-52 -6q-29 0 -54.5 11t-40.5 33.5t-15 55.5v373h-72v54h72v176h68v-176h120v-54h-120v-354q2 -28 20.5 -42t42.5 -14q28 0 51 9.5t28 13.5z" />
    <glyph glyph-name="Utilde" unicode="&#x168;" horiz-adv-x="755" 
d="M378 -5q-84 0 -142 30t-92 80.5t-49.5 114.5t-15.5 132v358h69v-358q0 -55 11.5 -108t37.5 -95t70 -66.5t110 -24.5q68 0 112.5 25.5t70 67.5t36.5 94.5t11 106.5v358h70v-358q0 -71 -16 -136t-51.5 -114t-92.5 -78t-139 -29zM439 825q-30 0 -51 10t-38 20t-39 10
t-32.5 -10.5t-14 -22.5t-3.5 -15h-42q0 5 3.5 20t13.5 31.5t27.5 29t46.5 12.5q28 0 47.5 -10.5t38 -21t42.5 -10.5q26 0 38 11.5t15.5 23.5t3.5 14h42q0 -5 -4 -19.5t-14.5 -31.5t-30 -29t-49.5 -12z" />
    <glyph glyph-name="utilde" unicode="&#x169;" horiz-adv-x="594" 
d="M70 215v306h68v-294q0 -89 30.5 -133t90.5 -44q40 0 77.5 17.5t66.5 50t44 75.5v328h68v-439q0 -14 6 -20.5t18 -7.5v-54q-12 -1 -19 -1.5t-13 -0.5q-20 2 -34.5 16t-15.5 34l-2 70q-34 -60 -92.5 -94t-126.5 -34q-82 0 -124 57t-42 168zM351 638q-30 0 -51 10t-38 20
t-39 10t-32.5 -10.5t-14 -22.5t-3.5 -15h-42q0 5 3.5 20t13.5 31.5t27.5 29t46.5 12.5q28 0 47.5 -10.5t38 -21t42.5 -10.5q26 0 38 11.5t15.5 23.5t3.5 14h42q0 -5 -4 -19.5t-14.5 -31.5t-30 -29t-49.5 -12z" />
    <glyph glyph-name="Umacron" unicode="&#x16a;" horiz-adv-x="755" 
d="M378 -5q-84 0 -142 30t-92 80.5t-49.5 114.5t-15.5 132v358h69v-358q0 -55 11.5 -108t37.5 -95t70 -66.5t110 -24.5q68 0 112.5 25.5t70 67.5t36.5 94.5t11 106.5v358h70v-358q0 -71 -16 -136t-51.5 -114t-92.5 -78t-139 -29zM235 850v47h289v-47h-289z" />
    <glyph glyph-name="umacron" unicode="&#x16b;" horiz-adv-x="594" 
d="M70 215v306h68v-294q0 -89 30.5 -133t90.5 -44q40 0 77.5 17.5t66.5 50t44 75.5v328h68v-439q0 -14 6 -20.5t18 -7.5v-54q-12 -1 -19 -1.5t-13 -0.5q-20 2 -34.5 16t-15.5 34l-2 70q-34 -60 -92.5 -94t-126.5 -34q-82 0 -124 57t-42 168zM147 663v47h289v-47h-289z" />
    <glyph glyph-name="Ubreve" unicode="&#x16c;" horiz-adv-x="755" 
d="M378 -5q-84 0 -142 30t-92 80.5t-49.5 114.5t-15.5 132v358h69v-358q0 -55 11.5 -108t37.5 -95t70 -66.5t110 -24.5q68 0 112.5 25.5t70 67.5t36.5 94.5t11 106.5v358h70v-358q0 -71 -16 -136t-51.5 -114t-92.5 -78t-139 -29zM378 851q21 0 37.5 19t19.5 47h41
q0 -42 -28.5 -71.5t-69.5 -29.5t-69.5 29.5t-28.5 71.5h42q0 -26 17 -46t39 -20z" />
    <glyph glyph-name="ubreve" unicode="&#x16d;" horiz-adv-x="594" 
d="M70 215v306h68v-294q0 -89 30.5 -133t90.5 -44q40 0 77.5 17.5t66.5 50t44 75.5v328h68v-439q0 -14 6 -20.5t18 -7.5v-54q-12 -1 -19 -1.5t-13 -0.5q-20 2 -34.5 16t-15.5 34l-2 70q-34 -60 -92.5 -94t-126.5 -34q-82 0 -124 57t-42 168zM291 664q21 0 37.5 19t19.5 47
h41q0 -42 -28.5 -71.5t-69.5 -29.5t-69.5 29.5t-28.5 71.5h42q0 -26 17 -46t39 -20z" />
    <glyph glyph-name="Uring" unicode="&#x16e;" horiz-adv-x="755" 
d="M378 -5q-84 0 -142 30t-92 80.5t-49.5 114.5t-15.5 132v358h69v-358q0 -55 11.5 -108t37.5 -95t70 -66.5t110 -24.5q68 0 112.5 25.5t70 67.5t36.5 94.5t11 106.5v358h70v-358q0 -71 -16 -136t-51.5 -114t-92.5 -78t-139 -29zM289 857q0 37 25.5 60.5t63.5 23.5
q39 0 64 -23.5t25 -60.5t-25 -60t-64 -23q-38 0 -63.5 23t-25.5 60zM378 906q-20 0 -34.5 -13t-14.5 -36q0 -21 14 -35t35 -14q19 0 34.5 13.5t15.5 35.5q0 23 -15 36t-35 13z" />
    <glyph glyph-name="uring" unicode="&#x16f;" horiz-adv-x="594" 
d="M70 215v306h68v-294q0 -89 30.5 -133t90.5 -44q40 0 77.5 17.5t66.5 50t44 75.5v328h68v-439q0 -14 6 -20.5t18 -7.5v-54q-12 -1 -19 -1.5t-13 -0.5q-20 2 -34.5 16t-15.5 34l-2 70q-34 -60 -92.5 -94t-126.5 -34q-82 0 -124 57t-42 168zM202 670q0 37 25.5 60.5
t63.5 23.5q39 0 64 -23.5t25 -60.5t-25 -60t-64 -23q-38 0 -63.5 23t-25.5 60zM291 719q-20 0 -34.5 -13t-14.5 -36q0 -21 14 -35t35 -14q19 0 34.5 13.5t15.5 35.5q0 23 -15 36t-35 13z" />
    <glyph glyph-name="Uhungarumlaut" unicode="&#x170;" horiz-adv-x="755" 
d="M378 -5q-84 0 -142 30t-92 80.5t-49.5 114.5t-15.5 132v358h69v-358q0 -55 11.5 -108t37.5 -95t70 -66.5t110 -24.5q68 0 112.5 25.5t70 67.5t36.5 94.5t11 106.5v358h70v-358q0 -71 -16 -136t-51.5 -114t-92.5 -78t-139 -29zM315 807l-37 17l57 93h64zM441 807l-38 17
l57 93h64z" />
    <glyph glyph-name="uhungarumlaut" unicode="&#x171;" horiz-adv-x="594" 
d="M70 215v306h68v-294q0 -89 30.5 -133t90.5 -44q40 0 77.5 17.5t66.5 50t44 75.5v328h68v-439q0 -14 6 -20.5t18 -7.5v-54q-12 -1 -19 -1.5t-13 -0.5q-20 2 -34.5 16t-15.5 34l-2 70q-34 -60 -92.5 -94t-126.5 -34q-82 0 -124 57t-42 168zM227 621l-37 17l57 93h64z
M353 621l-38 17l57 93h64z" />
    <glyph glyph-name="Uogonek" unicode="&#x172;" horiz-adv-x="755" 
d="M378 -5q-84 0 -142 30t-92 80.5t-49.5 114.5t-15.5 132v358h69v-358q0 -55 11.5 -108t37.5 -95t70 -66.5t110 -24.5q68 0 112.5 25.5t70 67.5t36.5 94.5t11 106.5v358h70v-358q0 -71 -16 -136t-51.5 -114t-92.5 -78t-139 -29zM315 -104q0 31 22.5 60.5t67.5 60.5h19
l17 -16q-41 -31 -59.5 -53.5t-18.5 -42.5q0 -19 19.5 -28t56.5 -13l-17 -45q-43 5 -66.5 16.5t-32 27.5t-8.5 33z" />
    <glyph glyph-name="uogonek" unicode="&#x173;" horiz-adv-x="594" 
d="M70 215v306h68v-294q0 -89 30.5 -133t90.5 -44q40 0 77.5 17.5t66.5 50t44 75.5v328h68v-439q0 -14 6 -20.5t18 -7.5v-54q-12 -1 -19 -1.5t-13 -0.5q-20 2 -34.5 16t-15.5 34l-2 70q-34 -60 -92.5 -94t-126.5 -34q-82 0 -124 57t-42 168zM414 -105q0 31 22.5 60.5
t67.5 60.5h19l17 -16q-41 -31 -59.5 -53.5t-18.5 -42.5q0 -19 19.5 -28t56.5 -13l-17 -45q-43 5 -66.5 16.5t-32 27.5t-8.5 33z" />
    <glyph glyph-name="Wcircumflex" unicode="&#x174;" horiz-adv-x="1046" 
d="M356 705h66l100 -252l101 252h67l-124 -303l136 -321l257 629h76l-301 -710h-62l-149 351l-150 -351h-61l-300 710h75l258 -629l135 321zM399 832l98 85h50l99 -85l-39 -21l-85 63l-85 -63z" />
    <glyph glyph-name="wcircumflex" unicode="&#x175;" horiz-adv-x="813" 
d="M731 521h67l-224 -521h-59l-109 259l-108 -259h-59l-224 521h66l190 -451l96 235l-88 215h61l66 -169l67 169h60l-87 -215l96 -235zM283 645l98 85h50l99 -85l-39 -21l-85 63l-85 -63z" />
    <glyph glyph-name="Ycircumflex" unicode="&#x176;" horiz-adv-x="651" 
d="M93 710l232 -382l234 382h76l-275 -446v-264h-70v266l-274 444h77zM202 832l98 85h50l99 -85l-39 -21l-85 63l-85 -63z" />
    <glyph glyph-name="ycircumflex" unicode="&#x177;" horiz-adv-x="542" 
d="M105 -160q14 -1 27 -1.5t19 1.5q12 2 23 14t26 46t42 100l-227 521h72l191 -451l176 451h68l-270 -672q-7 -19 -21 -35.5t-34.5 -26t-50.5 -10.5q-9 -1 -18.5 -0.5t-22.5 2.5v61zM155 645l98 85h50l99 -85l-39 -21l-85 63l-85 -63z" />
    <glyph glyph-name="Ydieresis" unicode="&#x178;" horiz-adv-x="651" 
d="M93 710l232 -382l234 382h76l-275 -446v-264h-70v266l-274 444h77zM221 820v94h58v-94h-58zM370 820v94h58v-94h-58z" />
    <glyph glyph-name="Zacute" unicode="&#x179;" horiz-adv-x="629" 
d="M31 55l483 593h-475v62h556v-55l-477 -593h476v-62h-563v55zM354 807l-45 17l59 93h72z" />
    <glyph glyph-name="zacute" unicode="&#x17a;" horiz-adv-x="492" 
d="M31 46l349 424h-341v51h418v-46l-347 -424h346v-51h-425v46zM279 620l-45 17l59 93h72z" />
    <glyph glyph-name="Zdotaccent" unicode="&#x17b;" horiz-adv-x="629" 
d="M31 55l483 593h-475v62h556v-55l-477 -593h476v-62h-563v55zM300 820v97h62v-97h-62z" />
    <glyph glyph-name="zdotaccent" unicode="&#x17c;" horiz-adv-x="492" 
d="M31 46l349 424h-341v51h418v-46l-347 -424h346v-51h-425v46zM224 633v97h62v-97h-62z" />
    <glyph glyph-name="Zcaron" unicode="&#x17d;" horiz-adv-x="629" 
d="M31 55l483 593h-475v62h556v-55l-477 -593h476v-62h-563v55zM246 917l85 -63l85 63l39 -20l-99 -86h-50l-98 86z" />
    <glyph glyph-name="zcaron" unicode="&#x17e;" horiz-adv-x="492" 
d="M31 46l349 424h-341v51h418v-46l-347 -424h346v-51h-425v46zM170 730l85 -63l85 63l39 -20l-99 -86h-50l-98 86z" />
    <glyph glyph-name="uni018F" unicode="&#x18f;" horiz-adv-x="737" 
d="M365 -6q-71 0 -131.5 27.5t-107 76.5t-72 113.5t-25.5 138.5q0 10 0.5 19t1.5 14h587q-5 57 -27 106t-57.5 85t-80 56t-95.5 20q-48 0 -91.5 -17.5t-76.5 -49t-47 -72.5l-66 30q24 51 68.5 90t101.5 61.5t118 22.5q68 0 128 -28.5t105 -78t71 -115.5t26 -142
q0 -75 -25.5 -140t-71 -113.5t-105 -76t-128.5 -27.5zM365 57q69 0 125 34.5t91 94t39 136.5h-516q5 -76 41 -136t93.5 -94.5t126.5 -34.5z" />
    <glyph glyph-name="florin" unicode="&#x192;" horiz-adv-x="526" 
d="M144 -181q-32 0 -61.5 9t-52.5 30l34 46q15 -14 34.5 -19t38.5 -5q24 0 45 12t34.5 33.5t13.5 47.5v433h-73v54h73v75q0 64 18.5 110t53 70.5t81.5 24.5q30 0 59 -9t50 -24l-20 -49q-14 11 -35 17t-42 6q-47 0 -72 -37t-25 -107v-77h143v-54h-143v-431q0 -46 -22.5 -81
t-57.5 -55t-74 -20z" />
    <glyph glyph-name="Ohorn" unicode="&#x1a0;" horiz-adv-x="751" 
d="M375 -5q-75 0 -136 30t-105 81.5t-68 116t-24 132.5q0 71 25 135.5t70.5 115t106.5 80t132 29.5q75 0 136 -31t104.5 -83t67.5 -116t24 -131q0 -71 -25 -135.5t-70 -115t-106 -79.5t-132 -29zM112 355q0 -58 19 -111.5t54 -95t83.5 -66t106.5 -24.5q61 0 109.5 25.5
t83 68t52.5 95.5t18 108q0 58 -19 111t-54.5 95t-83.5 66t-106 24q-60 0 -108.5 -25t-83 -67.5t-53 -95.5t-18.5 -108zM432 659l1 51q33 0 52 6t29 17q9 12 12 26.5t4 34.5h58q-1 -18 -4 -34.5t-9.5 -31t-17.5 -28.5q-12 -13 -31 -22.5t-43 -14t-51 -4.5z" />
    <glyph glyph-name="ohorn" unicode="&#x1a1;" horiz-adv-x="595" 
d="M297 -10q-56 0 -103.5 21.5t-82 59t-53.5 86t-19 102.5q0 56 19 104.5t54 86t82.5 59t103.5 21.5t103 -21.5t82 -59t54 -86t19 -104.5q0 -54 -19 -102.5t-53.5 -86t-82 -59t-104.5 -21.5zM108 258q0 -58 25.5 -105.5t68.5 -75t95 -27.5t95 28t69 76.5t26 105.5
q0 58 -26 106t-69 76t-95 28t-94.5 -29t-68.5 -76.5t-26 -106.5zM360 471l1 51q33 0 52 6t29 17q9 12 12 26.5t4 34.5h58q-1 -18 -4 -34.5t-9.5 -31t-17.5 -28.5q-12 -13 -31 -22.5t-43 -14t-51 -4.5z" />
    <glyph glyph-name="Uhorn" unicode="&#x1af;" horiz-adv-x="755" 
d="M378 -5q-84 0 -142 30t-92 80.5t-49.5 114.5t-15.5 132v358h69v-358q0 -55 11.5 -108t37.5 -95t70 -66.5t110 -24.5q68 0 112.5 25.5t70 67.5t36.5 94.5t11 106.5v358h70v-358q0 -71 -16 -136t-51.5 -114t-92.5 -78t-139 -29zM635 660l1 51q33 0 52 6t29 17q9 12 12 26.5
t4 34.5h58q-1 -18 -4 -34.5t-9.5 -31t-17.5 -28.5q-12 -13 -31 -22.5t-43 -14t-51 -4.5z" />
    <glyph glyph-name="uhorn" unicode="&#x1b0;" horiz-adv-x="594" 
d="M70 215v306h68v-294q0 -89 30.5 -133t90.5 -44q40 0 77.5 17.5t66.5 50t44 75.5v328h68v-439q0 -14 6 -20.5t18 -7.5v-54q-12 -1 -19 -1.5t-13 -0.5q-20 2 -34.5 16t-15.5 34l-2 70q-34 -60 -92.5 -94t-126.5 -34q-82 0 -124 57t-42 168zM469 470l1 51q33 0 52 6t29 17
q9 12 12 26.5t4 34.5h58q-1 -18 -4 -34.5t-9.5 -31t-17.5 -28.5q-12 -13 -31 -22.5t-43 -14t-51 -4.5z" />
    <glyph glyph-name="uni01C4" unicode="&#x1c4;" horiz-adv-x="1343" 
d="M745 55l483 593h-475v62h557v-55l-478 -593h476v-62h-563v55zM89 0v710h241q113 0 188.5 -47.5t113.5 -128t38 -178.5q0 -108 -41.5 -188t-118 -124t-180.5 -44h-241zM600 356q0 85 -31.5 151t-91.5 103.5t-147 37.5h-171v-586h171q88 0 148 39t91 105.5t31 149.5z
M960 917l85 -63l85 63l39 -21l-99 -85h-50l-98 85z" />
    <glyph glyph-name="uni01C5" unicode="&#x1c5;" horiz-adv-x="1206" 
d="M89 0v710h241q113 0 188.5 -47.5t113.5 -128t38 -178.5q0 -108 -41.5 -188t-118 -124t-180.5 -44h-241zM600 356q0 85 -31.5 151t-91.5 103.5t-147 37.5h-171v-586h171q88 0 148 39t91 105.5t31 149.5zM745 46l349 424h-341v51h418v-46l-347 -424h347v-51h-426v46z
M885 730l85 -63l85 63l39 -20l-99 -86h-50l-99 86z" />
    <glyph glyph-name="uni01C6" unicode="&#x1c6;" horiz-adv-x="1113" 
d="M40 259q0 74 30.5 135.5t84.5 98.5t123 37q65 0 116.5 -34.5t80.5 -83.5v318h68v-648q0 -14 6 -20.5t18 -7.5v-54q-20 -3 -31 -2q-21 1 -37 17t-16 35v51q-31 -51 -84 -81t-110 -30q-54 0 -99.5 22t-79 60t-52 86.5t-18.5 100.5zM475 179v161q-13 36 -42 65.5t-65.5 47
t-72.5 17.5q-42 0 -76 -17.5t-58.5 -47.5t-37.5 -68t-13 -78q0 -42 14.5 -80t41.5 -67.5t62 -45.5t76 -16q26 0 54 10t53.5 27.5t42.5 41.5t21 50zM653 46l348 424h-341v51h418v-46l-347 -424h347v-51h-425v46zM792 730l85 -63l85 63l39 -20l-99 -86h-50l-98 86z" />
    <glyph glyph-name="uni01C7" unicode="&#x1c7;" horiz-adv-x="1064" 
d="M89 0v710h70v-648h410v-62h-480zM617 89q21 -15 55.5 -26t79.5 -11q52 0 84 17.5t49 53t23 88.5t6 124v375h70v-361q0 -80 -8 -146t-31 -114t-69 -74t-122 -26q-49 0 -87 11t-70 33z" />
    <glyph glyph-name="uni01C8" unicode="&#x1c8;" horiz-adv-x="807" 
d="M89 0v710h70v-648h410v-62h-480zM580 -181q-33 0 -62.5 9t-51.5 30l33 46q15 -14 34.5 -19t38.5 -5q24 0 45 12t34.5 33.5t13.5 47.5v548h68v-544q0 -46 -22 -82t-57 -56t-74 -20zM665 630v100h68v-100h-68z" />
    <glyph glyph-name="uni01C9" unicode="&#x1c9;" horiz-adv-x="497" 
d="M78 730h68v-612q0 -39 14 -51t34 -12q18 0 36 4t31 8l12 -55q-19 -8 -46.5 -13t-47.5 -5q-46 0 -73.5 27t-27.5 74v635zM269 -181q-33 0 -62.5 9t-51.5 30l33 46q15 -14 34.5 -19t38.5 -5q24 0 45 12t34.5 33.5t13.5 47.5v548h68v-544q0 -46 -22 -82t-57 -56t-74 -20z
M354 630v100h68v-100h-68z" />
    <glyph glyph-name="uni01CA" unicode="&#x1ca;" horiz-adv-x="1253" 
d="M159 581v-581h-70v710h58l466 -592v591h70v-709h-65zM806 89q21 -15 55.5 -26t79.5 -11q52 0 84 17.5t49 53t23 88.5t6 124v375h70v-361q0 -80 -8 -146t-31 -114t-69 -74t-122 -26q-49 0 -87 11t-70 33z" />
    <glyph glyph-name="uni01CB" unicode="&#x1cb;" horiz-adv-x="997" 
d="M159 581v-581h-70v710h58l466 -592v591h70v-709h-65zM769 -181q-33 0 -62.5 9t-51.5 30l33 46q15 -14 34.5 -19t38.5 -5q24 0 45 12t34.5 33.5t13.5 47.5v548h68v-544q0 -46 -22 -82t-57 -56t-74 -20zM854 630v100h68v-100h-68z" />
    <glyph glyph-name="uni01CC" unicode="&#x1cc;" horiz-adv-x="808" 
d="M513 0h-68v291q0 92 -27 134.5t-85 42.5q-40 0 -79 -19.5t-68.5 -53t-42.5 -76.5v-319h-68v521h62v-118q21 38 55 66.5t77 44.5t89 16q43 0 73 -16t48 -45.5t26 -71t8 -92.5v-305zM580 -181q-33 0 -62.5 9t-51.5 30l33 46q15 -14 34.5 -19t38.5 -5q24 0 45 12t34.5 33.5
t13.5 47.5v548h68v-544q0 -46 -22 -82t-57 -56t-74 -20zM665 630v100h68v-100h-68z" />
    <glyph glyph-name="Gcaron" unicode="&#x1e6;" horiz-adv-x="716" 
d="M374 -5q-71 0 -132 30.5t-106 82.5t-69.5 116t-24.5 132q0 72 24.5 136.5t68.5 114.5t104 79t131 29q105 0 171 -43t100 -112l-54 -36q-34 66 -91 97t-127 31q-59 0 -106.5 -25t-81.5 -67t-51.5 -95t-17.5 -110q0 -60 20 -113.5t57 -95t85.5 -65t104.5 -23.5
q65 0 123 32.5t111 100.5v-74q-101 -122 -239 -122zM602 295h-158v54h217v-349h-59v295zM284 917l85 -63l85 63l39 -20l-99 -86h-50l-98 86z" />
    <glyph glyph-name="gcaron" unicode="&#x1e7;" horiz-adv-x="618" 
d="M284 -7q-53 0 -98 22t-77.5 59.5t-50.5 85.5t-18 99q0 55 17.5 103.5t50 86.5t76.5 59.5t98 21.5q67 0 116.5 -34t83.5 -84v109h61v-523q0 -72 -34.5 -121.5t-93 -74.5t-127.5 -25q-89 0 -144 32t-90 86l42 33q31 -49 82.5 -73t109.5 -24q51 0 93.5 18.5t68 55.5t25.5 93
v103q-30 -49 -82 -78.5t-109 -29.5zM303 50q31 0 59.5 11t52.5 29.5t40 41.5t20 47v161q-15 38 -43 67.5t-63.5 46t-73.5 16.5q-44 0 -78.5 -18.5t-58 -49t-36.5 -68.5t-13 -76q0 -42 15 -79.5t41.5 -67t62 -45.5t75.5 -16zM216 730l85 -63l85 63l39 -20l-99 -86h-50l-98 86
z" />
    <glyph glyph-name="uni01EA" unicode="&#x1ea;" horiz-adv-x="751" 
d="M375 -5q-75 0 -136 30t-105 81.5t-68 116t-24 132.5q0 71 25 135.5t70.5 115t106.5 80t132 29.5q75 0 136 -31t104.5 -83t67.5 -116t24 -131q0 -71 -25 -135.5t-70 -115t-106 -79.5t-132 -29zM112 355q0 -58 19 -111.5t54 -95t83.5 -66t106.5 -24.5q61 0 109.5 25.5
t83 68t52.5 95.5t18 108q0 58 -19 111t-54.5 95t-83.5 66t-106 24q-60 0 -108.5 -25t-83 -67.5t-53 -95.5t-18.5 -108zM319 -100q0 31 22.5 60.5t67.5 60.5h19l17 -16q-41 -31 -59.5 -53.5t-18.5 -42.5q0 -19 19.5 -28t56.5 -13l-17 -45q-43 5 -66.5 16.5t-32 27.5t-8.5 33z
" />
    <glyph glyph-name="uni01EB" unicode="&#x1eb;" horiz-adv-x="595" 
d="M297 -10q-56 0 -103.5 21.5t-82 59t-53.5 86t-19 102.5q0 56 19 104.5t54 86t82.5 59t103.5 21.5t103 -21.5t82 -59t54 -86t19 -104.5q0 -54 -19 -102.5t-53.5 -86t-82 -59t-104.5 -21.5zM108 258q0 -58 25.5 -105.5t68.5 -75t95 -27.5t95 28t69 76.5t26 105.5
q0 58 -26 106t-69 76t-95 28t-94.5 -29t-68.5 -76.5t-26 -106.5zM239 -105q0 31 22.5 60.5t67.5 60.5h19l17 -16q-41 -31 -59.5 -53.5t-18.5 -42.5q0 -19 19.5 -28t56.5 -13l-17 -45q-43 5 -66.5 16.5t-32 27.5t-8.5 33z" />
    <glyph glyph-name="uni01F1" unicode="&#x1f1;" horiz-adv-x="1329" 
d="M89 0v710h241q113 0 188.5 -47.5t113.5 -128t38 -178.5q0 -108 -41.5 -188t-118 -124t-180.5 -44h-241zM600 356q0 85 -31.5 151t-91.5 103.5t-147 37.5h-171v-586h171q88 0 148 39t91 105.5t31 149.5zM731 55l483 593h-475v62h556v-55l-477 -593h476v-62h-563v55z" />
    <glyph glyph-name="uni01F2" unicode="&#x1f2;" horiz-adv-x="1206" 
d="M89 0v710h241q113 0 188.5 -47.5t113.5 -128t38 -178.5q0 -108 -41.5 -188t-118 -124t-180.5 -44h-241zM600 356q0 85 -31.5 151t-91.5 103.5t-147 37.5h-171v-586h171q88 0 148 39t91 105.5t31 149.5zM746 46l349 424h-341v51h418v-46l-347 -424h346v-51h-425v46z" />
    <glyph glyph-name="uni01F3" unicode="&#x1f3;" horiz-adv-x="1113" 
d="M40 259q0 74 30.5 135.5t84.5 98.5t123 37q65 0 116.5 -34.5t80.5 -83.5v318h68v-648q0 -14 6 -20.5t18 -7.5v-54q-20 -3 -31 -2q-21 1 -37 17t-16 35v51q-31 -51 -84 -81t-110 -30q-54 0 -99.5 22t-79 60t-52 86.5t-18.5 100.5zM475 179v161q-13 36 -42 65.5t-65.5 47
t-72.5 17.5q-42 0 -76 -17.5t-58.5 -47.5t-37.5 -68t-13 -78q0 -42 14.5 -80t41.5 -67.5t62 -45.5t76 -16q26 0 54 10t53.5 27.5t42.5 41.5t21 50zM653 46l349 424h-341v51h418v-46l-347 -424h346v-51h-425v46z" />
    <glyph glyph-name="Gacute" unicode="&#x1f4;" horiz-adv-x="716" 
d="M374 -5q-71 0 -132 30.5t-106 82.5t-69.5 116t-24.5 132q0 72 24.5 136.5t68.5 114.5t104 79t131 29q105 0 171 -43t100 -112l-54 -36q-34 66 -91 97t-127 31q-59 0 -106.5 -25t-81.5 -67t-51.5 -95t-17.5 -110q0 -60 20 -113.5t57 -95t85.5 -65t104.5 -23.5
q65 0 123 32.5t111 100.5v-74q-101 -122 -239 -122zM602 295h-158v54h217v-349h-59v295zM379 807l-45 17l59 93h72z" />
    <glyph glyph-name="gacute" unicode="&#x1f5;" horiz-adv-x="617" 
d="M283 -7q-53 0 -98 22t-77.5 59.5t-50.5 85.5t-18 99q0 55 17.5 103.5t50 86.5t76.5 59.5t98 21.5q67 0 116.5 -34t83.5 -84v109h61v-523q0 -72 -34.5 -121.5t-93 -74.5t-127.5 -25q-89 0 -144 32t-90 86l42 33q31 -49 82.5 -73t109.5 -24q51 0 93.5 18.5t68 55.5t25.5 93
v103q-30 -49 -82 -78.5t-109 -29.5zM302 50q31 0 59.5 11t52.5 29.5t40 41.5t20 47v161q-15 38 -43 67.5t-63.5 46t-73.5 16.5q-44 0 -78.5 -18.5t-58 -49t-36.5 -68.5t-13 -76q0 -42 15 -79.5t41.5 -67t62 -45.5t75.5 -16zM311 620l-45 17l59 93h72z" />
    <glyph glyph-name="Aringacute" unicode="&#x1fa;" horiz-adv-x="676" 
d="M364 827l-46 17l60 89h72zM309 710h59l295 -710h-74l-92 222h-319l-91 -222h-75zM481 277l-143 351l-145 -351h288zM249 774q0 38 25.5 61t63.5 23q39 0 64.5 -23t25.5 -61q0 -37 -25.5 -60t-64.5 -23q-38 0 -63.5 23t-25.5 60zM338 824q-19 0 -34 -13t-15 -37
q0 -20 14.5 -34.5t34.5 -14.5t35 13.5t15 35.5q0 24 -14.5 37t-35.5 13z" />
    <glyph glyph-name="aringacute" unicode="&#x1fb;" horiz-adv-x="545" 
d="M33 150q0 49 28 84.5t77.5 55t114.5 19.5q38 0 79 -6t73 -18v44q0 66 -39 105t-108 39q-42 0 -82.5 -15.5t-84.5 -45.5l-26 48q51 35 100 52.5t100 17.5q96 0 152 -55t56 -152v-241q0 -14 6 -20.5t19 -7.5v-54q-11 -1 -19 -2t-12 0q-25 1 -38 16t-14 32l-1 38
q-35 -45 -91 -69.5t-114 -24.5q-50 0 -90.5 21.5t-63 58t-22.5 80.5zM382 110q11 14 17 27t6 23v76q-34 13 -70.5 20t-73.5 7q-73 0 -118 -29t-45 -79q0 -29 15 -54.5t44 -42t68 -16.5q49 0 91.5 19t65.5 49zM174 670q0 37 25.5 60.5t63.5 23.5q39 0 64 -23.5t25 -60.5
t-25 -60t-64 -23q-38 0 -63.5 23t-25.5 60zM263 719q-20 0 -34.5 -13t-14.5 -36q0 -21 14 -35t35 -14q19 0 34.5 13.5t15.5 35.5q0 23 -15 36t-35 13zM292 807l-45 17l59 93h72z" />
    <glyph glyph-name="AEacute" unicode="&#x1fc;" horiz-adv-x="961" 
d="M431 710h481v-62h-394v-255h340v-62h-340v-269h403v-62h-471v222h-259l-141 -222h-76zM445 284v342l-222 -342h222zM608 807l-45 17l59 93h72z" />
    <glyph glyph-name="aeacute" unicode="&#x1fd;" horiz-adv-x="932" 
d="M205 -10q-49 0 -88 21.5t-61.5 58t-22.5 82.5q0 47 27.5 82t76.5 55t113 20q35 0 69.5 -5.5t64.5 -14.5q2 19 5.5 39t11.5 37q-9 53 -46.5 83.5t-97.5 30.5q-39 0 -81 -16t-86 -46l-24 45q103 68 197 68q65 0 111 -27.5t69 -76.5q32 47 84 75.5t115 28.5q76 0 134.5 -37
t92 -97.5t33.5 -135.5q0 -5 -0.5 -12.5t-0.5 -11.5h-453q5 -56 32.5 -99.5t71.5 -69t96 -25.5q51 0 96.5 26t62.5 68l60 -16q-16 -37 -49 -67t-77.5 -46.5t-95.5 -16.5q-68 0 -124 31.5t-91 83.5q-21 -41 -59 -66t-82 -37t-84 -12zM221 42q53 0 98 20t68 53q16 17 18 35
q-9 20 -14.5 46.5t-6.5 49.5q-29 10 -61 15t-64 5q-72 0 -117 -30t-45 -79q0 -32 16.5 -58.5t44.5 -41.5t63 -15zM837 282q-4 57 -30.5 101t-69 69t-96.5 25q-52 0 -95 -25t-69 -69t-29 -101h389zM480 620l-45 17l59 93h72z" />
    <glyph glyph-name="Oslashacute" unicode="&#x1fe;" horiz-adv-x="751" 
d="M375 -5q-75 0 -136 30t-105 81.5t-68 116t-24 132.5q0 71 25 135.5t70.5 115t106.5 80t132 29.5q75 0 136 -31t104.5 -83t67.5 -116t24 -131q0 -71 -25 -135.5t-70 -115t-106 -79.5t-132 -29zM112 355q0 -58 19 -111.5t54 -95t83.5 -66t106.5 -24.5q61 0 109.5 25.5
t83 68t52.5 95.5t18 108q0 58 -19 111t-54.5 95t-83.5 66t-106 24q-60 0 -108.5 -25t-83 -67.5t-53 -95.5t-18.5 -108zM650 710l-472 -710h-77l472 710h77zM400 807l-45 17l59 93h72z" />
    <glyph glyph-name="oslashacute" unicode="&#x1ff;" horiz-adv-x="595" 
d="M297 -10q-56 0 -103.5 21.5t-82 59t-53.5 86t-19 102.5q0 55 19 104t54 86.5t82.5 59t102.5 21.5q57 0 104 -21.5t82 -59t54 -86.5t19 -104q0 -54 -19 -102.5t-53.5 -86t-82 -59t-104.5 -21.5zM297 50q52 0 95 28t69 76.5t26 105.5q0 58 -26 106t-69 76t-95 28
t-94.5 -28.5t-68.5 -76.5t-26 -107q0 -58 25.5 -105.5t68.5 -75t95 -27.5zM82 -1l64 82l41 -25l-45 -57h-60zM193 61l-40 23l250 378l44 -20zM454 446l-44 20l41 57h62zM269 620l-45 17l59 93h72z" />
    <glyph glyph-name="uni0200" unicode="&#x200;" horiz-adv-x="676" 
d="M309 710h59l295 -710h-74l-92 222h-319l-91 -222h-75zM481 277l-143 351l-145 -351h288zM311 917h63l57 -93l-37 -17zM185 917h64l57 -93l-37 -17z" />
    <glyph glyph-name="uni0201" unicode="&#x201;" horiz-adv-x="545" 
d="M33 150q0 49 28 84.5t77.5 55t114.5 19.5q38 0 79 -6t73 -18v44q0 66 -39 105t-108 39q-42 0 -82.5 -15.5t-84.5 -45.5l-26 48q51 35 100 52.5t100 17.5q96 0 152 -55t56 -152v-241q0 -14 6 -20.5t19 -7.5v-54q-11 -1 -19 -2t-12 0q-25 1 -38 16t-14 32l-1 38
q-35 -45 -91 -69.5t-114 -24.5q-50 0 -90.5 21.5t-63 58t-22.5 80.5zM382 110q11 14 17 27t6 23v76q-34 13 -70.5 20t-73.5 7q-73 0 -118 -29t-45 -79q0 -29 15 -54.5t44 -42t68 -16.5q49 0 91.5 19t65.5 49zM236 731h63l57 -93l-37 -17zM110 731h64l57 -93l-37 -17z" />
    <glyph glyph-name="uni0202" unicode="&#x202;" horiz-adv-x="676" 
d="M309 710h59l295 -710h-74l-92 222h-319l-91 -222h-75zM481 277l-143 351l-145 -351h288zM338 882q-22 0 -39 -20t-17 -46h-42q0 42 28.5 71.5t69.5 29.5t69.5 -29.5t28.5 -71.5h-41q-3 28 -19.5 47t-37.5 19z" />
    <glyph glyph-name="uni0203" unicode="&#x203;" horiz-adv-x="545" 
d="M33 150q0 49 28 84.5t77.5 55t114.5 19.5q38 0 79 -6t73 -18v44q0 66 -39 105t-108 39q-42 0 -82.5 -15.5t-84.5 -45.5l-26 48q51 35 100 52.5t100 17.5q96 0 152 -55t56 -152v-241q0 -14 6 -20.5t19 -7.5v-54q-11 -1 -19 -2t-12 0q-25 1 -38 16t-14 32l-1 38
q-35 -45 -91 -69.5t-114 -24.5q-50 0 -90.5 21.5t-63 58t-22.5 80.5zM382 110q11 14 17 27t6 23v76q-34 13 -70.5 20t-73.5 7q-73 0 -118 -29t-45 -79q0 -29 15 -54.5t44 -42t68 -16.5q49 0 91.5 19t65.5 49zM263 695q-22 0 -39 -20t-17 -46h-42q0 42 28.5 71.5t69.5 29.5
t69.5 -29.5t28.5 -71.5h-41q-3 28 -19.5 47t-37.5 19z" />
    <glyph glyph-name="uni0204" unicode="&#x204;" horiz-adv-x="609" 
d="M566 62v-62h-477v710h468v-62h-398v-256h347v-59h-347v-271h407zM309 917h63l57 -93l-37 -17zM183 917h64l57 -93l-37 -17z" />
    <glyph glyph-name="uni0205" unicode="&#x205;" horiz-adv-x="587" 
d="M300 -10q-56 0 -104 21.5t-83 59t-54.5 86.5t-19.5 105q0 73 33.5 134t92.5 97.5t134 36.5q77 0 134.5 -37t90.5 -97.5t33 -132.5v-15.5t-1 -11.5h-446q5 -56 31.5 -99.5t69 -69t92.5 -25.5q51 0 96.5 26t63.5 68l59 -16q-16 -37 -49 -67t-77.5 -46.5t-95.5 -16.5z
M108 285h385q-4 57 -30.5 100t-69 67.5t-93.5 24.5t-93 -24.5t-68.5 -68t-30.5 -99.5zM269 731h63l57 -93l-37 -17zM143 731h64l57 -93l-37 -17z" />
    <glyph glyph-name="uni0206" unicode="&#x206;" horiz-adv-x="609" 
d="M566 62v-62h-477v710h468v-62h-398v-256h347v-59h-347v-271h407zM337 882q-22 0 -39 -20t-17 -46h-42q0 42 28.5 71.5t69.5 29.5t69.5 -29.5t28.5 -71.5h-41q-3 28 -19.5 47t-37.5 19z" />
    <glyph glyph-name="uni0207" unicode="&#x207;" horiz-adv-x="587" 
d="M300 -10q-56 0 -104 21.5t-83 59t-54.5 86.5t-19.5 105q0 73 33.5 134t92.5 97.5t134 36.5q77 0 134.5 -37t90.5 -97.5t33 -132.5v-15.5t-1 -11.5h-446q5 -56 31.5 -99.5t69 -69t92.5 -25.5q51 0 96.5 26t63.5 68l59 -16q-16 -37 -49 -67t-77.5 -46.5t-95.5 -16.5z
M108 285h385q-4 57 -30.5 100t-69 67.5t-93.5 24.5t-93 -24.5t-68.5 -68t-30.5 -99.5zM297 695q-22 0 -39 -20t-17 -46h-42q0 42 28.5 71.5t69.5 29.5t69.5 -29.5t28.5 -71.5h-41q-3 28 -19.5 47t-37.5 19z" />
    <glyph glyph-name="uni0208" unicode="&#x208;" horiz-adv-x="248" 
d="M89 0v710h70v-710h-70zM96 917h63l57 -93l-37 -17zM-30 917h64l57 -93l-37 -17z" />
    <glyph glyph-name="uni0209" unicode="&#x209;" horiz-adv-x="218" 
d="M75 0v521h68v-521h-68zM81 731h63l57 -93l-37 -17zM-45 731h64l57 -93l-37 -17z" />
    <glyph glyph-name="uni020A" unicode="&#x20a;" horiz-adv-x="248" 
d="M89 0v710h70v-710h-70zM124 882q-22 0 -39 -20t-17 -46h-42q0 42 28.5 71.5t69.5 29.5t69.5 -29.5t28.5 -71.5h-41q-3 28 -19.5 47t-37.5 19z" />
    <glyph glyph-name="uni020B" unicode="&#x20b;" horiz-adv-x="218" 
d="M75 0v521h68v-521h-68zM109 695q-22 0 -39 -20t-17 -46h-42q0 42 28.5 71.5t69.5 29.5t69.5 -29.5t28.5 -71.5h-41q-3 28 -19.5 47t-37.5 19z" />
    <glyph glyph-name="uni020C" unicode="&#x20c;" horiz-adv-x="751" 
d="M375 -5q-75 0 -136 30t-105 81.5t-68 116t-24 132.5q0 71 25 135.5t70.5 115t106.5 80t132 29.5q75 0 136 -31t104.5 -83t67.5 -116t24 -131q0 -71 -25 -135.5t-70 -115t-106 -79.5t-132 -29zM112 355q0 -58 19 -111.5t54 -95t83.5 -66t106.5 -24.5q61 0 109.5 25.5
t83 68t52.5 95.5t18 108q0 58 -19 111t-54.5 95t-83.5 66t-106 24q-60 0 -108.5 -25t-83 -67.5t-53 -95.5t-18.5 -108zM349 917h63l57 -93l-37 -17zM223 917h64l57 -93l-37 -17z" />
    <glyph glyph-name="uni020D" unicode="&#x20d;" horiz-adv-x="595" 
d="M297 -10q-56 0 -103.5 21.5t-82 59t-53.5 86t-19 102.5q0 56 19 104.5t54 86t82.5 59t103.5 21.5t103 -21.5t82 -59t54 -86t19 -104.5q0 -54 -19 -102.5t-53.5 -86t-82 -59t-104.5 -21.5zM108 258q0 -58 25.5 -105.5t68.5 -75t95 -27.5t95 28t69 76.5t26 105.5
q0 58 -26 106t-69 76t-95 28t-94.5 -29t-68.5 -76.5t-26 -106.5zM270 731h63l57 -93l-37 -17zM144 731h64l57 -93l-37 -17z" />
    <glyph glyph-name="uni020E" unicode="&#x20e;" horiz-adv-x="751" 
d="M375 -5q-75 0 -136 30t-105 81.5t-68 116t-24 132.5q0 71 25 135.5t70.5 115t106.5 80t132 29.5q75 0 136 -31t104.5 -83t67.5 -116t24 -131q0 -71 -25 -135.5t-70 -115t-106 -79.5t-132 -29zM112 355q0 -58 19 -111.5t54 -95t83.5 -66t106.5 -24.5q61 0 109.5 25.5
t83 68t52.5 95.5t18 108q0 58 -19 111t-54.5 95t-83.5 66t-106 24q-60 0 -108.5 -25t-83 -67.5t-53 -95.5t-18.5 -108zM376 882q-22 0 -39 -20t-17 -46h-42q0 42 28.5 71.5t69.5 29.5t69.5 -29.5t28.5 -71.5h-41q-3 28 -19.5 47t-37.5 19z" />
    <glyph glyph-name="uni020F" unicode="&#x20f;" horiz-adv-x="595" 
d="M297 -10q-56 0 -103.5 21.5t-82 59t-53.5 86t-19 102.5q0 56 19 104.5t54 86t82.5 59t103.5 21.5t103 -21.5t82 -59t54 -86t19 -104.5q0 -54 -19 -102.5t-53.5 -86t-82 -59t-104.5 -21.5zM108 258q0 -58 25.5 -105.5t68.5 -75t95 -27.5t95 28t69 76.5t26 105.5
q0 58 -26 106t-69 76t-95 28t-94.5 -29t-68.5 -76.5t-26 -106.5zM297 695q-22 0 -39 -20t-17 -46h-42q0 42 28.5 71.5t69.5 29.5t69.5 -29.5t28.5 -71.5h-41q-3 28 -19.5 47t-37.5 19z" />
    <glyph glyph-name="uni0210" unicode="&#x210;" horiz-adv-x="653" 
d="M89 0v710h300q46 0 84 -19t66.5 -51.5t44 -72t15.5 -80.5q0 -51 -19.5 -96t-55 -76t-83.5 -41l174 -274h-79l-167 262h-210v-262h-70zM159 324h232q42 0 73 23t48 60.5t17 79.5q0 43 -19.5 79.5t-52 59t-72.5 22.5h-226v-324zM277 920h63l57 -93l-37 -17zM151 920h64
l57 -93l-37 -17z" />
    <glyph glyph-name="uni0211" unicode="&#x211;" horiz-adv-x="351" 
d="M335 461q-68 -2 -119.5 -38t-72.5 -99v-324h-68v521h64v-125q27 55 71.5 89t94.5 38q10 1 17.5 1t12.5 -1v-62zM173 731h63l57 -93l-37 -17zM47 731h64l57 -93l-37 -17z" />
    <glyph glyph-name="uni0212" unicode="&#x212;" horiz-adv-x="653" 
d="M89 0v710h300q46 0 84 -19t66.5 -51.5t44 -72t15.5 -80.5q0 -51 -19.5 -96t-55 -76t-83.5 -41l174 -274h-79l-167 262h-210v-262h-70zM159 324h232q42 0 73 23t48 60.5t17 79.5q0 43 -19.5 79.5t-52 59t-72.5 22.5h-226v-324zM305 884q-22 0 -39 -20t-17 -46h-42
q0 42 28.5 71.5t69.5 29.5t69.5 -29.5t28.5 -71.5h-41q-3 28 -19.5 47t-37.5 19z" />
    <glyph glyph-name="uni0213" unicode="&#x213;" horiz-adv-x="351" 
d="M335 461q-68 -2 -119.5 -38t-72.5 -99v-324h-68v521h64v-125q27 55 71.5 89t94.5 38q10 1 17.5 1t12.5 -1v-62zM201 695q-22 0 -39 -20t-17 -46h-42q0 42 28.5 71.5t69.5 29.5t69.5 -29.5t28.5 -71.5h-41q-3 28 -19.5 47t-37.5 19z" />
    <glyph glyph-name="uni0214" unicode="&#x214;" horiz-adv-x="755" 
d="M378 -5q-84 0 -142 30t-92 80.5t-49.5 114.5t-15.5 132v358h69v-358q0 -55 11.5 -108t37.5 -95t70 -66.5t110 -24.5q68 0 112.5 25.5t70 67.5t36.5 94.5t11 106.5v358h70v-358q0 -71 -16 -136t-51.5 -114t-92.5 -78t-139 -29zM351 917h63l57 -93l-37 -17zM225 917h64
l57 -93l-37 -17z" />
    <glyph glyph-name="uni0215" unicode="&#x215;" horiz-adv-x="594" 
d="M70 215v306h68v-294q0 -89 30.5 -133t90.5 -44q40 0 77.5 17.5t66.5 50t44 75.5v328h68v-439q0 -14 6 -20.5t18 -7.5v-54q-12 -1 -19 -1.5t-13 -0.5q-20 2 -34.5 16t-15.5 34l-2 70q-34 -60 -92.5 -94t-126.5 -34q-82 0 -124 57t-42 168zM263 731h63l57 -93l-37 -17z
M137 731h64l57 -93l-37 -17z" />
    <glyph glyph-name="uni0216" unicode="&#x216;" horiz-adv-x="755" 
d="M378 -5q-84 0 -142 30t-92 80.5t-49.5 114.5t-15.5 132v358h69v-358q0 -55 11.5 -108t37.5 -95t70 -66.5t110 -24.5q68 0 112.5 25.5t70 67.5t36.5 94.5t11 106.5v358h70v-358q0 -71 -16 -136t-51.5 -114t-92.5 -78t-139 -29zM378 882q-22 0 -39 -20t-17 -46h-42
q0 42 28.5 71.5t69.5 29.5t69.5 -29.5t28.5 -71.5h-41q-3 28 -19.5 47t-37.5 19z" />
    <glyph glyph-name="uni0217" unicode="&#x217;" horiz-adv-x="594" 
d="M70 215v306h68v-294q0 -89 30.5 -133t90.5 -44q40 0 77.5 17.5t66.5 50t44 75.5v328h68v-439q0 -14 6 -20.5t18 -7.5v-54q-12 -1 -19 -1.5t-13 -0.5q-20 2 -34.5 16t-15.5 34l-2 70q-34 -60 -92.5 -94t-126.5 -34q-82 0 -124 57t-42 168zM291 695q-22 0 -39 -20t-17 -46
h-42q0 42 28.5 71.5t69.5 29.5t69.5 -29.5t28.5 -71.5h-41q-3 28 -19.5 47t-37.5 19z" />
    <glyph glyph-name="uni0218" unicode="&#x218;" horiz-adv-x="607" 
d="M504 577q-15 17 -35 30.5t-45 23.5t-53.5 16t-60.5 6q-93 0 -136.5 -35.5t-43.5 -96.5q0 -42 20.5 -66t64.5 -39t112 -31q76 -16 131 -38t85 -59.5t30 -101.5q0 -49 -19 -85t-53 -60t-81 -35.5t-103 -11.5q-55 0 -105.5 11.5t-95.5 34t-84 57.5l35 57q19 -20 45.5 -37.5
t59 -31.5t70 -21.5t77.5 -7.5q85 0 132.5 31t47.5 92q0 44 -24 70.5t-72 43.5t-118 33q-74 17 -125 38t-76.5 55.5t-25.5 91.5q0 66 32.5 111.5t89.5 69t131 23.5q47 0 87.5 -9.5t75 -27.5t64.5 -45zM284 -199l17 74h-20v76h63v-76l-25 -74h-35z" />
    <glyph glyph-name="uni0219" unicode="&#x219;" horiz-adv-x="483" 
d="M246 -10q-64 0 -119 21t-95 64l28 48q44 -41 88.5 -59.5t94.5 -18.5q61 0 99 24.5t38 70.5q0 31 -18.5 47.5t-53 27t-82.5 22.5q-54 15 -90.5 31.5t-55 42t-18.5 66.5q0 51 25.5 84.5t70 51t99.5 17.5q60 0 106 -19t75 -53l-33 -46q-28 32 -66.5 47.5t-85.5 15.5
q-32 0 -61 -8.5t-47.5 -28t-18.5 -53.5q0 -28 14 -43.5t42 -26t69 -22.5q59 -16 103 -32.5t68 -42.5t24 -73q0 -73 -55 -114t-145 -41zM214 -199l17 74h-20v76h63v-76l-25 -74h-35z" />
    <glyph glyph-name="uni021A" unicode="&#x21a;" horiz-adv-x="610" 
d="M593 648h-253v-648h-70v648h-253v62h576v-62zM276 -199l17 74h-20v76h63v-76l-25 -74h-35z" />
    <glyph glyph-name="uni021B" unicode="&#x21b;" horiz-adv-x="335" 
d="M325 25q-8 -3 -25 -11t-41 -14t-52 -6q-29 0 -54.5 11t-40.5 33.5t-15 55.5v373h-72v54h72v176h68v-176h120v-54h-120v-354q2 -28 20.5 -42t42.5 -14q28 0 51 9.5t28 13.5zM176 -199l17 74h-20v76h63v-76l-25 -74h-35z" />
    <glyph glyph-name="uni022A" unicode="&#x22a;" horiz-adv-x="751" 
d="M375 -5q-75 0 -136 30t-105 81.5t-68 116t-24 132.5q0 71 25 135.5t70.5 115t106.5 80t132 29.5q75 0 136 -31t104.5 -83t67.5 -116t24 -131q0 -71 -25 -135.5t-70 -115t-106 -79.5t-132 -29zM112 355q0 -58 19 -111.5t54 -95t83.5 -66t106.5 -24.5q61 0 109.5 25.5
t83 68t52.5 95.5t18 108q0 58 -19 111t-54.5 95t-83.5 66t-106 24q-60 0 -108.5 -25t-83 -67.5t-53 -95.5t-18.5 -108zM273 820v94h58v-94h-58zM422 820v94h58v-94h-58zM232 1049v47h289v-47h-289z" />
    <glyph glyph-name="uni022B" unicode="&#x22b;" horiz-adv-x="595" 
d="M297 -10q-56 0 -103.5 21.5t-82 59t-53.5 86t-19 102.5q0 56 19 104.5t54 86t82.5 59t103.5 21.5t103 -21.5t82 -59t54 -86t19 -104.5q0 -54 -19 -102.5t-53.5 -86t-82 -59t-104.5 -21.5zM108 258q0 -58 25.5 -105.5t68.5 -75t95 -27.5t95 28t69 76.5t26 105.5
q0 58 -26 106t-69 76t-95 28t-94.5 -29t-68.5 -76.5t-26 -106.5zM194 634v94h58v-94h-58zM343 634v94h58v-94h-58zM153 863v47h289v-47h-289z" />
    <glyph glyph-name="uni022C" unicode="&#x22c;" horiz-adv-x="751" 
d="M375 -5q-75 0 -136 30t-105 81.5t-68 116t-24 132.5q0 71 25 135.5t70.5 115t106.5 80t132 29.5q75 0 136 -31t104.5 -83t67.5 -116t24 -131q0 -71 -25 -135.5t-70 -115t-106 -79.5t-132 -29zM112 355q0 -58 19 -111.5t54 -95t83.5 -66t106.5 -24.5q61 0 109.5 25.5
t83 68t52.5 95.5t18 108q0 58 -19 111t-54.5 95t-83.5 66t-106 24q-60 0 -108.5 -25t-83 -67.5t-53 -95.5t-18.5 -108zM437 825q-30 0 -51 10t-38 20t-39 10t-32.5 -10.5t-14 -22.5t-3.5 -15h-42q0 5 3.5 20t13.5 31.5t27.5 29t46.5 12.5q28 0 47.5 -10.5t38 -21t42.5 -10.5
q26 0 38 11.5t15.5 23.5t3.5 14h42q0 -5 -4 -19.5t-14.5 -31.5t-30 -29t-49.5 -12zM232 1058v47h289v-47h-289z" />
    <glyph glyph-name="uni022D" unicode="&#x22d;" horiz-adv-x="595" 
d="M297 -10q-56 0 -103.5 21.5t-82 59t-53.5 86t-19 102.5q0 56 19 104.5t54 86t82.5 59t103.5 21.5t103 -21.5t82 -59t54 -86t19 -104.5q0 -54 -19 -102.5t-53.5 -86t-82 -59t-104.5 -21.5zM108 258q0 -58 25.5 -105.5t68.5 -75t95 -27.5t95 28t69 76.5t26 105.5
q0 58 -26 106t-69 76t-95 28t-94.5 -29t-68.5 -76.5t-26 -106.5zM358 638q-30 0 -51 10t-38 20t-39 10t-32.5 -10.5t-14 -22.5t-3.5 -15h-42q0 5 3.5 20t13.5 31.5t27.5 29t46.5 12.5q28 0 47.5 -10.5t38 -21t42.5 -10.5q26 0 38 11.5t15.5 23.5t3.5 14h42q0 -5 -4 -19.5
t-14.5 -31.5t-30 -29t-49.5 -12zM153 872v47h289v-47h-289z" />
    <glyph glyph-name="uni0230" unicode="&#x230;" horiz-adv-x="751" 
d="M375 -5q-75 0 -136 30t-105 81.5t-68 116t-24 132.5q0 71 25 135.5t70.5 115t106.5 80t132 29.5q75 0 136 -31t104.5 -83t67.5 -116t24 -131q0 -71 -25 -135.5t-70 -115t-106 -79.5t-132 -29zM112 355q0 -58 19 -111.5t54 -95t83.5 -66t106.5 -24.5q61 0 109.5 25.5
t83 68t52.5 95.5t18 108q0 58 -19 111t-54.5 95t-83.5 66t-106 24q-60 0 -108.5 -25t-83 -67.5t-53 -95.5t-18.5 -108zM345 820v97h62v-97h-62zM232 1058v47h289v-47h-289z" />
    <glyph glyph-name="uni0231" unicode="&#x231;" horiz-adv-x="595" 
d="M297 -10q-56 0 -103.5 21.5t-82 59t-53.5 86t-19 102.5q0 56 19 104.5t54 86t82.5 59t103.5 21.5t103 -21.5t82 -59t54 -86t19 -104.5q0 -54 -19 -102.5t-53.5 -86t-82 -59t-104.5 -21.5zM108 258q0 -58 25.5 -105.5t68.5 -75t95 -27.5t95 28t69 76.5t26 105.5
q0 58 -26 106t-69 76t-95 28t-94.5 -29t-68.5 -76.5t-26 -106.5zM266 633v97h62v-97h-62zM153 872v47h289v-47h-289z" />
    <glyph glyph-name="uni0232" unicode="&#x232;" horiz-adv-x="651" 
d="M93 710l232 -382l234 382h76l-275 -446v-264h-70v266l-274 444h77zM181 850v47h289v-47h-289z" />
    <glyph glyph-name="uni0233" unicode="&#x233;" horiz-adv-x="542" 
d="M105 -160q14 -1 27 -1.5t19 1.5q12 2 23 14t26 46t42 100l-227 521h72l191 -451l176 451h68l-270 -672q-7 -19 -21 -35.5t-34.5 -26t-50.5 -10.5q-9 -1 -18.5 -0.5t-22.5 2.5v61zM135 663v47h289v-47h-289z" />
    <glyph glyph-name="uni0237" unicode="&#x237;" horiz-adv-x="218" 
d="M-11 -181q-32 0 -61.5 9t-52.5 30l34 46q15 -14 34.5 -19t38.5 -5q24 0 45 12t34.5 33.5t13.5 47.5v548h68v-544q0 -46 -22.5 -82t-57 -56t-74.5 -20z" />
    <glyph glyph-name="uni0259" unicode="&#x259;" horiz-adv-x="587" 
d="M290 -10q-75 0 -134 36.5t-92.5 98t-34.5 134.5q0 6 0.5 13t1.5 12h445q-4 56 -31 99.5t-69 68.5t-92 25q-52 0 -96.5 -26t-63.5 -67l-59 16q16 38 49 67t77.5 46t95.5 17q57 0 104.5 -21.5t82.5 -59t54.5 -87t19.5 -105.5q0 -73 -33 -134t-91 -97t-134 -36zM290 42
q52 0 92.5 25.5t66.5 69.5t29 100h-382q4 -57 31 -101t70 -69t93 -25z" />
    <glyph glyph-name="uni02B9" unicode="&#x2b9;" horiz-adv-x="197" 
d="M69 521v195h59l-24 -195h-35z" />
    <glyph glyph-name="uni02BA" unicode="&#x2ba;" horiz-adv-x="394" 
d="M69 521v195h59l-24 -195h-35zM266 521v195h59l-24 -195h-35z" />
    <glyph glyph-name="uni02BB" unicode="&#x2bb;" horiz-adv-x="154" 
d="M94 730l-17 -64h20v-70h-63v70l25 64h35z" />
    <glyph glyph-name="uni02BC" unicode="&#x2bc;" horiz-adv-x="222" 
d="M94 620l-45 17l59 93h72z" />
    <glyph glyph-name="uni02BE" unicode="&#x2be;" horiz-adv-x="159" 
d="M35 587v34q19 0 34.5 13.5t15.5 35.5q0 23 -15 36t-35 13v35q39 0 64 -23.5t25 -60.5t-25 -60t-64 -23z" />
    <glyph glyph-name="uni02BF" unicode="&#x2bf;" horiz-adv-x="159" 
d="M124 587q-38 0 -63.5 23t-25.5 60t25.5 60.5t63.5 23.5v-35q-20 0 -34.5 -13t-14.5 -36q0 -21 14 -35t35 -14v-34z" />
    <glyph glyph-name="circumflex" unicode="&#x2c6;" horiz-adv-x="330" 
d="M42 645l98 85h50l99 -85l-39 -21l-85 63l-85 -63z" />
    <glyph glyph-name="caron" unicode="&#x2c7;" horiz-adv-x="330" 
d="M80 730l85 -63l85 63l39 -20l-99 -86h-50l-98 86z" />
    <glyph glyph-name="uni02C8" unicode="&#x2c8;" horiz-adv-x="234" 
d="M147 775v-407h-60v407h60z" />
    <glyph glyph-name="uni02C9" unicode="&#x2c9;" horiz-adv-x="396" 
d="M54 663v47h289v-47h-289z" />
    <glyph glyph-name="uni02CA" unicode="&#x2ca;" horiz-adv-x="197" 
d="M69 521v195h59l-24 -195h-35z" />
    <glyph glyph-name="uni02CB" unicode="&#x2cb;" horiz-adv-x="197" 
d="M93 521l-24 195h59v-195h-35z" />
    <glyph glyph-name="uni02CC" unicode="&#x2cc;" horiz-adv-x="234" 
d="M147 277v-407h-60v407h60z" />
    <glyph glyph-name="breve" unicode="&#x2d8;" horiz-adv-x="282" 
d="M141 664q21 0 37.5 19t19.5 47h41q0 -42 -28.5 -71.5t-69.5 -29.5t-69.5 29.5t-28.5 71.5h42q0 -26 17 -46t39 -20z" />
    <glyph glyph-name="dotaccent" unicode="&#x2d9;" horiz-adv-x="162" 
d="M50 633v97h62v-97h-62z" />
    <glyph glyph-name="ring" unicode="&#x2da;" horiz-adv-x="248" 
d="M35 670q0 37 25.5 60.5t63.5 23.5q39 0 64 -23.5t25 -60.5t-25 -60t-64 -23q-38 0 -63.5 23t-25.5 60zM124 719q-20 0 -34.5 -13t-14.5 -36q0 -21 14 -35t35 -14q19 0 34.5 13.5t15.5 35.5q0 23 -15 36t-35 13z" />
    <glyph glyph-name="ogonek" unicode="&#x2db;" horiz-adv-x="240" 
d="M53 -105q0 31 22.5 60.5t67.5 60.5h19l17 -16q-41 -31 -59.5 -53.5t-18.5 -42.5q0 -19 19.5 -28t56.5 -13l-17 -45q-43 5 -66.5 16.5t-32 27.5t-8.5 33z" />
    <glyph glyph-name="tilde" unicode="&#x2dc;" horiz-adv-x="406" 
d="M264 638q-30 0 -51 10t-38 20t-39 10t-32.5 -10.5t-14 -22.5t-3.5 -15h-42q0 5 4 20t13.5 31.5t27.5 29t46 12.5t47.5 -10.5t38 -21t42.5 -10.5q27 0 38.5 11.5t15 23.5t3.5 14h42q0 -5 -3.5 -19.5t-14.5 -31.5t-30.5 -29t-49.5 -12z" />
    <glyph glyph-name="hungarumlaut" unicode="&#x2dd;" horiz-adv-x="326" 
d="M80 620l-37 17l57 93h64zM206 620l-38 17l57 93h64z" />
    <glyph glyph-name="gravecomb" unicode="&#x300;" 
d="M49 730h71l60 -93l-44 -17z" />
    <glyph glyph-name="acutecomb" unicode="&#x301;" 
d="M94 620l-45 17l59 93h72z" />
    <glyph glyph-name="uni0302" unicode="&#x302;" 
d="M42 645l98 85h50l99 -85l-39 -21l-85 63l-85 -63z" />
    <glyph glyph-name="tildecomb" unicode="&#x303;" 
d="M278 638q-30 0 -51 10t-38 20t-39 10t-32.5 -10.5t-14 -22.5t-3.5 -15h-42q0 5 3.5 20t13.5 31.5t27.5 29t46.5 12.5q28 0 47.5 -10.5t38 -21t42.5 -10.5q26 0 38 11.5t15.5 23.5t3.5 14h42q0 -5 -4 -19.5t-14.5 -31.5t-30 -29t-49.5 -12z" />
    <glyph glyph-name="uni0304" unicode="&#x304;" 
d="M54 663v47h289v-47h-289z" />
    <glyph glyph-name="uni0306" unicode="&#x306;" 
d="M141 664q21 0 37.5 19t19.5 47h41q0 -42 -28.5 -71.5t-69.5 -29.5t-69.5 29.5t-28.5 71.5h42q0 -26 17 -46t39 -20z" />
    <glyph glyph-name="uni0307" unicode="&#x307;" 
d="M50 633v97h62v-97h-62z" />
    <glyph glyph-name="uni0308" unicode="&#x308;" 
d="M61 633v94h58v-94h-58zM210 633v94h58v-94h-58z" />
    <glyph glyph-name="hookabovecomb" unicode="&#x309;" 
d="M256 692l-27 27q18 16 37 25t42 9q33 0 50 -19t17 -44q0 -20 -12.5 -39.5t-38.5 -42.5l-21 24q17 16 23.5 28t6.5 24q0 13 -8 22t-23 9q-13 0 -22.5 -5t-23.5 -18z" />
    <glyph glyph-name="uni030A" unicode="&#x30a;" 
d="M35 670q0 37 25.5 60.5t63.5 23.5q39 0 64 -23.5t25 -60.5t-25 -60t-64 -23q-38 0 -63.5 23t-25.5 60zM124 719q-20 0 -34.5 -13t-14.5 -36q0 -21 14 -35t35 -14q19 0 34.5 13.5t15.5 35.5q0 23 -15 36t-35 13z" />
    <glyph glyph-name="uni030B" unicode="&#x30b;" 
d="M80 620l-37 17l57 93h64zM206 620l-38 17l57 93h64z" />
    <glyph glyph-name="uni030C" unicode="&#x30c;" 
d="M80 730l85 -63l85 63l39 -20l-99 -86h-50l-98 86z" />
    <glyph glyph-name="uni030F" unicode="&#x30f;" 
d="M163 730h63l57 -93l-37 -17zM37 730h64l57 -93l-37 -17z" />
    <glyph glyph-name="uni0311" unicode="&#x311;" 
d="M141 695q-22 0 -39 -20t-17 -46h-42q0 42 28.5 71.5t69.5 29.5t69.5 -29.5t28.5 -71.5h-41q-3 28 -19.5 47t-37.5 19z" />
    <glyph glyph-name="uni0312" unicode="&#x312;" 
d="M94 730l-17 -64h20v-70h-63v70l25 64h35z" />
    <glyph glyph-name="uni031B" unicode="&#x31b;" 
d="M50 506l1 51q33 0 52 6t29 17q9 12 12 26.5t4 34.5h58q-1 -18 -4 -34.5t-9.5 -31t-17.5 -28.5q-12 -13 -31 -22.5t-43 -14t-51 -4.5z" />
    <glyph glyph-name="dotbelowcomb" unicode="&#x323;" 
d="M50 -169v97h62v-97h-62z" />
    <glyph glyph-name="uni0324" unicode="&#x324;" 
d="M61 -169v94h58v-94h-58zM210 -169v94h58v-94h-58z" />
    <glyph glyph-name="uni0326" unicode="&#x326;" 
d="M60 -199l17 74h-20v76h63v-76l-25 -74h-35z" />
    <glyph glyph-name="uni0327" unicode="&#x327;" 
d="M149 -180q-25 0 -55.5 7t-58.5 21l20 39q21 -10 40 -16t43 -6q33 0 51 12.5t18 38.5t-18 45.5t-52 38.5l29 19q39 -24 63 -49.5t24 -64.5q0 -40 -28 -62.5t-76 -22.5z" />
    <glyph glyph-name="uni0328" unicode="&#x328;" 
d="M53 -105q0 31 22.5 60.5t67.5 60.5h19l17 -16q-41 -31 -59.5 -53.5t-18.5 -42.5q0 -19 19.5 -28t56.5 -13l-17 -45q-43 5 -66.5 16.5t-32 27.5t-8.5 33z" />
    <glyph glyph-name="uni032E" unicode="&#x32e;" 
d="M141 -117q21 0 37.5 19t19.5 47h41q0 -42 -28.5 -71.5t-69.5 -29.5t-69.5 29.5t-28.5 71.5h42q0 -26 17 -46t39 -20z" />
    <glyph glyph-name="uni0331" unicode="&#x331;" 
d="M54 -129v47h289v-47h-289z" />
    <glyph glyph-name="uni0335" unicode="&#x335;" 
d="M50 280v45h240v-45h-240z" />
    <glyph glyph-name="uni0394" unicode="&#x394;" horiz-adv-x="647" 
d="M353 710l271 -657v-53h-601v53l272 657h58zM100 62h447l-223 566z" />
    <glyph glyph-name="uni03A9" unicode="&#x3a9;" horiz-adv-x="763" 
d="M45 0v62h191q-56 29 -97 75.5t-63 104.5t-22 123q0 69 24.5 132t68.5 112t104 77.5t130 28.5q71 0 131 -28.5t104 -77.5t68.5 -112t24.5 -132q0 -65 -22 -123t-63 -104.5t-97 -75.5h190v-62h-289v62q50 14 88.5 45t66 73t42 89.5t14.5 95.5q0 53 -18 104t-51.5 92
t-81 65.5t-107.5 24.5q-59 0 -106.5 -24.5t-81 -65.5t-51.5 -92t-18 -104q0 -48 14.5 -95.5t41.5 -89.5t66 -73t88 -45v-62h-289z" />
    <glyph glyph-name="uni03BC" unicode="&#x3bc;" horiz-adv-x="600" 
d="M75 -212v733h68v-294q0 -89 30.5 -133t92.5 -44q39 0 76.5 17.5t66.5 50t44 75.5v328h68v-433q0 -14 6 -21t18 -7v-60q-12 -1 -19 -1.5t-14 -0.5q-22 2 -36.5 18t-14.5 36v66q-17 -35 -48 -64.5t-70 -46.5t-81 -17q-31 0 -56 11t-41 30t-26 44v-287h-64z" />
    <glyph glyph-name="pi" unicode="&#x3c0;" horiz-adv-x="589" 
d="M171 459v-459h-66v459h-80v62h522v-62h-110v-341q0 -29 16 -45.5t45 -16.5q11 0 26 3t28 8l12 -55q-19 -8 -46.5 -13t-47.5 -5q-45 0 -72 27t-27 74v364h-200z" />
    <glyph glyph-name="uni0400" unicode="&#x400;" horiz-adv-x="609" 
d="M566 62v-62h-477v710h468v-62h-398v-256h347v-59h-347v-271h407zM244 917h71l60 -93l-44 -17z" />
    <glyph glyph-name="uni0401" unicode="&#x401;" horiz-adv-x="609" 
d="M566 62v-62h-477v710h468v-62h-398v-256h347v-59h-347v-271h407zM233 820v94h58v-94h-58zM382 820v94h58v-94h-58z" />
    <glyph glyph-name="uni0402" unicode="&#x402;" horiz-adv-x="731" 
d="M465 -7q-21 0 -42.5 2.5t-43.5 8.5l16 57q15 -3 31.5 -6t32.5 -3q72 0 113 39.5t41 121.5q0 56 -22 94t-60.5 57t-86.5 19q-46 0 -93.5 -15.5t-93.5 -46.5v-321h-68v649h-172v61h516v-61h-276v-265q47 29 96.5 44t98.5 15q67 0 118.5 -27.5t81 -79t29.5 -123.5
q0 -112 -58.5 -166t-157.5 -54z" />
    <glyph glyph-name="uni0403" unicode="&#x403;" horiz-adv-x="516" 
d="M89 0v710h403v-62h-333v-648h-70zM341 809l-45 17l59 93h72z" />
    <glyph glyph-name="uni0404" unicode="&#x404;" horiz-adv-x="711" 
d="M378 -6q-72 0 -133.5 30t-107 81.5t-70.5 117.5t-25 137q0 65 22 127.5t66 114t107.5 82t146.5 30.5q97 0 166 -43.5t102 -111.5l-55 -34q-24 47 -59 74.5t-76 39.5t-82 12q-60 0 -108 -22.5t-81.5 -59.5t-52 -83.5t-22.5 -93.5h333v-58h-335q3 -56 24 -106t57.5 -88.5
t84 -60.5t102.5 -22q42 0 85.5 14t80.5 43.5t60 74.5l58 -30q-23 -53 -70 -90t-104 -56t-114 -19z" />
    <glyph glyph-name="uni0405" unicode="&#x405;" horiz-adv-x="607" 
d="M504 577q-15 17 -35 30.5t-45 23.5t-53.5 16t-60.5 6q-93 0 -136.5 -35.5t-43.5 -96.5q0 -42 20.5 -66t64.5 -39t112 -31q76 -16 131 -38t85 -59.5t30 -101.5q0 -49 -19 -85t-53 -60t-81 -35.5t-103 -11.5q-55 0 -105.5 11.5t-95.5 34t-84 57.5l35 57q19 -20 45.5 -37.5
t59 -31.5t70 -21.5t77.5 -7.5q85 0 132.5 31t47.5 92q0 44 -24 70.5t-72 43.5t-118 33q-74 17 -125 38t-76.5 55.5t-25.5 91.5q0 66 32.5 111.5t89.5 69t131 23.5q47 0 87.5 -9.5t75 -27.5t64.5 -45z" />
    <glyph glyph-name="uni0406" unicode="&#x406;" horiz-adv-x="248" 
d="M89 0v710h70v-710h-70z" />
    <glyph glyph-name="uni0407" unicode="&#x407;" horiz-adv-x="248" 
d="M89 0v710h70v-710h-70zM20 820v94h58v-94h-58zM169 820v94h58v-94h-58z" />
    <glyph glyph-name="uni0408" unicode="&#x408;" horiz-adv-x="481" 
d="M34 89q21 -15 55.5 -26t79.5 -11q52 0 84 17.5t49 53t23 88.5t6 124v375h70v-361q0 -80 -8 -146t-31 -114t-69 -74t-122 -26q-49 0 -87 11t-70 33z" />
    <glyph glyph-name="uni0409" unicode="&#x409;" horiz-adv-x="1009" 
d="M38 -2v62q39 1 67.5 24.5t48 77.5t29.5 145.5t12 228.5l2 174h400v-281h143q76 0 126.5 -27t76 -75.5t25.5 -111.5q0 -60 -25 -108.5t-74.5 -77.5t-123.5 -29h-217v648h-268v-162q-1 -124 -12 -209.5t-30.5 -140t-47 -84.5t-61 -42t-71.5 -12zM597 59h140q57 0 92.5 22
t51.5 58t16 76t-14.5 75.5t-49.5 57.5t-98 22h-138v-311z" />
    <glyph glyph-name="uni040A" unicode="&#x40a;" horiz-adv-x="1008" 
d="M89 0v710h70v-305h367v305h70v-302h143q114 0 171 -55.5t57 -145.5q0 -56 -25 -103.5t-74.5 -75.5t-123.5 -28h-218v343h-367v-343h-70zM596 59h140q57 0 92.5 21t51.5 55t16 72q0 37 -15 69t-49.5 52t-97.5 20h-138v-289z" />
    <glyph glyph-name="uni040B" unicode="&#x40b;" horiz-adv-x="719" 
d="M189 0v649h-172v61h511v-61h-271v-250q42 18 89 28t98 10q112 0 168 -53t56 -168v-216h-68v208q0 85 -38.5 124.5t-127.5 39.5q-49 0 -98 -12t-79 -30v-330h-68z" />
    <glyph glyph-name="uni040C" unicode="&#x40c;" horiz-adv-x="634" 
d="M89 0v710h70v-316h107l244 316h81l-267 -344l284 -366h-86l-254 330h-109v-330h-70zM339 809l-45 17l59 93h72z" />
    <glyph glyph-name="uni040D" unicode="&#x40d;" horiz-adv-x="760" 
d="M93 0v710h69v-614l440 614h65v-710h-69v603l-435 -603h-70zM287 920h71l60 -93l-44 -17z" />
    <glyph glyph-name="uni040E" unicode="&#x40e;" horiz-adv-x="616" 
d="M167 -2v59h45q23 0 34.5 13t25.5 39l31 65l-303 536h77l258 -465l215 465h73l-297 -635q-20 -41 -41 -59t-59 -18h-59zM319 776q-68 0 -105 32t-37 81h50q0 -30 22.5 -50t69.5 -20q46 0 67.5 19t24.5 51h49q0 -49 -37 -81t-104 -32z" />
    <glyph glyph-name="uni040F" unicode="&#x40f;" horiz-adv-x="698" 
d="M319 -136v136h-230v710h70v-648h381v648h69v-710h-229v-136h-61z" />
    <glyph glyph-name="uni0410" unicode="&#x410;" horiz-adv-x="676" 
d="M309 710h59l295 -710h-74l-92 222h-319l-91 -222h-75zM481 277l-143 351l-145 -351h288z" />
    <glyph glyph-name="uni0411" unicode="&#x411;" horiz-adv-x="652" 
d="M89 0v710h476v-62h-406v-247h234q117 0 173 -54.5t56 -141.5q0 -57 -24.5 -103.5t-74 -74t-124.5 -27.5h-310zM159 62h232q58 0 93 21t51 54.5t16 69.5t-14 67.5t-49.5 51t-99.5 19.5h-229v-283z" />
    <glyph glyph-name="uni0412" unicode="&#x412;" horiz-adv-x="666" 
d="M623 183q0 -53 -27 -94.5t-72.5 -65t-99.5 -23.5h-335v710h342q50 0 86.5 -26.5t56 -68t19.5 -86.5q0 -53 -27 -98t-75 -67q61 -18 96.5 -67t35.5 -114zM553 195q0 36 -16 66.5t-43.5 49.5t-62.5 19h-272v-269h265q36 0 65 19t46.5 49.5t17.5 65.5zM159 649v-262h244
q35 0 62 18.5t43 48.5t16 64q0 36 -15 65.5t-41 47.5t-59 18h-250z" />
    <glyph glyph-name="uni0413" unicode="&#x413;" horiz-adv-x="516" 
d="M89 0v710h403v-62h-333v-648h-70z" />
    <glyph glyph-name="uni0414" unicode="&#x414;" horiz-adv-x="749" 
d="M38 -136v198h30q28 0 49.5 23t37 74.5t25 138.5t13.5 216l5 196h425v-648h85v-198h-62v136h-546v-136h-62zM168 62h385v586h-291l-4 -142q-3 -135 -13.5 -225.5t-29.5 -143t-47 -75.5z" />
    <glyph glyph-name="uni0415" unicode="&#x415;" horiz-adv-x="609" 
d="M566 62v-62h-477v710h468v-62h-398v-256h347v-59h-347v-271h407z" />
    <glyph glyph-name="uni0416" unicode="&#x416;" horiz-adv-x="985" 
d="M26 0l276 366l-259 344h82l236 -316h97v316h69v-316h96l237 316h82l-260 -344l276 -366h-81l-252 330h-98v-330h-69v330h-99l-252 -330h-81z" />
    <glyph glyph-name="uni0417" unicode="&#x417;" horiz-adv-x="545" 
d="M267 -9q-73 0 -131 31.5t-91 87.5l54 33q25 -44 68 -68t99 -24q76 0 120.5 39.5t44.5 105.5q0 42 -18.5 74.5t-52.5 50.5t-82 18h-68v56h69q37 0 65 17.5t44 46.5t16 65q0 39 -17.5 68t-49 46t-73.5 17q-51 0 -90 -23t-62 -64l-51 34q31 55 82.5 86t123.5 31
q61 0 106.5 -23.5t72 -65t26.5 -97.5q0 -54 -26.5 -97.5t-76.5 -65.5q63 -17 97.5 -66t34.5 -114q0 -62 -30 -106.5t-82.5 -68.5t-121.5 -24z" />
    <glyph glyph-name="uni0418" unicode="&#x418;" horiz-adv-x="760" 
d="M93 0v710h69v-614l440 614h65v-710h-69v603l-435 -603h-70z" />
    <glyph glyph-name="uni0419" unicode="&#x419;" horiz-adv-x="760" 
d="M93 0v710h69v-614l440 614h65v-710h-69v603l-435 -603h-70zM381 770q-49 0 -82.5 14.5t-50.5 40t-18 55.5h55q1 -26 21.5 -47t74.5 -21q52 0 73 19.5t22 48.5h55q-1 -30 -18 -55.5t-49.5 -40t-82.5 -14.5z" />
    <glyph glyph-name="uni041A" unicode="&#x41a;" horiz-adv-x="634" 
d="M89 0v710h70v-316h107l244 316h81l-267 -344l284 -366h-86l-254 330h-109v-330h-70z" />
    <glyph glyph-name="uni041B" unicode="&#x41b;" horiz-adv-x="727" 
d="M569 0v648h-290l-4 -150q-5 -147 -21 -244t-45 -152.5t-71 -79t-100 -23.5v62q39 0 69 20t51 70t33.5 138.5t16.5 224.5l6 196h424v-710h-69z" />
    <glyph glyph-name="uni041C" unicode="&#x41c;" horiz-adv-x="877" 
d="M718 0v578l-257 -449h-44l-258 449v-578h-70v710h72l277 -486l279 486h71v-710h-70z" />
    <glyph glyph-name="uni041D" unicode="&#x41d;" horiz-adv-x="738" 
d="M649 710v-710h-69v332h-421v-332h-70v710h70v-316h421v316h69z" />
    <glyph glyph-name="uni041E" unicode="&#x41e;" horiz-adv-x="751" 
d="M375 -5q-75 0 -136 30t-105 81.5t-68 116t-24 132.5q0 71 25 135.5t70.5 115t106.5 80t132 29.5q75 0 136 -31t104.5 -83t67.5 -116t24 -131q0 -71 -25 -135.5t-70 -115t-106 -79.5t-132 -29zM112 355q0 -58 19 -111.5t54 -95t83.5 -66t106.5 -24.5q61 0 109.5 25.5
t83 68t52.5 95.5t18 108q0 58 -19 111t-54.5 95t-83.5 66t-106 24q-60 0 -108.5 -25t-83 -67.5t-53 -95.5t-18.5 -108z" />
    <glyph glyph-name="uni041F" unicode="&#x41f;" horiz-adv-x="714" 
d="M89 0v710h536v-710h-70v648h-396v-648h-70z" />
    <glyph glyph-name="uni0420" unicode="&#x420;" horiz-adv-x="622" 
d="M89 0v710h294q46 0 84.5 -19t66.5 -51.5t44 -72t16 -80.5q0 -58 -25.5 -109.5t-71.5 -83.5t-108 -32h-230v-262h-70zM159 324h227q42 0 73 23t48 60t17 80q0 44 -20 81t-52.5 58.5t-71.5 21.5h-221v-324z" />
    <glyph glyph-name="uni0421" unicode="&#x421;" horiz-adv-x="686" 
d="M42 360q0 65 22.5 127.5t65.5 114t106 82t143 30.5q95 0 162.5 -43.5t99.5 -111.5l-55 -34q-23 47 -58 74.5t-74.5 39.5t-78.5 12q-64 0 -113 -25.5t-82.5 -68t-50.5 -95t-17 -106.5q0 -59 20 -113t56 -95.5t84.5 -66t105.5 -24.5q40 0 82 14t78.5 43t58.5 75l58 -30
q-22 -53 -68 -90t-102.5 -56t-110.5 -19q-73 0 -134 31.5t-105.5 84t-68.5 118t-24 132.5z" />
    <glyph glyph-name="uni0422" unicode="&#x422;" horiz-adv-x="610" 
d="M593 648h-253v-648h-70v648h-253v62h576v-62z" />
    <glyph glyph-name="uni0423" unicode="&#x423;" horiz-adv-x="616" 
d="M167 -2v59h45q23 0 34.5 13t25.5 39l31 65l-303 536h77l258 -465l215 465h73l-297 -635q-20 -41 -41 -59t-59 -18h-59z" />
    <glyph glyph-name="uni0424" unicode="&#x424;" horiz-adv-x="811" 
d="M372 0v66q-68 2 -128 25t-105.5 64t-71 97.5t-25.5 124.5q0 72 27 128.5t73 97t105 62.5t125 24v53h66v-53q67 -2 127 -25t105.5 -64t71.5 -97.5t26 -125.5q0 -70 -26.5 -127t-73 -97t-106 -62.5t-124.5 -24.5v-66h-66zM373 124v507q-72 -2 -131.5 -33.5t-95 -87.5
t-35.5 -133q0 -59 21.5 -105t58.5 -78.5t84 -50t98 -19.5zM437 124q72 2 131.5 34t95 88t35.5 131q0 59 -21 104.5t-58 78.5t-84 51.5t-99 19.5v-507z" />
    <glyph glyph-name="uni0425" unicode="&#x425;" horiz-adv-x="632" 
d="M85 710l232 -309l231 309h79l-272 -360l264 -350h-79l-223 299l-224 -299h-80l264 350l-272 360h80z" />
    <glyph glyph-name="uni0426" unicode="&#x426;" horiz-adv-x="733" 
d="M630 -135v135h-541v710h70v-648h378v648h69v-648h86v-197h-62z" />
    <glyph glyph-name="uni0427" unicode="&#x427;" horiz-adv-x="644" 
d="M486 0v306q-22 -10 -51 -19t-63 -14.5t-73 -5.5q-118 0 -174 51.5t-56 163.5v228h68v-220q0 -83 40.5 -121t131.5 -38q51 0 99.5 11t77.5 27v341h68v-710h-68z" />
    <glyph glyph-name="uni0428" unicode="&#x428;" horiz-adv-x="950" 
d="M89 0v710h70v-648h281v648h70v-648h282v648h69v-710h-772z" />
    <glyph glyph-name="uni0429" unicode="&#x429;" horiz-adv-x="988" 
d="M884 -135v135h-795v710h70v-648h281v648h70v-648h282v648h69v-648h86v-197h-63z" />
    <glyph glyph-name="uni042A" unicode="&#x42a;" horiz-adv-x="722" 
d="M209 0v650h-190v60h259v-276h173q77 0 128 -27t77 -76t26 -114q0 -59 -25.5 -109t-75.5 -79t-125 -29h-247zM278 59h170q59 0 94.5 22.5t52 59t16.5 76.5q0 42 -15 78t-50.5 58t-99.5 22h-168v-316z" />
    <glyph glyph-name="uni042B" unicode="&#x42b;" horiz-adv-x="851" 
d="M89 0v710h70v-276h180q77 0 128 -27t76.5 -76t25.5 -114q0 -59 -25 -109t-75 -79t-125 -29h-255zM159 59h176q59 0 95 22.5t52.5 59t16.5 76.5q0 42 -15 78t-51 58t-99 22h-175v-316zM693 0v709h69v-709h-69z" />
    <glyph glyph-name="uni042C" unicode="&#x42c;" horiz-adv-x="610" 
d="M89 0v710h70v-276h180q77 0 128 -27t76.5 -76t25.5 -114q0 -59 -25 -109t-75 -79t-125 -29h-255zM159 59h176q59 0 95 22.5t52.5 59t16.5 76.5q0 42 -15 78t-51 58t-99 22h-175v-316z" />
    <glyph glyph-name="uni042D" unicode="&#x42d;" horiz-adv-x="715" 
d="M334 -6q-60 0 -115.5 19.5t-100 56.5t-70.5 89l59 30q24 -44 60 -73.5t79 -44t86 -14.5q58 0 107.5 24t86.5 66t56.5 96t17.5 112l31 -21h-366v58h364l-29 -20q-1 51 -19.5 101.5t-52.5 90t-83 63.5t-111 24q-43 0 -83.5 -13t-74.5 -41t-57 -73l-58 35q37 68 104.5 111.5
t166.5 43.5q81 0 144.5 -30.5t107 -82t66.5 -114.5t23 -129q0 -69 -24.5 -134.5t-69.5 -117t-107.5 -82t-137.5 -30.5z" />
    <glyph glyph-name="uni042E" unicode="&#x42e;" horiz-adv-x="980" 
d="M613 -5q-90 0 -159 41.5t-110.5 115.5t-46.5 173h-138v-325h-70v710h70v-322h138q7 101 49.5 174t112 113t154.5 40q97 0 170 -46.5t114 -127.5t41 -187q0 -113 -43 -193t-116.5 -123t-165.5 -43zM613 58q78 0 134.5 38.5t88 105.5t31.5 153q0 91 -33 157.5t-90 102.5
t-131 36q-76 0 -131.5 -37.5t-86 -104.5t-30.5 -154q0 -90 31.5 -157t87.5 -103.5t129 -36.5z" />
    <glyph glyph-name="uni042F" unicode="&#x42f;" horiz-adv-x="637" 
d="M65 0l190 301q-77 18 -118.5 73t-41.5 131q0 57 28.5 103.5t80.5 74t124 27.5h220v-710h-69v292h-127h-12.5h-12.5l-182 -292h-80zM331 353h148v296h-144q-49 0 -88 -18t-60 -50t-21 -76t19 -78t55.5 -54t90.5 -20z" />
    <glyph glyph-name="uni0430" unicode="&#x430;" horiz-adv-x="545" 
d="M33 150q0 49 28 84.5t77.5 55t114.5 19.5q38 0 79 -6t73 -18v44q0 66 -39 105t-108 39q-42 0 -82.5 -15.5t-84.5 -45.5l-26 48q51 35 100 52.5t100 17.5q96 0 152 -55t56 -152v-241q0 -14 6 -20.5t19 -7.5v-54q-11 -1 -19 -2t-12 0q-25 1 -38 16t-14 32l-1 38
q-35 -45 -91 -69.5t-114 -24.5q-50 0 -90.5 21.5t-63 58t-22.5 80.5zM382 110q11 14 17 27t6 23v76q-34 13 -70.5 20t-73.5 7q-73 0 -118 -29t-45 -79q0 -29 15 -54.5t44 -42t68 -16.5q49 0 91.5 19t65.5 49z" />
    <glyph glyph-name="uni0431" unicode="&#x431;" horiz-adv-x="608" 
d="M314 -10q-126 0 -190.5 77.5t-64.5 214.5q0 97 16 164t47 110.5t76.5 71.5t104.5 46l219 72l6 -59l-211 -69q-60 -20 -100 -51t-62.5 -78.5t-29.5 -123.5q26 58 80 89.5t125 31.5q76 0 129.5 -31t81.5 -86t28 -127q0 -76 -29.5 -132.5t-86 -88t-139.5 -31.5zM314 50
q89 0 137.5 51.5t48.5 137.5q0 84 -47.5 137t-138.5 53q-52 0 -94 -22t-66.5 -64t-24.5 -104q0 -54 21.5 -97t62.5 -67.5t101 -24.5z" />
    <glyph glyph-name="uni0432" unicode="&#x432;" horiz-adv-x="535" 
d="M74 0v521h260q44 0 74 -18.5t45.5 -47.5t15.5 -62q0 -42 -20 -75.5t-58 -50.5q45 -13 73 -47t28 -82q0 -42 -20.5 -73t-56 -48t-81.5 -17h-260zM139 49h193q26 0 47.5 13.5t34 35.5t12.5 46q0 26 -12 47.5t-32 34.5t-46 13h-197v-190zM139 286h177q26 0 46 14t31 36
t11 46q0 36 -23.5 63t-60.5 27h-181v-186z" />
    <glyph glyph-name="uni0433" unicode="&#x433;" horiz-adv-x="405" 
d="M74 0v521h311v-61h-243v-460h-68z" />
    <glyph glyph-name="uni0434" unicode="&#x434;" horiz-adv-x="580" 
d="M17 -121v182h9q23 0 42 14t34 49t24 96.5t12 155.5l5 145h339v-460h70v-182h-61v121h-414v-121h-60zM129 61h285v399h-210l-3 -90q-3 -93 -12.5 -155.5t-24 -99t-35.5 -54.5z" />
    <glyph glyph-name="uni0435" unicode="&#x435;" horiz-adv-x="587" 
d="M300 -10q-56 0 -104 21.5t-83 59t-54.5 86.5t-19.5 105q0 73 33.5 134t92.5 97.5t134 36.5q77 0 134.5 -37t90.5 -97.5t33 -132.5v-15.5t-1 -11.5h-446q5 -56 31.5 -99.5t69 -69t92.5 -25.5q51 0 96.5 26t63.5 68l59 -16q-16 -37 -49 -67t-77.5 -46.5t-95.5 -16.5z
M108 285h385q-4 57 -30.5 100t-69 67.5t-93.5 24.5t-93 -24.5t-68.5 -68t-30.5 -99.5z" />
    <glyph glyph-name="uni0436" unicode="&#x436;" horiz-adv-x="789" 
d="M38 0l195 268l-176 253h77l157 -225h68v225h70v-225h70l154 225h78l-177 -253l197 -268h-79l-173 236h-70v-236h-70v236h-68l-174 -236h-79z" />
    <glyph glyph-name="uni0437" unicode="&#x437;" horiz-adv-x="460" 
d="M226 -6q-72 0 -123 27.5t-78 77.5l56 25q19 -35 55 -54.5t87 -19.5q61 0 97.5 28t36.5 75q0 43 -29 69t-80 27h-53v47h57q22 0 40 12t28 32t10 45q0 39 -27.5 63t-80.5 24q-44 0 -73.5 -17.5t-47.5 -51.5l-52 28q23 46 68.5 72t106.5 26q50 0 87.5 -16.5t59 -47
t21.5 -73.5q0 -37 -18 -68.5t-50 -47.5q46 -14 71.5 -49t25.5 -82t-25 -81t-69 -52t-101 -18z" />
    <glyph glyph-name="uni0438" unicode="&#x438;" horiz-adv-x="594" 
d="M74 0v520h68v-428l317 429h61v-521h-68v421l-312 -421h-66z" />
    <glyph glyph-name="uni0439" unicode="&#x439;" horiz-adv-x="594" 
d="M74 0v520h68v-428l317 429h61v-521h-68v421l-312 -421h-66zM298 587q-68 0 -105 32t-37 81h50q0 -30 22.5 -50t69.5 -20q46 0 67.5 19t24.5 51h49q0 -49 -37 -81t-104 -32z" />
    <glyph glyph-name="uni043A" unicode="&#x43a;" horiz-adv-x="520" 
d="M74 0v521h68v-223h78l175 223h78l-199 -253l224 -268h-80l-198 235h-78v-235h-68z" />
    <glyph glyph-name="uni043B" unicode="&#x43b;" horiz-adv-x="569" 
d="M25 -3v62q27 0 48 14.5t37.5 49.5t26.5 96.5t13 156.5l6 145h338v-521h-68v460h-210l-2 -90q-4 -108 -17 -180.5t-36.5 -114.5t-57.5 -60t-78 -18z" />
    <glyph glyph-name="uni043C" unicode="&#x43c;" horiz-adv-x="701" 
d="M74 0v521h70l207 -359l208 359h67v-521h-65v419l-188 -326h-44l-190 326v-419h-65z" />
    <glyph glyph-name="uni043D" unicode="&#x43d;" horiz-adv-x="583" 
d="M74 0v521h68v-224h298v224h68v-521h-68v236h-298v-236h-68z" />
    <glyph glyph-name="uni043E" unicode="&#x43e;" horiz-adv-x="595" 
d="M297 -10q-56 0 -103.5 21.5t-82 59t-53.5 86t-19 102.5q0 56 19 104.5t54 86t82.5 59t103.5 21.5t103 -21.5t82 -59t54 -86t19 -104.5q0 -54 -19 -102.5t-53.5 -86t-82 -59t-104.5 -21.5zM108 258q0 -58 25.5 -105.5t68.5 -75t95 -27.5t95 28t69 76.5t26 105.5
q0 58 -26 106t-69 76t-95 28t-94.5 -29t-68.5 -76.5t-26 -106.5z" />
    <glyph glyph-name="uni043F" unicode="&#x43f;" horiz-adv-x="568" 
d="M74 0v521h419v-521h-68v460h-283v-460h-68z" />
    <glyph glyph-name="uni0440" unicode="&#x440;" horiz-adv-x="617" 
d="M341 -10q-65 0 -116.5 34t-81.5 84v-321h-68v734h61v-101q31 49 83 79.5t111 30.5q54 0 99 -22.5t78 -60.5t51.5 -86.5t18.5 -100.5q0 -73 -29.5 -134.5t-82.5 -98.5t-124 -37zM322 50q43 0 77 17.5t58.5 47.5t37.5 67.5t13 77.5q0 42 -14.5 80t-41.5 67t-62 46t-76 17
q-26 0 -54 -10t-53.5 -28.5t-42.5 -41.5t-21 -49v-160q16 -37 43 -66.5t62.5 -47t73.5 -17.5z" />
    <glyph glyph-name="uni0441" unicode="&#x441;" horiz-adv-x="549" 
d="M301 -10q-57 0 -104.5 21.5t-83 59.5t-55 87t-19.5 104q0 74 33 135t92 97t136 36q73 0 129 -33.5t83 -90.5l-66 -21q-22 40 -61.5 62.5t-87.5 22.5q-52 0 -95 -27t-68.5 -74t-25.5 -107q0 -59 26 -107t69 -76.5t95 -28.5q34 0 65.5 12t55 32.5t31.5 44.5l67 -20
q-14 -37 -46.5 -66.5t-76 -46t-93.5 -16.5z" />
    <glyph glyph-name="uni0442" unicode="&#x442;" horiz-adv-x="477" 
d="M205 0v460h-186v61h440v-61h-186v-460h-68z" />
    <glyph glyph-name="uni0443" unicode="&#x443;" horiz-adv-x="542" 
d="M132 -218q-17 0 -34.5 5.5t-35.5 15.5l25 48q11 -6 20.5 -10t20.5 -4q26 0 49 26t44 76l26 65l-232 517h72l191 -451l176 451h68l-248 -603q-20 -47 -42 -77t-47 -44.5t-53 -14.5z" />
    <glyph glyph-name="uni0444" unicode="&#x444;" horiz-adv-x="698" 
d="M315 -213v213h-23q-77 0 -134 36t-88 94.5t-31 128.5q0 71 31.5 130t88.5 95t133 36h23v210h68v-210h23q76 0 133 -36t88.5 -95t31.5 -130q0 -70 -31 -128.5t-88 -94.5t-134 -36h-23v-213h-68zM292 57h25v406h-25q-54 0 -96 -27.5t-66 -74t-24 -103.5q0 -56 23.5 -102
t65.5 -72.5t97 -26.5zM380 57h26q55 0 97 26.5t65.5 72.5t23.5 102q0 57 -24 103.5t-65.5 74t-96.5 27.5h-26v-406z" />
    <glyph glyph-name="uni0445" unicode="&#x445;" horiz-adv-x="504" 
d="M91 521l153 -204l8 -15l8 15l152 204h77l-198 -262l198 -259h-77l-152 203l-8 14l-8 -14l-152 -203h-77l197 259l-197 262h76z" />
    <glyph glyph-name="uni0446" unicode="&#x446;" horiz-adv-x="579" 
d="M490 -121v121h-416v521h68v-461h270v461h68v-461h71v-181h-61z" />
    <glyph glyph-name="uni0447" unicode="&#x447;" horiz-adv-x="516" 
d="M373 0v218q-32 -15 -67 -22.5t-75 -7.5q-86 0 -129.5 44t-43.5 135v154h68v-145q0 -70 28.5 -102t91.5 -32q35 0 70 8t57 21v250h68v-521h-68z" />
    <glyph glyph-name="uni0448" unicode="&#x448;" horiz-adv-x="798" 
d="M74 0v521h68v-461h223v461h69v-461h222v461h68v-521h-650z" />
    <glyph glyph-name="uni0449" unicode="&#x449;" horiz-adv-x="823" 
d="M734 -121v121h-660v521h68v-460h223v460h69v-460h222v460h68v-460h71v-182h-61z" />
    <glyph glyph-name="uni044A" unicode="&#x44a;" horiz-adv-x="589" 
d="M175 0v464h-158v57h226v-184h136q89 0 134 -45.5t45 -119.5q0 -48 -20 -87t-58.5 -62t-96.5 -23h-208zM243 54h131q41 0 66 16.5t37 43t12 57.5q0 30 -10.5 55.5t-36 41t-70.5 15.5h-129v-229z" />
    <glyph glyph-name="uni044B" unicode="&#x44b;" horiz-adv-x="678" 
d="M74 0v521h68v-184h118q89 0 134.5 -45.5t45.5 -119.5q0 -48 -20 -87t-58.5 -62t-96.5 -23h-191zM142 54h114q41 0 66 16.5t37 43t12 57.5q0 30 -10.5 55.5t-36 41t-70.5 15.5h-112v-229zM535 0v520h68v-520h-68z" />
    <glyph glyph-name="uni044C" unicode="&#x44c;" horiz-adv-x="488" 
d="M74 0v521h68v-184h135q89 0 134.5 -45.5t45.5 -119.5q0 -48 -20 -87t-58.5 -62t-96.5 -23h-208zM142 54h131q41 0 66 16.5t37 43t12 57.5q0 30 -10.5 55.5t-36 41t-70.5 15.5h-129v-229z" />
    <glyph glyph-name="uni044D" unicode="&#x44d;" horiz-adv-x="557" 
d="M260 -9q-46 0 -89.5 14.5t-78.5 42.5t-54 68l55 25q26 -48 70.5 -71t91.5 -23q53 0 95 26.5t69 71t30 96.5h-243v48h242q-5 47 -29 89t-65 68.5t-98 26.5q-47 0 -87.5 -20t-67.5 -69l-53 27q28 53 81 86t128 33q63 0 111.5 -22.5t82 -61t50.5 -86.5t17 -97
q0 -51 -18 -99.5t-52 -87.5t-81.5 -62t-106.5 -23z" />
    <glyph glyph-name="uni044E" unicode="&#x44e;" horiz-adv-x="778" 
d="M488 -10q-68 0 -120.5 31t-84 85.5t-36.5 123.5h-104v-230h-68v521h68v-231h104q6 72 38 126t84.5 84t118.5 30q77 0 133 -36t87 -97t31 -138q0 -79 -31.5 -139.5t-88 -95t-131.5 -34.5zM488 50q54 0 95 27t63.5 74t22.5 108q0 65 -23.5 112t-64.5 73t-93 26
q-51 0 -91 -26.5t-62 -74t-22 -110.5t22.5 -110.5t62.5 -73t90 -25.5z" />
    <glyph glyph-name="uni044F" unicode="&#x44f;" horiz-adv-x="518" 
d="M36 0l155 213q-53 8 -85.5 46.5t-32.5 105.5q0 45 21 80t59.5 56t90.5 21h199v-522h-68v202h-116l-147 -202h-76zM243 254h132v214h-120q-52 0 -83 -29.5t-31 -74.5q0 -46 25.5 -78t76.5 -32z" />
    <glyph glyph-name="uni0450" unicode="&#x450;" horiz-adv-x="587" 
d="M300 -10q-56 0 -104 21.5t-83 59t-54.5 86.5t-19.5 105q0 73 33.5 134t92.5 97.5t134 36.5q77 0 134.5 -37t90.5 -97.5t33 -132.5v-15.5t-1 -11.5h-446q5 -56 31.5 -99.5t69 -69t92.5 -25.5q51 0 96.5 26t63.5 68l59 -16q-16 -37 -49 -67t-77.5 -46.5t-95.5 -16.5z
M108 285h385q-4 57 -30.5 100t-69 67.5t-93.5 24.5t-93 -24.5t-68.5 -68t-30.5 -99.5zM204 731h71l60 -93l-44 -17z" />
    <glyph glyph-name="uni0451" unicode="&#x451;" horiz-adv-x="587" 
d="M300 -10q-56 0 -104 21.5t-83 59t-54.5 86.5t-19.5 105q0 73 33.5 134t92.5 97.5t134 36.5q77 0 134.5 -37t90.5 -97.5t33 -132.5v-15.5t-1 -11.5h-446q5 -56 31.5 -99.5t69 -69t92.5 -25.5q51 0 96.5 26t63.5 68l59 -16q-16 -37 -49 -67t-77.5 -46.5t-95.5 -16.5z
M108 285h385q-4 57 -30.5 100t-69 67.5t-93.5 24.5t-93 -24.5t-68.5 -68t-30.5 -99.5zM193 634v94h58v-94h-58zM342 634v94h58v-94h-58z" />
    <glyph glyph-name="uni0452" unicode="&#x452;" horiz-adv-x="569" 
d="M322 -185q-24 0 -43.5 5t-35 12t-26.5 15t-18 16l48 35q13 -11 33.5 -18t37.5 -7q39 0 66.5 19.5t45 55t26.5 83.5t9 104q1 74 -13.5 123.5t-48 75.5t-89.5 26q-64 0 -105.5 -32.5t-63.5 -88.5v-239h-68v521h-75v46h75v163h68v-163h234v-46h-234v-203q33 51 79 77.5
t106 26.5q65 0 110.5 -31t69.5 -90.5t24 -146.5q0 -70 -13 -131.5t-39.5 -108t-66 -73t-93.5 -26.5z" />
    <glyph glyph-name="uni0453" unicode="&#x453;" horiz-adv-x="405" 
d="M74 0v521h311v-61h-243v-460h-68zM275 620l-45 17l59 93h72z" />
    <glyph glyph-name="uni0454" unicode="&#x454;" horiz-adv-x="558" 
d="M299 -9q-59 0 -107 23t-82 62t-52.5 87.5t-18.5 99.5q0 49 17 97t50.5 86.5t82.5 61t112 22.5q75 0 128 -33t80 -86l-52 -27q-27 48 -67.5 68.5t-87.5 20.5q-57 0 -98.5 -26.5t-65.5 -68.5t-29 -89h243v-48h-243q4 -52 30 -96.5t68.5 -71t95.5 -26.5q46 0 90.5 23
t71.5 71l55 -25q-30 -60 -91 -92.5t-130 -32.5z" />
    <glyph glyph-name="uni0455" unicode="&#x455;" horiz-adv-x="483" 
d="M246 -10q-64 0 -119 21t-95 64l28 48q44 -41 88.5 -59.5t94.5 -18.5q61 0 99 24.5t38 70.5q0 31 -18.5 47.5t-53 27t-82.5 22.5q-54 15 -90.5 31.5t-55 42t-18.5 66.5q0 51 25.5 84.5t70 51t99.5 17.5q60 0 106 -19t75 -53l-33 -46q-28 32 -66.5 47.5t-85.5 15.5
q-32 0 -61 -8.5t-47.5 -28t-18.5 -53.5q0 -28 14 -43.5t42 -26t69 -22.5q59 -16 103 -32.5t68 -42.5t24 -73q0 -73 -55 -114t-145 -41z" />
    <glyph glyph-name="uni0456" unicode="&#x456;" horiz-adv-x="218" 
d="M75 0v521h68v-521h-68zM75 630v100h68v-100h-68z" />
    <glyph glyph-name="uni0457" unicode="&#x457;" horiz-adv-x="218" 
d="M75 0v521h68v-521h-68zM5 634v94h58v-94h-58zM154 634v94h58v-94h-58z" />
    <glyph glyph-name="uni0458" unicode="&#x458;" horiz-adv-x="225" 
d="M-3 -181q-33 0 -62.5 9t-51.5 30l33 46q15 -14 34.5 -19t38.5 -5q24 0 45 12t34.5 33.5t13.5 47.5v548h68v-544q0 -46 -22 -82t-57 -56t-74 -20zM82 630v100h68v-100h-68z" />
    <glyph glyph-name="uni0459" unicode="&#x459;" horiz-adv-x="802" 
d="M25 -3v62q27 0 48 14.5t37.5 49.5t26.5 96.5t13 156.5l6 145h323v-207h112q89 0 134.5 -42.5t45.5 -110.5q0 -45 -20 -82t-59 -58t-96 -21h-185v460h-195l-2 -90q-4 -108 -17 -180.5t-36.5 -114.5t-57.5 -60t-78 -18zM479 54h107q41 0 66 15t37 39t12 52q0 27 -10.5 49.5
t-35.5 37t-70 14.5h-106v-207z" />
    <glyph glyph-name="uni045A" unicode="&#x45a;" horiz-adv-x="811" 
d="M74 0v521h68v-214h267v214h68v-207h123q90 0 135 -42.5t45 -110.5q0 -45 -19.5 -82t-58 -58t-97.5 -21h-196v247h-267v-247h-68zM477 54h119q41 0 66.5 15t37 39t11.5 52q0 27 -11 49.5t-36 37t-70 14.5h-117v-207z" />
    <glyph glyph-name="uni045B" unicode="&#x45b;" horiz-adv-x="585" 
d="M77 0v562h-75v45h75v123h68v-123h234v-45h-234v-203q31 50 80 77t113 27q96 0 137 -52t41 -151v-260h-68v245q0 78 -29.5 117t-100.5 39q-64 0 -107.5 -31.5t-65.5 -89.5v-280h-68z" />
    <glyph glyph-name="uni045C" unicode="&#x45c;" horiz-adv-x="520" 
d="M74 0v521h68v-223h78l175 223h78l-199 -253l224 -268h-80l-198 235h-78v-235h-68zM285 620l-45 17l59 93h72z" />
    <glyph glyph-name="uni045D" unicode="&#x45d;" horiz-adv-x="594" 
d="M74 0v520h68v-428l317 429h61v-521h-68v421l-312 -421h-66zM205 731h71l60 -93l-44 -17z" />
    <glyph glyph-name="uni045E" unicode="&#x45e;" horiz-adv-x="542" 
d="M132 -218q-17 0 -34.5 5.5t-35.5 15.5l25 48q11 -6 20.5 -10t20.5 -4q26 0 49 26t44 76l26 65l-232 517h72l191 -451l176 451h68l-248 -603q-20 -47 -42 -77t-47 -44.5t-53 -14.5zM271 587q-68 0 -105 32t-37 81h50q0 -30 22.5 -50t69.5 -20q46 0 67.5 19t24.5 51h49
q0 -49 -37 -81t-104 -32z" />
    <glyph glyph-name="uni045F" unicode="&#x45f;" horiz-adv-x="565" 
d="M252 -121v121h-178v521h68v-461h280v461h68v-521h-178v-121h-60z" />
    <glyph glyph-name="uni0462" unicode="&#x462;" horiz-adv-x="643" 
d="M7 554v55h380v-55h-380zM122 0v710h69v-276h180q78 0 129 -27t76.5 -76t25.5 -114q0 -59 -25.5 -109t-75.5 -79t-125 -29h-254zM191 59h177q58 0 94 22.5t52.5 59t16.5 76.5q0 42 -14.5 78t-50.5 58t-100 22h-175v-316z" />
    <glyph glyph-name="uni0463" unicode="&#x463;" horiz-adv-x="515" 
d="M102 0v518h-123v46h123v166h68v-166h193v-46h-193v-181h134q90 0 135 -45.5t45 -119.5q0 -48 -19.5 -87t-58 -62t-97.5 -23h-207zM170 54h131q41 0 66 16.5t37 43t12 57.5q0 30 -11 55.5t-36 41t-70 15.5h-129v-229z" />
    <glyph glyph-name="uni046A" unicode="&#x46a;" horiz-adv-x="981" 
d="M26 0l276 364l-259 346h895l-260 -346l277 -364h-79l-252 328h-99v-328h-69v328h-99l-251 -328h-80zM359 391h263l204 273h-671z" />
    <glyph glyph-name="uni046B" unicode="&#x46b;" horiz-adv-x="787" 
d="M38 0l204 268l-182 253h668l-183 -253l204 -268h-82l-178 236h-60v-236h-70v236h-59l-179 -236h-83zM304 291h181l133 190h-450z" />
    <glyph glyph-name="uni0472" unicode="&#x472;" horiz-adv-x="759" 
d="M87 335v53h595v-53h-595zM375 -5q-75 0 -136 30t-105 81.5t-68 116t-24 132.5q0 71 25 135.5t70.5 115t106.5 80t132 29.5q75 0 135.5 -31t104.5 -83t68 -116t24 -131q0 -71 -25 -135.5t-70 -115t-106 -79.5t-132 -29zM112 355q0 -58 19 -111.5t54 -95t83.5 -66
t107.5 -24.5q60 0 108.5 25.5t83 68t52.5 95.5t18 108q0 58 -19 111t-54.5 95t-83.5 66t-106 24q-60 0 -108.5 -25t-83 -67.5t-53 -95.5t-18.5 -108z" />
    <glyph glyph-name="uni0473" unicode="&#x473;" horiz-adv-x="594" 
d="M80 248v35h450v-35h-450zM297 -10q-56 0 -103.5 21.5t-82 59t-53.5 86t-19 102.5q0 56 19 104.5t54 86t82.5 59t103.5 21.5t103 -21.5t82 -59t54 -86t19 -104.5q0 -54 -19 -102.5t-53.5 -86t-82 -59t-104.5 -21.5zM108 258q0 -58 25.5 -105.5t68.5 -75t95 -27.5t95 28
t69 76.5t26 105.5q0 58 -26 106t-69 76t-95 28t-94.5 -29t-68.5 -76.5t-26 -106.5z" />
    <glyph glyph-name="uni0474" unicode="&#x474;" horiz-adv-x="729" 
d="M309 0l-296 710h73l254 -620l213 514q22 56 49.5 81t81.5 25h41v-60h-32q-33 0 -50 -17t-33 -53l-243 -580h-58z" />
    <glyph glyph-name="uni0475" unicode="&#x475;" horiz-adv-x="553" 
d="M225 0l-206 521h69l173 -455l138 355q17 52 44.5 76t78.5 24h37v-54h-26q-32 0 -48.5 -15.5t-29.5 -53.5l-159 -398h-71z" />
    <glyph glyph-name="uni048A" unicode="&#x48a;" horiz-adv-x="760" 
d="M93 0v710h69v-614l440 614h65v-710h-69v603l-435 -603h-70zM381 770q-49 0 -82.5 14.5t-50.5 40t-18 55.5h55q1 -26 21.5 -47t74.5 -21q52 0 73 19.5t22 48.5h55q-1 -30 -18 -55.5t-49.5 -40t-82.5 -14.5zM607 -148l62 179l38 -31h-109v62h143l-73 -210h-61z" />
    <glyph glyph-name="uni048B" unicode="&#x48b;" horiz-adv-x="594" 
d="M74 0v520h68v-428l317 429h61v-521h-68v421l-312 -421h-66zM298 587q-68 0 -105 32t-37 81h50q0 -30 22.5 -50t69.5 -20q46 0 67.5 19t24.5 51h49q0 -49 -37 -81t-104 -32zM461 -148l62 179l38 -31h-109v60h142l-72 -208h-61z" />
    <glyph glyph-name="uni048C" unicode="&#x48c;" horiz-adv-x="635" 
d="M18 580v45h327v-45h-327zM114 0v710h69v-276h181q77 0 128 -27t76.5 -76t25.5 -114q0 -59 -25 -109t-75.5 -79t-124.5 -29h-255zM183 59h177q59 0 95 22.5t52 59t16 76.5q0 42 -14.5 78t-50.5 58t-99 22h-176v-316z" />
    <glyph glyph-name="uni048D" unicode="&#x48d;" horiz-adv-x="545" 
d="M131 0v730h68v-393h135q89 0 134.5 -45.5t45.5 -119.5q0 -48 -20 -87t-58.5 -62t-96.5 -23h-208zM199 54h131q41 0 66 16.5t37 43t12 57.5q0 30 -11 55.5t-36 41t-70 15.5h-129v-229zM25 467v54h345v-54h-345z" />
    <glyph glyph-name="uni048E" unicode="&#x48e;" horiz-adv-x="616" 
d="M83 0v710h294q46 0 84.5 -19t66.5 -51.5t44 -72t16 -80.5q0 -58 -26 -109.5t-71.5 -83.5t-107.5 -32h-231v-262h-69zM152 324h228q42 0 72.5 23t47.5 60t17 80q0 44 -19.5 81t-52 58.5t-72.5 21.5h-221v-324zM356 420l36 28l175 -223l-36 -29z" />
    <glyph glyph-name="uni048F" unicode="&#x48f;" horiz-adv-x="609" 
d="M334 -10q-66 0 -117.5 34t-81.5 84v-321h-68v734h61v-101q32 49 83.5 79.5t110.5 30.5q54 0 99 -22.5t78.5 -60.5t52 -86.5t18.5 -100.5q0 -55 -17 -104t-48.5 -86.5t-75 -58.5t-95.5 -21zM315 50q42 0 76 17.5t58.5 47.5t37.5 67.5t13 77.5q0 42 -14.5 80t-41.5 67
t-62 46t-76 17q-26 0 -54 -10t-53.5 -28.5t-42.5 -41.5t-21 -49v-160q16 -37 43 -66.5t62.5 -47t74.5 -17.5zM356 144l33 30l163 -176l-34 -31z" />
    <glyph glyph-name="uni0490" unicode="&#x490;" horiz-adv-x="516" 
d="M89 0v710h341v143h62v-205h-333v-648h-70z" />
    <glyph glyph-name="uni0491" unicode="&#x491;" horiz-adv-x="405" 
d="M74 0v521h249v121h62v-182h-243v-460h-68z" />
    <glyph glyph-name="uni0492" unicode="&#x492;" horiz-adv-x="535" 
d="M1 316v49h374v-49h-374zM108 0v710h403v-62h-333v-648h-70z" />
    <glyph glyph-name="uni0493" unicode="&#x493;" horiz-adv-x="420" 
d="M-2 240v46h313v-46h-313zM88 0v521h311v-61h-243v-460h-68z" />
    <glyph glyph-name="uni0494" unicode="&#x494;" horiz-adv-x="634" 
d="M366 -119q-42 0 -85 11l15 58q16 -4 32.5 -6.5t32.5 -2.5q71 0 112.5 47t41.5 144t-44.5 148.5t-130.5 51.5q-46 0 -90.5 -13t-90.5 -39v62q46 25 95 37t96 12q113 0 173 -68t60 -191q0 -127 -58.5 -189t-158.5 -62zM89 0v710h403v-62h-333v-648h-70z" />
    <glyph glyph-name="uni0495" unicode="&#x495;" horiz-adv-x="501" 
d="M276 -184q-30 0 -57.5 7.5t-48.5 24.5l33 46q14 -10 31 -14t34 -4q75 0 107 49t32 133q1 67 -16.5 107.5t-48.5 58.5t-72 18q-38 0 -69.5 -10t-66.5 -30v58q37 20 73 31.5t80 11.5q56 0 98.5 -25t66.5 -76t24 -130q0 -78 -22.5 -136t-67 -89t-110.5 -31zM74 0v521h311
v-61h-243v-460h-68z" />
    <glyph glyph-name="uni0496" unicode="&#x496;" horiz-adv-x="980" 
d="M910 -135v135h-47v62h110v-197h-63zM26 0l276 366l-259 344h82l236 -316h97v316h69v-316h96l237 316h82l-260 -344l276 -366h-81l-252 330h-98v-330h-69v330h-99l-252 -330h-81z" />
    <glyph glyph-name="uni0497" unicode="&#x497;" horiz-adv-x="798" 
d="M719 -121v121h-44v60h105v-181h-61zM38 0l195 268l-176 253h77l157 -225h68v225h70v-225h70l154 225h78l-177 -253l197 -268h-79l-173 236h-70v-236h-70v236h-68l-174 -236h-79z" />
    <glyph glyph-name="uni0498" unicode="&#x498;" horiz-adv-x="545" 
d="M240 -139v175l60 8v-183h-60zM267 -9q-73 0 -131 31.5t-91 87.5l54 33q25 -44 68 -68t99 -24q76 0 120.5 39.5t44.5 105.5q0 42 -18.5 74.5t-52.5 50.5t-82 18h-68v56h69q37 0 65 17.5t44 46.5t16 65q0 39 -17.5 68t-49 46t-73.5 17q-51 0 -90 -23t-62 -64l-51 34
q31 55 82.5 86t123.5 31q61 0 106.5 -23.5t72 -65t26.5 -97.5q0 -54 -26.5 -97.5t-76.5 -65.5q63 -17 97.5 -66t34.5 -114q0 -62 -30 -106.5t-82.5 -68.5t-121.5 -24z" />
    <glyph glyph-name="uni0499" unicode="&#x499;" horiz-adv-x="460" 
d="M226 -6q-72 0 -123 27.5t-78 77.5l56 25q19 -35 55 -54.5t87 -19.5q61 0 97.5 28t36.5 75q0 43 -29 69t-80 27h-53v47h57q22 0 40 12t28 32t10 45q0 39 -27.5 63t-80.5 24q-44 0 -73.5 -17.5t-47.5 -51.5l-52 28q23 46 68.5 72t106.5 26q50 0 87.5 -16.5t59 -47
t21.5 -73.5q0 -37 -18 -68.5t-50 -47.5q46 -14 71.5 -49t25.5 -82t-25 -81t-69 -52t-101 -18zM217 -180q-25 0 -55.5 7t-58.5 21l20 39q21 -10 40 -16t43 -6q33 0 51 12.5t18 38.5t-18 45.5t-52 38.5l29 19q39 -24 63 -49.5t24 -64.5q0 -40 -28 -62.5t-76 -22.5z" />
    <glyph glyph-name="uni049A" unicode="&#x49a;" horiz-adv-x="642" 
d="M573 -135v135h-47v62h109v-197h-62zM89 0v710h70v-316h107l244 316h81l-267 -344l284 -366h-86l-254 330h-109v-330h-70z" />
    <glyph glyph-name="uni049B" unicode="&#x49b;" horiz-adv-x="537" 
d="M459 -121v121h-42v60h103v-181h-61zM74 0v521h68v-223h78l175 223h78l-199 -253l224 -268h-80l-198 235h-78v-235h-68z" />
    <glyph glyph-name="uni049C" unicode="&#x49c;" horiz-adv-x="619" 
d="M89 0v710h69v-319h156l214 319h74l-229 -344l245 -366h-78l-224 333h-158v-333h-69zM286 198h-36v318h36v-318z" />
    <glyph glyph-name="uni049D" unicode="&#x49d;" horiz-adv-x="546" 
d="M75 0v521h67v-226h128l154 226h75l-173 -253l199 -268h-77l-178 237h-128v-237h-67zM246 132h-36v265h36v-265z" />
    <glyph glyph-name="uni049E" unicode="&#x49e;" horiz-adv-x="645" 
d="M18 580v45h240v-45h-240zM100 0v710h69v-316h108l244 316h81l-267 -344l283 -366h-85l-254 330h-110v-330h-69z" />
    <glyph glyph-name="uni049F" unicode="&#x49f;" horiz-adv-x="478" 
d="M67 0v730h68v-432h64l174 223h78l-199 -253l224 -268h-80l-197 235h-64v-235h-68zM-7 580v45h290v-45h-290z" />
    <glyph glyph-name="uni04A0" unicode="&#x4a0;" horiz-adv-x="712" 
d="M3 650v60h190v-60h-190zM193 0v710h69v-316h108l244 316h80l-266 -344l283 -366h-85l-254 330h-110v-330h-69z" />
    <glyph glyph-name="uni04A1" unicode="&#x4a1;" horiz-adv-x="579" 
d="M3 464v57h158v-57h-158zM161 0v521h68v-223h78l174 223h79l-199 -253l224 -268h-80l-198 235h-78v-235h-68z" />
    <glyph glyph-name="uni04A2" unicode="&#x4a2;" horiz-adv-x="792" 
d="M649 710v-710h-69v332h-421v-332h-70v710h70v-316h421v316h69zM689 -135v135h-93v62h156v-197h-63z" />
    <glyph glyph-name="uni04A3" unicode="&#x4a3;" horiz-adv-x="610" 
d="M74 0v521h68v-224h298v224h68v-521h-68v236h-298v-236h-68zM521 -121v121h-81v60h142v-181h-61z" />
    <glyph glyph-name="uni04A4" unicode="&#x4a4;" horiz-adv-x="1005" 
d="M648 648l-69 62h402v-62h-333zM649 710v-710h-69v332h-421v-332h-70v710h70v-316h421v316h69z" />
    <glyph glyph-name="uni04A5" unicode="&#x4a5;" horiz-adv-x="771" 
d="M508 460l-68 61h311v-61h-243zM74 0v521h68v-224h298v224h68v-521h-68v236h-298v-236h-68z" />
    <glyph glyph-name="uni04A6" unicode="&#x4a6;" horiz-adv-x="1080" 
d="M89 0v710h516v-710h-70v648h-376v-648h-70zM812 -119q-42 0 -85 11l17 58q15 -4 31.5 -6.5t31.5 -2.5q72 0 113 47t41 144t-44 148.5t-131 51.5q-45 0 -90 -13t-91 -39v62q46 25 95 37t96 12q76 0 127.5 -30.5t78.5 -88.5t27 -140q0 -127 -58.5 -189t-158.5 -62z" />
    <glyph glyph-name="uni04A7" unicode="&#x4a7;" horiz-adv-x="860" 
d="M635 -184q-30 0 -57.5 7.5t-48.5 24.5l33 46q14 -10 31 -14t34 -4q75 0 107 52.5t32 143.5q1 68 -16.5 108t-48.5 58t-72 18q-32 0 -66.5 -9.5t-69.5 -29.5v-217h-68v460h-283v-460h-68v521h419v-246q37 20 76 31t77 11q56 0 98.5 -25t66.5 -76t24 -129q0 -83 -22.5 -144
t-67 -94t-110.5 -33z" />
    <glyph glyph-name="uni04A8" unicode="&#x4a8;" horiz-adv-x="1107" 
d="M1065 92q-53 -46 -114.5 -72t-132.5 -26q-48 0 -94.5 7.5t-83.5 21.5q-46 -16 -92 -24t-92 -8q-86 0 -159.5 26t-128.5 75.5t-85.5 120.5t-30.5 161q0 68 23 129t64 108.5t97.5 74.5t122.5 28l-13 -62q-65 -3 -116.5 -39.5t-80 -98t-28.5 -139.5q0 -100 43 -173
t120.5 -112.5t180.5 -39.5q23 0 43.5 3t40.5 8q-55 29 -95.5 76t-62.5 108.5t-22 132.5q0 97 40.5 172.5t112 118t165.5 42.5q71 0 128.5 -25t98.5 -70t63 -105t22 -131q0 -72 -28 -136t-83 -113t-137 -79q18 -2 35 -3.5t32 -1.5q72 0 124.5 25t93.5 58zM437 379
q0 -77 26 -139.5t74 -104.5t112 -60q79 12 143 51.5t102.5 104.5t38.5 150q0 91 -33.5 151t-89.5 89.5t-123 29.5q-75 0 -131 -35t-87.5 -96t-31.5 -141z" />
    <glyph glyph-name="uni04A9" unicode="&#x4a9;" horiz-adv-x="819" 
d="M793 40q-33 -23 -79.5 -36t-95.5 -13q-32 0 -61 5.5t-53 16.5q-32 -12 -64 -17t-65 -5q-96 0 -166.5 36.5t-110 101t-39.5 146.5q0 51 18 97.5t49.5 82t73 56t88.5 20.5l-10 -54q-43 0 -76.5 -27t-53.5 -72.5t-20 -101.5q0 -64 29.5 -116.5t83.5 -83.5t128 -31
q9 0 18.5 0.5t19.5 1.5q-63 33 -97.5 93.5t-34.5 137.5q0 74 32 130.5t89 89t132 32.5q74 0 128.5 -31.5t84.5 -85.5t30 -123q0 -85 -46.5 -151t-136.5 -102q9 -1 18.5 -1.5t18.5 -0.5q47 0 82 14t67 35zM528 470q-55 0 -97 -24t-65 -67.5t-23 -99.5q0 -49 19 -94.5
t56 -78.5t88 -47q56 12 100.5 43.5t70.5 79t26 103.5q0 63 -24 104t-63.5 61t-87.5 20z" />
    <glyph glyph-name="uni04AA" unicode="&#x4aa;" horiz-adv-x="686" 
d="M348 -139v134q-68 6 -124 39.5t-97 85t-63 113.5t-22 127t22.5 127.5t65.5 114t106 82t143 30.5q95 0 162.5 -43.5t99.5 -111.5l-55 -34q-23 47 -58 74.5t-74.5 39.5t-78.5 12q-64 0 -113 -25.5t-82.5 -68t-50.5 -95t-17 -106.5q0 -59 20 -113t56 -95.5t84.5 -66
t105.5 -24.5q40 0 82 14t78.5 43t58.5 75l58 -30q-20 -48 -59.5 -82.5t-89 -54.5t-99.5 -26v-135h-59z" />
    <glyph glyph-name="uni04AB" unicode="&#x4ab;" horiz-adv-x="549" 
d="M269 -121v113q-67 8 -119 46t-81.5 97t-29.5 127q0 74 33 135t92 97t136 36q73 0 129 -33.5t83 -90.5l-66 -21q-22 40 -61.5 62.5t-87.5 22.5q-52 0 -95 -27t-68.5 -74t-25.5 -107q0 -59 26 -107t69 -76.5t95 -28.5q34 0 65.5 12t55 32.5t31.5 44.5l67 -20
q-12 -33 -40 -60.5t-66 -45t-83 -22.5v-112h-59z" />
    <glyph glyph-name="uni04AC" unicode="&#x4ac;" horiz-adv-x="610" 
d="M593 648h-253v-648h-70v648h-253v62h576v-62zM382 -135v135h-93v62h156v-197h-63z" />
    <glyph glyph-name="uni04AD" unicode="&#x4ad;" horiz-adv-x="477" 
d="M205 0v460h-186v61h440v-61h-186v-460h-68zM286 -121v121h-81v60h142v-181h-61z" />
    <glyph glyph-name="Ustraitcy" unicode="&#x4ae;" horiz-adv-x="651" 
d="M93 710l232 -382l234 382h76l-275 -446v-264h-70v266l-274 444h77z" />
    <glyph glyph-name="ustraitcy" unicode="&#x4af;" horiz-adv-x="534" 
d="M233 -213v214l-214 520h71l179 -458l180 458h66l-214 -520v-214h-68z" />
    <glyph glyph-name="Ustraitstrokecy" unicode="&#x4b0;" horiz-adv-x="639" 
d="M284 0v196h-145v49h145v21l-274 444h76l232 -382l234 382h77l-276 -446v-19h146v-49h-146v-196h-69z" />
    <glyph glyph-name="ustraitstrokecy" unicode="&#x4b1;" horiz-adv-x="555" 
d="M247 -213v176h-119v37h119v1l-215 520h70l179 -463l181 463h66l-213 -520v-1h117v-37h-117v-176h-68z" />
    <glyph glyph-name="uni04B2" unicode="&#x4b2;" horiz-adv-x="703" 
d="M600 -135v135h-47v62h109v-197h-62zM97 710l232 -309l232 309h78l-271 -360l263 -350h-78l-224 299l-224 -299h-79l263 350l-271 360h79z" />
    <glyph glyph-name="uni04B3" unicode="&#x4b3;" horiz-adv-x="529" 
d="M441 -121v121h-27v60h87v-181h-60zM84 521l153 -204l8 -15l8 15l152 204h77l-198 -262l198 -259h-77l-152 203l-8 14l-8 -14l-152 -203h-77l198 259l-198 262h76z" />
    <glyph glyph-name="uni04B4" unicode="&#x4b4;" horiz-adv-x="882" 
d="M570 648h-249h-70h-234v62h553v-62zM779 -135v135h-528v710h70v-648h365v648h70v-648h85v-197h-62z" />
    <glyph glyph-name="uni04B5" unicode="&#x4b5;" horiz-adv-x="681" 
d="M199 460h-180v61h406v-61h-158h-68zM592 -121v121h-393v521h68v-461h247v461h68v-461h71v-181h-61z" />
    <glyph glyph-name="uni04B6" unicode="&#x4b6;" horiz-adv-x="707" 
d="M486 0v306q-22 -10 -51 -19t-63 -14.5t-73 -5.5q-118 0 -174 51.5t-56 163.5v228h68v-220q0 -83 40.5 -121t131.5 -38q51 0 99.5 11t77.5 27v341h68v-710h-68zM603 -135v135h-93v62h156v-197h-63z" />
    <glyph glyph-name="uni04B7" unicode="&#x4b7;" horiz-adv-x="532" 
d="M373 0v218q-32 -15 -67 -22.5t-75 -7.5q-86 0 -129.5 44t-43.5 135v154h68v-145q0 -70 28.5 -102t91.5 -32q35 0 70 8t57 21v250h68v-521h-68zM444 -121v121h-81v60h142v-181h-61z" />
    <glyph glyph-name="uni04B8" unicode="&#x4b8;" horiz-adv-x="644" 
d="M486 0v306q-22 -10 -51 -19t-63 -14.5t-73 -5.5q-118 0 -174 51.5t-56 163.5v228h68v-220q0 -83 40.5 -121t131.5 -38q51 0 99.5 11t77.5 27v341h68v-710h-68zM316 149h-36v318h36v-318z" />
    <glyph glyph-name="uni04B9" unicode="&#x4b9;" horiz-adv-x="516" 
d="M372 0v218q-32 -15 -66.5 -22.5t-74.5 -7.5q-86 0 -129.5 44t-43.5 135v154h68v-145q0 -70 28.5 -102t91.5 -32q35 0 70 8t56 21v250h69v-521h-69zM266 95h-36v265h36v-265z" />
    <glyph glyph-name="uni04BA" unicode="&#x4ba;" horiz-adv-x="644" 
d="M157 710v-306q23 11 51.5 19.5t63 14t73.5 5.5q118 0 173.5 -51.5t55.5 -163.5v-228h-67v220q0 83 -40.5 121t-131.5 38q-51 0 -99 -11t-79 -27v-341h-68v710h68z" />
    <glyph glyph-name="uni04BB" unicode="&#x4bb;" horiz-adv-x="583" 
d="M513 0h-68v291q0 88 -31 132.5t-89 44.5q-38 0 -75.5 -19.5t-66 -53t-40.5 -76.5v-319h-68v730h68v-327q31 58 86.5 92.5t118.5 34.5q45 0 76.5 -16t51 -46.5t28.5 -71t9 -91.5v-305z" />
    <glyph glyph-name="uni04BC" unicode="&#x4bc;" horiz-adv-x="867" 
d="M23 443q0 21 9 45.5t28 51.5l46 -16q-15 -19 -21 -37.5t-6 -33.5q0 -31 24.5 -48t67.5 -17h100v-61h-81q-80 0 -123.5 30.5t-43.5 85.5zM489 716q70 0 131 -27.5t107 -76.5t72 -113.5t26 -138.5q0 -10 -0.5 -19t-2.5 -14h-587q5 -57 27 -106t57.5 -85t80 -56t95.5 -20
q48 0 92 17.5t77 49.5t47 72l65 -30q-23 -50 -68 -89.5t-102 -62t-117 -22.5q-69 0 -128.5 28.5t-105 78t-71 115.5t-25.5 142q0 75 25 140t70.5 113.5t105.5 76t129 27.5zM488 653q-68 0 -124.5 -34.5t-90.5 -94t-39 -136.5h515q-4 76 -40 136t-93.5 94.5t-127.5 34.5z" />
    <glyph glyph-name="uni04BD" unicode="&#x4bd;" horiz-adv-x="664" 
d="M11 335q0 20 8.5 41.5t25.5 45.5l33 -19q-10 -17 -15 -31.5t-5 -27.5q0 -28 22 -43.5t59 -15.5h85v-49h-67q-68 0 -107 27t-39 72zM378 -10q-52 0 -97.5 21.5t-80 59t-54 86.5t-19.5 105q0 55 19.5 103.5t53.5 85t80 58t97 21.5q76 0 134 -37t91 -97.5t33 -132.5
q0 -8 -0.5 -15.5t-0.5 -11.5h-445q4 -56 31.5 -99.5t69.5 -69t90 -25.5q52 0 97.5 26t62.5 68l60 -16q-17 -37 -49.5 -67t-77 -46.5t-95.5 -16.5zM187 285h384q-4 57 -31 100t-69 67.5t-93 24.5q-49 0 -91.5 -24.5t-69 -68t-30.5 -99.5z" />
    <glyph glyph-name="uni04BE" unicode="&#x4be;" horiz-adv-x="867" 
d="M420 -135v135l62 14v-149h-62zM24 443q0 21 9 45.5t28 51.5l45 -16q-14 -19 -20 -37.5t-6 -33.5q0 -31 24 -48t68 -17h99v-61h-80q-80 0 -123.5 30.5t-43.5 85.5zM489 716q71 0 131.5 -27.5t107 -76.5t72 -113.5t25.5 -138.5q0 -10 -0.5 -19t-1.5 -14h-587q5 -57 27 -106
t57.5 -85t80 -56t94.5 -20q48 0 92 17.5t77 49.5t47 72l66 -30q-24 -50 -68.5 -89.5t-101.5 -62t-118 -22.5q-69 0 -128.5 28.5t-104.5 78t-71 115.5t-26 142q0 75 25.5 140t71 113.5t105 76t128.5 27.5zM488 653q-68 0 -124 -34.5t-90.5 -94t-39.5 -136.5h516
q-5 76 -41 136t-93.5 94.5t-127.5 34.5z" />
    <glyph glyph-name="uni04BF" unicode="&#x4bf;" horiz-adv-x="671" 
d="M337 -121v121l61 26v-147h-61zM17 335q0 20 8.5 41.5t25.5 45.5l34 -19q-11 -17 -16 -31.5t-5 -27.5q0 -28 22.5 -43.5t59.5 -15.5h85v-49h-68q-68 0 -107 27t-39 72zM384 -10q-51 0 -96.5 21.5t-80.5 59t-54.5 86.5t-19.5 105q0 55 19.5 103.5t54 85t80 58t97.5 21.5
q76 0 133.5 -37t90.5 -97.5t33 -132.5v-15.5t-1 -11.5h-445q5 -56 32 -99.5t69.5 -69t90.5 -25.5q51 0 96.5 26t63.5 68l59 -16q-16 -37 -49 -67t-77.5 -46.5t-95.5 -16.5zM193 285h384q-4 57 -30.5 100t-69 67.5t-93.5 24.5q-49 0 -91.5 -24.5t-69 -68t-30.5 -99.5z" />
    <glyph glyph-name="uni04C0" unicode="&#x4c0;" horiz-adv-x="248" 
d="M89 0v710h70v-710h-70z" />
    <glyph glyph-name="uni04C1" unicode="&#x4c1;" horiz-adv-x="985" 
d="M26 0l276 366l-259 344h82l236 -316h97v316h69v-316h96l237 316h82l-260 -344l276 -366h-81l-252 330h-98v-330h-69v330h-99l-252 -330h-81zM493 776q-68 0 -105 32t-37 81h50q0 -30 22.5 -50t69.5 -20q46 0 67.5 19t24.5 51h49q0 -49 -37 -81t-104 -32z" />
    <glyph glyph-name="uni04C2" unicode="&#x4c2;" horiz-adv-x="789" 
d="M38 0l195 268l-176 253h77l157 -225h68v225h70v-225h70l154 225h78l-177 -253l197 -268h-79l-173 236h-70v-236h-70v236h-68l-174 -236h-79zM394 587q-68 0 -105 32t-37 81h50q0 -30 22.5 -50t69.5 -20q46 0 67.5 19t24.5 51h49q0 -49 -37 -81t-104 -32z" />
    <glyph glyph-name="uni04C3" unicode="&#x4c3;" horiz-adv-x="611" 
d="M386 -212q-19 0 -39.5 3.5t-40.5 11.5l18 60q16 -6 30 -8.5t27 -2.5q36 0 62 22t40 62.5t14 96.5q0 59 -20.5 113t-56 95t-82.5 65t-99 24h-87v-330h-69v710h69v-316h71h19t17 -1l242 317h81l-255 -331q70 -22 124 -74t85 -123t31 -151q0 -73 -23.5 -127.5t-64 -85
t-93.5 -30.5z" />
    <glyph glyph-name="uni04C4" unicode="&#x4c4;" horiz-adv-x="480" 
d="M276 282q53 -17 93 -57t62.5 -96t22.5 -122q0 -60 -19 -105.5t-51.5 -70.5t-76.5 -25q-13 0 -28 3t-31 10l17 59q21 -8 36 -8q42 0 63.5 36.5t21.5 95.5q0 66 -24.5 118.5t-66.5 83.5t-94 31h-59v-235h-68v521h68v-223h50h12t11 -1l165 224h78z" />
    <glyph glyph-name="uni04C5" unicode="&#x4c5;" horiz-adv-x="727" 
d="M569 0v648h-290l-4 -150q-5 -147 -21 -244t-45 -152.5t-71 -79t-100 -23.5v62q39 0 69 20t51 70t33.5 138.5t16.5 224.5l6 196h424v-710h-69zM578 -148l62 179l38 -31h-109v62h143l-73 -210h-61z" />
    <glyph glyph-name="uni04C6" unicode="&#x4c6;" horiz-adv-x="569" 
d="M25 -3v62q27 0 48 14.5t37.5 49.5t26.5 96.5t13 156.5l6 145h338v-521h-68v460h-210l-2 -90q-4 -108 -17 -180.5t-36.5 -114.5t-57.5 -60t-78 -18zM435 -148l62 179l38 -31h-109v60h142l-72 -208h-61z" />
    <glyph glyph-name="uni04C7" unicode="&#x4c7;" horiz-adv-x="735" 
d="M649 710v-710h-69v332h-421v-332h-70v710h70v-316h421v316h69zM480 -210q-21 0 -41.5 4t-43.5 13l19 59q16 -6 30.5 -9t28.5 -3q39 0 60 21t28 59.5t7 89.5v38h70v-63q0 -63 -17.5 -110t-52.5 -73t-88 -26z" />
    <glyph glyph-name="uni04C8" unicode="&#x4c8;" horiz-adv-x="583" 
d="M74 0v521h68v-224h298v224h68v-521h-68v236h-298v-236h-68zM360 -195q-16 0 -33.5 3t-36.5 11l17 59q12 -4 22.5 -6t20.5 -2q44 0 67 37t23 110v43h68v-61q0 -97 -41.5 -145.5t-106.5 -48.5z" />
    <glyph glyph-name="uni04C9" unicode="&#x4c9;" horiz-adv-x="738" 
d="M649 710v-710h-69v332h-421v-332h-70v710h70v-316h421v316h69zM605 -148l62 179l38 -31h-109v62h143l-73 -210h-61z" />
    <glyph glyph-name="uni04CA" unicode="&#x4ca;" horiz-adv-x="583" 
d="M74 0v521h68v-224h298v224h68v-521h-68v236h-298v-236h-68zM449 -148l62 179l38 -31h-109v60h142l-72 -208h-61z" />
    <glyph glyph-name="uni04CB" unicode="&#x4cb;" horiz-adv-x="644" 
d="M486 0v306q-22 -10 -51 -19t-63 -14.5t-73 -5.5q-118 0 -174 51.5t-56 163.5v228h68v-220q0 -83 40.5 -121t131.5 -38q51 0 99.5 11t77.5 27v341h68v-710h-68zM450 -135h-63v197h140v-62h-77v-135z" />
    <glyph glyph-name="uni04CC" unicode="&#x4cc;" horiz-adv-x="511" 
d="M297 -121v158h72v189q-31 -14 -65 -22t-70 -8q-58 0 -97.5 20.5t-59 61.5t-19.5 100v143h65v-134q0 -71 29 -104t93 -33q35 0 69 8.5t55 21.5v241h67v-521h-79v-121h-60z" />
    <glyph glyph-name="uni04CD" unicode="&#x4cd;" horiz-adv-x="877" 
d="M718 0v578l-257 -449h-44l-258 449v-578h-70v710h72l277 -486l279 486h71v-710h-70zM727 -148l62 179l38 -31h-109v62h143l-73 -210h-61z" />
    <glyph glyph-name="uni04CE" unicode="&#x4ce;" horiz-adv-x="701" 
d="M74 0v521h70l207 -359l208 359h67v-521h-65v419l-188 -326h-44l-190 326v-419h-65zM570 -148l62 179l38 -31h-109v60h142l-72 -208h-61z" />
    <glyph glyph-name="uni04CF" unicode="&#x4cf;" horiz-adv-x="218" 
d="M75 0v521h68v-521h-68z" />
    <glyph glyph-name="uni04D0" unicode="&#x4d0;" horiz-adv-x="676" 
d="M309 710h59l295 -710h-74l-92 222h-319l-91 -222h-75zM481 277l-143 351l-145 -351h288zM339 776q-68 0 -105 32t-37 81h50q0 -30 22.5 -50t69.5 -20q46 0 67.5 19t24.5 51h49q0 -49 -37 -81t-104 -32z" />
    <glyph glyph-name="uni04D1" unicode="&#x4d1;" horiz-adv-x="545" 
d="M33 150q0 49 28 84.5t77.5 55t114.5 19.5q38 0 79 -6t73 -18v44q0 66 -39 105t-108 39q-42 0 -82.5 -15.5t-84.5 -45.5l-26 48q51 35 100 52.5t100 17.5q96 0 152 -55t56 -152v-241q0 -14 6 -20.5t19 -7.5v-54q-11 -1 -19 -2t-12 0q-25 1 -38 16t-14 32l-1 38
q-35 -45 -91 -69.5t-114 -24.5q-50 0 -90.5 21.5t-63 58t-22.5 80.5zM382 110q11 14 17 27t6 23v76q-34 13 -70.5 20t-73.5 7q-73 0 -118 -29t-45 -79q0 -29 15 -54.5t44 -42t68 -16.5q49 0 91.5 19t65.5 49zM273 587q-68 0 -105 32t-37 81h50q0 -30 22.5 -50t69.5 -20
q46 0 67.5 19t24.5 51h49q0 -49 -37 -81t-104 -32z" />
    <glyph glyph-name="uni04D2" unicode="&#x4d2;" horiz-adv-x="676" 
d="M309 710h59l295 -710h-74l-92 222h-319l-91 -222h-75zM481 277l-143 351l-145 -351h288zM235 823v94h58v-94h-58zM384 823v94h58v-94h-58z" />
    <glyph glyph-name="uni04D3" unicode="&#x4d3;" horiz-adv-x="545" 
d="M33 150q0 49 28 84.5t77.5 55t114.5 19.5q38 0 79 -6t73 -18v44q0 66 -39 105t-108 39q-42 0 -82.5 -15.5t-84.5 -45.5l-26 48q51 35 100 52.5t100 17.5q96 0 152 -55t56 -152v-241q0 -14 6 -20.5t19 -7.5v-54q-11 -1 -19 -2t-12 0q-25 1 -38 16t-14 32l-1 38
q-35 -45 -91 -69.5t-114 -24.5q-50 0 -90.5 21.5t-63 58t-22.5 80.5zM382 110q11 14 17 27t6 23v76q-34 13 -70.5 20t-73.5 7q-73 0 -118 -29t-45 -79q0 -29 15 -54.5t44 -42t68 -16.5q49 0 91.5 19t65.5 49zM169 634v94h58v-94h-58zM318 634v94h58v-94h-58z" />
    <glyph glyph-name="uni04D4" unicode="&#x4d4;" horiz-adv-x="961" 
d="M431 710h481v-62h-394v-255h340v-62h-340v-269h403v-62h-471v222h-259l-141 -222h-76zM445 284v342l-222 -342h222z" />
    <glyph glyph-name="uni04D5" unicode="&#x4d5;" horiz-adv-x="932" 
d="M205 -10q-49 0 -88 21.5t-61.5 58t-22.5 82.5q0 47 27.5 82t76.5 55t113 20q35 0 69.5 -5.5t64.5 -14.5q2 19 5.5 39t11.5 37q-9 53 -46.5 83.5t-97.5 30.5q-39 0 -81 -16t-86 -46l-24 45q103 68 197 68q65 0 111 -27.5t69 -76.5q32 47 84 75.5t115 28.5q76 0 134.5 -37
t92 -97.5t33.5 -135.5q0 -5 -0.5 -12.5t-0.5 -11.5h-453q5 -56 32.5 -99.5t71.5 -69t96 -25.5q51 0 96.5 26t62.5 68l60 -16q-16 -37 -49 -67t-77.5 -46.5t-95.5 -16.5q-68 0 -124 31.5t-91 83.5q-21 -41 -59 -66t-82 -37t-84 -12zM221 42q53 0 98 20t68 53q16 17 18 35
q-9 20 -14.5 46.5t-6.5 49.5q-29 10 -61 15t-64 5q-72 0 -117 -30t-45 -79q0 -32 16.5 -58.5t44.5 -41.5t63 -15zM837 282q-4 57 -30.5 101t-69 69t-96.5 25q-52 0 -95 -25t-69 -69t-29 -101h389z" />
    <glyph glyph-name="uni04D6" unicode="&#x4d6;" horiz-adv-x="609" 
d="M566 62v-62h-477v710h468v-62h-398v-256h347v-59h-347v-271h407zM337 774q-68 0 -105 32t-37 81h50q0 -30 22.5 -50t69.5 -20q46 0 67.5 19t24.5 51h49q0 -49 -37 -81t-104 -32z" />
    <glyph glyph-name="uni04D7" unicode="&#x4d7;" horiz-adv-x="587" 
d="M300 -10q-56 0 -104 21.5t-83 59t-54.5 86.5t-19.5 105q0 73 33.5 134t92.5 97.5t134 36.5q77 0 134.5 -37t90.5 -97.5t33 -132.5v-15.5t-1 -11.5h-446q5 -56 31.5 -99.5t69 -69t92.5 -25.5q51 0 96.5 26t63.5 68l59 -16q-16 -37 -49 -67t-77.5 -46.5t-95.5 -16.5z
M108 285h385q-4 57 -30.5 100t-69 67.5t-93.5 24.5t-93 -24.5t-68.5 -68t-30.5 -99.5zM297 587q-68 0 -105 32t-37 81h50q0 -30 22.5 -50t69.5 -20q46 0 67.5 19t24.5 51h49q0 -49 -37 -81t-104 -32z" />
    <glyph glyph-name="uni04D8" unicode="&#x4d8;" horiz-adv-x="737" 
d="M365 -6q-71 0 -131.5 27.5t-107 76.5t-72 113.5t-25.5 138.5q0 10 0.5 19t1.5 14h587q-5 57 -27 106t-57.5 85t-80 56t-95.5 20q-48 0 -91.5 -17.5t-76.5 -49t-47 -72.5l-66 30q24 51 68.5 90t101.5 61.5t118 22.5q68 0 128 -28.5t105 -78t71 -115.5t26 -142
q0 -75 -25.5 -140t-71 -113.5t-105 -76t-128.5 -27.5zM365 57q69 0 125 34.5t91 94t39 136.5h-516q5 -76 41 -136t93.5 -94.5t126.5 -34.5z" />
    <glyph glyph-name="uni04D9" unicode="&#x4d9;" horiz-adv-x="587" 
d="M290 -10q-75 0 -134 36.5t-92.5 98t-34.5 134.5q0 6 0.5 13t1.5 12h445q-4 56 -31 99.5t-69 68.5t-92 25q-52 0 -96.5 -26t-63.5 -67l-59 16q16 38 49 67t77.5 46t95.5 17q57 0 104.5 -21.5t82.5 -59t54.5 -87t19.5 -105.5q0 -73 -33 -134t-91 -97t-134 -36zM290 42
q52 0 92.5 25.5t66.5 69.5t29 100h-382q4 -57 31 -101t70 -69t93 -25z" />
    <glyph glyph-name="uni04DA" unicode="&#x4da;" horiz-adv-x="737" 
d="M365 -6q-71 0 -131.5 27.5t-107 76.5t-72 113.5t-25.5 138.5q0 10 0.5 19t1.5 14h587q-5 57 -27 106t-57.5 85t-80 56t-95.5 20q-48 0 -91.5 -17.5t-76.5 -49t-47 -72.5l-66 30q24 51 68.5 90t101.5 61.5t118 22.5q68 0 128 -28.5t105 -78t71 -115.5t26 -142
q0 -75 -25.5 -140t-71 -113.5t-105 -76t-128.5 -27.5zM365 57q69 0 125 34.5t91 94t39 136.5h-516q5 -76 41 -136t93.5 -94.5t126.5 -34.5zM265 823v94h58v-94h-58zM414 823v94h58v-94h-58z" />
    <glyph glyph-name="uni04DB" unicode="&#x4db;" horiz-adv-x="587" 
d="M290 -10q-75 0 -134 36.5t-92.5 98t-34.5 134.5q0 6 0.5 13t1.5 12h445q-4 56 -31 99.5t-69 68.5t-92 25q-52 0 -96.5 -26t-63.5 -67l-59 16q16 38 49 67t77.5 46t95.5 17q57 0 104.5 -21.5t82.5 -59t54.5 -87t19.5 -105.5q0 -73 -33 -134t-91 -97t-134 -36zM290 42
q52 0 92.5 25.5t66.5 69.5t29 100h-382q4 -57 31 -101t70 -69t93 -25zM190 634v94h58v-94h-58zM339 634v94h58v-94h-58z" />
    <glyph glyph-name="uni04DC" unicode="&#x4dc;" horiz-adv-x="985" 
d="M26 0l276 366l-259 344h82l236 -316h97v316h69v-316h96l237 316h82l-260 -344l276 -366h-81l-252 330h-98v-330h-69v330h-99l-252 -330h-81zM389 823v94h58v-94h-58zM538 823v94h58v-94h-58z" />
    <glyph glyph-name="uni04DD" unicode="&#x4dd;" horiz-adv-x="789" 
d="M38 0l195 268l-176 253h77l157 -225h68v225h70v-225h70l154 225h78l-177 -253l197 -268h-79l-173 236h-70v-236h-70v236h-68l-174 -236h-79zM290 634v94h58v-94h-58zM439 634v94h58v-94h-58z" />
    <glyph glyph-name="uni04DE" unicode="&#x4de;" horiz-adv-x="545" 
d="M267 -9q-73 0 -131 31.5t-91 87.5l54 33q25 -44 68 -68t99 -24q76 0 120.5 39.5t44.5 105.5q0 42 -18.5 74.5t-52.5 50.5t-82 18h-68v56h69q37 0 65 17.5t44 46.5t16 65q0 39 -17.5 68t-49 46t-73.5 17q-51 0 -90 -23t-62 -64l-51 34q31 55 82.5 86t123.5 31
q61 0 106.5 -23.5t72 -65t26.5 -97.5q0 -54 -26.5 -97.5t-76.5 -65.5q63 -17 97.5 -66t34.5 -114q0 -62 -30 -106.5t-82.5 -68.5t-121.5 -24zM177 823v94h58v-94h-58zM326 823v94h58v-94h-58z" />
    <glyph glyph-name="uni04DF" unicode="&#x4df;" horiz-adv-x="460" 
d="M226 -6q-72 0 -123 27.5t-78 77.5l56 25q19 -35 55 -54.5t87 -19.5q61 0 97.5 28t36.5 75q0 43 -29 69t-80 27h-53v47h57q22 0 40 12t28 32t10 45q0 39 -27.5 63t-80.5 24q-44 0 -73.5 -17.5t-47.5 -51.5l-52 28q23 46 68.5 72t106.5 26q50 0 87.5 -16.5t59 -47
t21.5 -73.5q0 -37 -18 -68.5t-50 -47.5q46 -14 71.5 -49t25.5 -82t-25 -81t-69 -52t-101 -18zM119 634v94h58v-94h-58zM268 634v94h58v-94h-58z" />
    <glyph glyph-name="uni04E0" unicode="&#x4e0;" horiz-adv-x="564" 
d="M269 428q67 0 115 -18t78 -48t44 -68.5t14 -79.5q0 -69 -31 -119t-85 -77t-124 -27q-77 0 -139 32t-96 87l54 33q26 -43 73 -67.5t106 -24.5q54 0 92.5 20t60 56.5t21.5 85.5q0 70 -48 114.5t-142 44.5h-69v56h76zM193 428l211 220h-325v62h406v-55l-246 -254z" />
    <glyph glyph-name="uni04E1" unicode="&#x4e1;" horiz-adv-x="455" 
d="M200 -220q-77 0 -138 33t-89 93l55 24q26 -47 70 -70t104 -23q58 0 96.5 21.5t58 60.5t19.5 88q0 80 -52 124t-152 44h-55v49l219 236h-331v61h403v-61l-219 -236h16q113 -5 172 -63.5t59 -152.5q0 -50 -17 -92.5t-48 -72.5t-74 -46.5t-97 -16.5z" />
    <glyph glyph-name="uni04E2" unicode="&#x4e2;" horiz-adv-x="760" 
d="M93 0v710h69v-614l440 614h65v-710h-69v603l-435 -603h-70zM237 852v47h289v-47h-289z" />
    <glyph glyph-name="uni04E3" unicode="&#x4e3;" horiz-adv-x="594" 
d="M74 0v520h68v-428l317 429h61v-521h-68v421l-312 -421h-66zM154 663v47h289v-47h-289z" />
    <glyph glyph-name="uni04E4" unicode="&#x4e4;" horiz-adv-x="760" 
d="M93 0v710h69v-614l440 614h65v-710h-69v603l-435 -603h-70zM277 823v94h58v-94h-58zM426 823v94h58v-94h-58z" />
    <glyph glyph-name="uni04E5" unicode="&#x4e5;" horiz-adv-x="594" 
d="M74 0v520h68v-428l317 429h61v-521h-68v421l-312 -421h-66zM194 634v94h58v-94h-58zM343 634v94h58v-94h-58z" />
    <glyph glyph-name="uni04E6" unicode="&#x4e6;" horiz-adv-x="751" 
d="M375 -5q-75 0 -136 30t-105 81.5t-68 116t-24 132.5q0 71 25 135.5t70.5 115t106.5 80t132 29.5q75 0 136 -31t104.5 -83t67.5 -116t24 -131q0 -71 -25 -135.5t-70 -115t-106 -79.5t-132 -29zM112 355q0 -58 19 -111.5t54 -95t83.5 -66t106.5 -24.5q61 0 109.5 25.5
t83 68t52.5 95.5t18 108q0 58 -19 111t-54.5 95t-83.5 66t-106 24q-60 0 -108.5 -25t-83 -67.5t-53 -95.5t-18.5 -108zM273 820v94h58v-94h-58zM422 820v94h58v-94h-58z" />
    <glyph glyph-name="uni04E7" unicode="&#x4e7;" horiz-adv-x="595" 
d="M297 -10q-56 0 -103.5 21.5t-82 59t-53.5 86t-19 102.5q0 56 19 104.5t54 86t82.5 59t103.5 21.5t103 -21.5t82 -59t54 -86t19 -104.5q0 -54 -19 -102.5t-53.5 -86t-82 -59t-104.5 -21.5zM108 258q0 -58 25.5 -105.5t68.5 -75t95 -27.5t95 28t69 76.5t26 105.5
q0 58 -26 106t-69 76t-95 28t-94.5 -29t-68.5 -76.5t-26 -106.5zM194 634v94h58v-94h-58zM343 634v94h58v-94h-58z" />
    <glyph glyph-name="uni04E8" unicode="&#x4e8;" horiz-adv-x="759" 
d="M87 335v53h595v-53h-595zM375 -5q-75 0 -136 30t-105 81.5t-68 116t-24 132.5q0 71 25 135.5t70.5 115t106.5 80t132 29.5q75 0 135.5 -31t104.5 -83t68 -116t24 -131q0 -71 -25 -135.5t-70 -115t-106 -79.5t-132 -29zM112 355q0 -58 19 -111.5t54 -95t83.5 -66
t107.5 -24.5q60 0 108.5 25.5t83 68t52.5 95.5t18 108q0 58 -19 111t-54.5 95t-83.5 66t-106 24q-60 0 -108.5 -25t-83 -67.5t-53 -95.5t-18.5 -108z" />
    <glyph glyph-name="uni04E9" unicode="&#x4e9;" horiz-adv-x="594" 
d="M80 248v35h450v-35h-450zM297 -10q-56 0 -103.5 21.5t-82 59t-53.5 86t-19 102.5q0 56 19 104.5t54 86t82.5 59t103.5 21.5t103 -21.5t82 -59t54 -86t19 -104.5q0 -54 -19 -102.5t-53.5 -86t-82 -59t-104.5 -21.5zM108 258q0 -58 25.5 -105.5t68.5 -75t95 -27.5t95 28
t69 76.5t26 105.5q0 58 -26 106t-69 76t-95 28t-94.5 -29t-68.5 -76.5t-26 -106.5z" />
    <glyph glyph-name="uni04EA" unicode="&#x4ea;" horiz-adv-x="759" 
d="M87 335v53h595v-53h-595zM375 -5q-75 0 -136 30t-105 81.5t-68 116t-24 132.5q0 71 25 135.5t70.5 115t106.5 80t132 29.5q75 0 135.5 -31t104.5 -83t68 -116t24 -131q0 -71 -25 -135.5t-70 -115t-106 -79.5t-132 -29zM112 355q0 -58 19 -111.5t54 -95t83.5 -66
t107.5 -24.5q60 0 108.5 25.5t83 68t52.5 95.5t18 108q0 58 -19 111t-54.5 95t-83.5 66t-106 24q-60 0 -108.5 -25t-83 -67.5t-53 -95.5t-18.5 -108zM273 820v94h58v-94h-58zM422 820v94h58v-94h-58z" />
    <glyph glyph-name="uni04EB" unicode="&#x4eb;" horiz-adv-x="594" 
d="M80 248v35h450v-35h-450zM297 -10q-56 0 -103.5 21.5t-82 59t-53.5 86t-19 102.5q0 56 19 104.5t54 86t82.5 59t103.5 21.5t103 -21.5t82 -59t54 -86t19 -104.5q0 -54 -19 -102.5t-53.5 -86t-82 -59t-104.5 -21.5zM108 258q0 -58 25.5 -105.5t68.5 -75t95 -27.5t95 28
t69 76.5t26 105.5q0 58 -26 106t-69 76t-95 28t-94.5 -29t-68.5 -76.5t-26 -106.5zM194 634v94h58v-94h-58zM343 634v94h58v-94h-58z" />
    <glyph glyph-name="uni04EC" unicode="&#x4ec;" horiz-adv-x="715" 
d="M334 -6q-60 0 -115.5 19.5t-100 56.5t-70.5 89l59 30q24 -44 60 -73.5t79 -44t86 -14.5q58 0 107.5 24t86.5 66t56.5 96t17.5 112l31 -21h-366v58h364l-29 -20q-1 51 -19.5 101.5t-52.5 90t-83 63.5t-111 24q-43 0 -83.5 -13t-74.5 -41t-57 -73l-58 35q37 68 104.5 111.5
t166.5 43.5q81 0 144.5 -30.5t107 -82t66.5 -114.5t23 -129q0 -69 -24.5 -134.5t-69.5 -117t-107.5 -82t-137.5 -30.5zM258 823v94h58v-94h-58zM407 823v94h58v-94h-58z" />
    <glyph glyph-name="uni04ED" unicode="&#x4ed;" horiz-adv-x="557" 
d="M260 -9q-46 0 -89.5 14.5t-78.5 42.5t-54 68l55 25q26 -48 70.5 -71t91.5 -23q53 0 95 26.5t69 71t30 96.5h-243v48h242q-5 47 -29 89t-65 68.5t-98 26.5q-47 0 -87.5 -20t-67.5 -69l-53 27q28 53 81 86t128 33q63 0 111.5 -22.5t82 -61t50.5 -86.5t17 -97
q0 -51 -18 -99.5t-52 -87.5t-81.5 -62t-106.5 -23zM171 634v94h58v-94h-58zM320 634v94h58v-94h-58z" />
    <glyph glyph-name="uni04EE" unicode="&#x4ee;" horiz-adv-x="616" 
d="M167 -2v59h45q23 0 34.5 13t25.5 39l31 65l-303 536h77l258 -465l215 465h73l-297 -635q-20 -41 -41 -59t-59 -18h-59zM175 852v47h289v-47h-289z" />
    <glyph glyph-name="uni04EF" unicode="&#x4ef;" horiz-adv-x="542" 
d="M132 -218q-17 0 -34.5 5.5t-35.5 15.5l25 48q11 -6 20.5 -10t20.5 -4q26 0 49 26t44 76l26 65l-232 517h72l191 -451l176 451h68l-248 -603q-20 -47 -42 -77t-47 -44.5t-53 -14.5zM127 663v47h289v-47h-289z" />
    <glyph glyph-name="uni04F0" unicode="&#x4f0;" horiz-adv-x="616" 
d="M167 -2v59h45q23 0 34.5 13t25.5 39l31 65l-303 536h77l258 -465l215 465h73l-297 -635q-20 -41 -41 -59t-59 -18h-59zM215 823v94h58v-94h-58zM364 823v94h58v-94h-58z" />
    <glyph glyph-name="uni04F1" unicode="&#x4f1;" horiz-adv-x="542" 
d="M132 -218q-17 0 -34.5 5.5t-35.5 15.5l25 48q11 -6 20.5 -10t20.5 -4q26 0 49 26t44 76l26 65l-232 517h72l191 -451l176 451h68l-248 -603q-20 -47 -42 -77t-47 -44.5t-53 -14.5zM167 634v94h58v-94h-58zM316 634v94h58v-94h-58z" />
    <glyph glyph-name="uni04F2" unicode="&#x4f2;" horiz-adv-x="616" 
d="M167 -2v59h45q23 0 34.5 13t25.5 39l31 65l-303 536h77l258 -465l215 465h73l-297 -635q-20 -41 -41 -59t-59 -18h-59zM255 810l-37 17l57 93h64zM381 810l-38 17l57 93h64z" />
    <glyph glyph-name="uni04F3" unicode="&#x4f3;" horiz-adv-x="542" 
d="M132 -218q-17 0 -34.5 5.5t-35.5 15.5l25 48q11 -6 20.5 -10t20.5 -4q26 0 49 26t44 76l26 65l-232 517h72l191 -451l176 451h68l-248 -603q-20 -47 -42 -77t-47 -44.5t-53 -14.5zM207 621l-37 17l57 93h64zM333 621l-38 17l57 93h64z" />
    <glyph glyph-name="uni04F4" unicode="&#x4f4;" horiz-adv-x="644" 
d="M486 0v306q-22 -10 -51 -19t-63 -14.5t-73 -5.5q-118 0 -174 51.5t-56 163.5v228h68v-220q0 -83 40.5 -121t131.5 -38q51 0 99.5 11t77.5 27v341h68v-710h-68zM219 823v94h58v-94h-58zM368 823v94h58v-94h-58z" />
    <glyph glyph-name="uni04F5" unicode="&#x4f5;" horiz-adv-x="516" 
d="M373 0v218q-32 -15 -67 -22.5t-75 -7.5q-86 0 -129.5 44t-43.5 135v154h68v-145q0 -70 28.5 -102t91.5 -32q35 0 70 8t57 21v250h68v-521h-68zM155 634v94h58v-94h-58zM304 634v94h58v-94h-58z" />
    <glyph glyph-name="uni04F6" unicode="&#x4f6;" horiz-adv-x="516" 
d="M89 0v710h403v-62h-333v-648h-70zM210 -135v135h-93v62h156v-197h-63z" />
    <glyph glyph-name="uni04F7" unicode="&#x4f7;" horiz-adv-x="405" 
d="M74 0v521h311v-61h-243v-460h-68zM169 -121v121h-81v60h142v-181h-61z" />
    <glyph glyph-name="uni04F8" unicode="&#x4f8;" horiz-adv-x="851" 
d="M89 0v710h70v-276h180q77 0 128 -27t76.5 -76t25.5 -114q0 -59 -25 -109t-75 -79t-125 -29h-255zM159 59h176q59 0 95 22.5t52.5 59t16.5 76.5q0 42 -15 78t-51 58t-99 22h-175v-316zM693 0v709h69v-709h-69zM323 823v94h58v-94h-58zM472 823v94h58v-94h-58z" />
    <glyph glyph-name="uni04F9" unicode="&#x4f9;" horiz-adv-x="678" 
d="M74 0v521h68v-184h118q89 0 134.5 -45.5t45.5 -119.5q0 -48 -20 -87t-58.5 -62t-96.5 -23h-191zM142 54h114q41 0 66 16.5t37 43t12 57.5q0 30 -10.5 55.5t-36 41t-70.5 15.5h-112v-229zM535 0v520h68v-520h-68zM232 634v94h58v-94h-58zM381 634v94h58v-94h-58z" />
    <glyph glyph-name="uni04FA" unicode="&#x4fa;" horiz-adv-x="546" 
d="M141 -209q-19 0 -40 3.5t-44 11.5l16 61q17 -6 32.5 -9t28.5 -3q52 0 77 38t25 107h-107v62h170v-63q0 -65 -19 -111.5t-54 -71.5t-85 -25zM126 0v710h403v-62h-334v-648h-69zM18 316v49h374v-49h-374z" />
    <glyph glyph-name="uni04FB" unicode="&#x4fb;" horiz-adv-x="412" 
d="M95 -195q-19 0 -39.5 4t-43.5 12l17 56q16 -6 31.5 -9t28.5 -3q51 0 74.5 37t23.5 98h-71v60h134v-61q0 -61 -19 -104.5t-53.5 -66.5t-82.5 -23zM97 0v521h310v-61h-242v-460h-68zM7 240v46h312v-46h-312z" />
    <glyph glyph-name="uni04FC" unicode="&#x4fc;" horiz-adv-x="655" 
d="M437 -212q-19 0 -40.5 3.5t-43.5 11.5l18 61q29 -12 57 -12q30 0 54.5 14t39.5 39.5t15 60.5q0 30 -14 67t-48 79l-143 192l-227 -304h-80l267 355l-274 355h80l234 -304l228 304h79l-267 -355l160 -214q41 -52 57.5 -97.5t16.5 -82.5q0 -52 -24 -90.5t-62.5 -60.5
t-82.5 -22z" />
    <glyph glyph-name="uni04FD" unicode="&#x4fd;" horiz-adv-x="496" 
d="M317 -194q-14 0 -28.5 3.5t-28.5 9.5l17 59q10 -5 20 -7t19 -2q37 0 60 30t23 74q0 40 -16.5 78t-54.5 81l-65 78l-9 11l-7 -13l-156 -208h-77l201 264l-200 257h76l155 -200l8 -14l8 14l149 200h77l-192 -254l82 -96q43 -51 66 -100.5t23 -97.5t-21 -86t-54.5 -59.5
t-74.5 -21.5z" />
    <glyph glyph-name="uni04FE" unicode="&#x4fe;" horiz-adv-x="657" 
d="M152 327v45h353v-45h-353zM97 710l232 -309l232 309h78l-271 -360l263 -350h-78l-224 299l-224 -299h-79l263 350l-271 360h79z" />
    <glyph glyph-name="uni04FF" unicode="&#x4ff;" horiz-adv-x="482" 
d="M54 237v46h366v-46h-366zM80 521l153 -204l8 -15l8 15l152 204h73l-197 -262l198 -259h-74l-152 203l-8 14l-8 -14l-152 -203h-73l197 259l-197 262h72z" />
    <glyph glyph-name="uni0510" unicode="&#x510;" horiz-adv-x="518" 
d="M275 -9q-68 0 -121 24t-83 68.5t-30 106.5q0 65 35 114t96 66q-52 22 -80.5 65.5t-28.5 97.5q0 56 27 97.5t75 65t110 23.5q72 0 123.5 -31t82.5 -86l-51 -34q-22 41 -61 64t-91 23q-44 0 -77.5 -17t-51.5 -46t-18 -68q0 -36 17 -65t47 -46.5t68 -17.5h69v-56h-68
q-48 0 -82.5 -18t-52.5 -50.5t-18 -74.5q0 -66 44 -105.5t121 -39.5q56 0 99 24t68 68l54 -33q-32 -56 -91 -87.5t-131 -31.5z" />
    <glyph glyph-name="uni0511" unicode="&#x511;" horiz-adv-x="444" 
d="M233 -6q-57 0 -102 18t-70.5 52t-25.5 81t25 79.5t71 46.5q-27 13 -46.5 29.5t-30 39.5t-10.5 52q0 43 25 73.5t68 47t94 16.5q43 0 78 -12t61 -33.5t41 -52.5l-49 -28q-11 23 -29.5 38t-43 23t-54.5 8q-58 0 -94 -23t-36 -63q0 -29 14 -49t36.5 -29.5t48.5 -9.5h63v-54
h-60q-51 0 -80 -27.5t-29 -66.5q0 -31 17.5 -53t48.5 -34.5t72 -12.5q52 0 89 19.5t55 54.5l56 -25q-26 -50 -78.5 -77.5t-124.5 -27.5z" />
    </font>
</defs>
</svg>
