<?xml version="1.0" standalone="no"?>
<!DOCTYPE svg PUBLIC "-//W3C//DTD SVG 1.1//EN" "http://www.w3.org/Graphics/SVG/1.1/DTD/svg11.dtd" >
<svg xmlns="http://www.w3.org/2000/svg" xmlns:xlink="http://www.w3.org/1999/xlink" version="1.1">
<metadata>
Created by FontForge 20201107 at Wed Jul  8 16:02:46 2020
 By 
Copyright 2010 The Raleway Project Authors (impallari@gmail.com), with Reserved Font Name "Raleway".
</metadata>
<defs>
<font id="Raleway-Medium" horiz-adv-x="0" >
  <font-face 
    font-family="Raleway Medium"
    font-weight="500"
    font-stretch="normal"
    units-per-em="1000"
    panose-1="0 0 0 0 0 0 0 0 0 0"
    ascent="800"
    descent="-200"
    x-height="522"
    cap-height="710"
    bbox="-212 -225 1311 1106"
    underline-thickness="50"
    underline-position="-125"
    unicode-range="U+000D-2215"
  />
<missing-glyph horiz-adv-x="608" 
d="M558 29q0 -29 -33 -29h-448q-16 0 -21.5 6t-5.5 19v662q0 23 19 23h471q18 0 18 -21v-660zM506 74v568q0 18 -15 18h-373q-16 0 -16 -19v-570q0 -10 5 -15.5t18 -5.5h353q28 0 28 24zM478 28l-407 641l52 27l415 -663z" />
    <glyph glyph-name="f_f" unicode="ff" horiz-adv-x="601" 
d="M99 0v453h-71v69h71v4q0 46 20.5 86t58.5 65t90 25q38 0 65.5 -8.5t53.5 -21.5l-24 -68q-22 14 -40 18t-38 4q-24 0 -42.5 -8.5t-31 -22.5t-18.5 -31.5t-6 -34.5v-7h139v-69h-139v-453h-88zM339 0v453h-71v69h71v11q0 64 19.5 110.5t55.5 71.5t85 25q31 0 61 -8.5
t54 -23.5l-22 -65q-14 10 -34.5 16t-40.5 6q-43 0 -66.5 -33.5t-23.5 -95.5v-14h139v-69h-139v-453h-88z" />
    <glyph glyph-name="fi" unicode="fi" horiz-adv-x="525" 
d="M99 453h-71v69h71v11q0 39 12 75.5t36 66.5t60 47.5t85 17.5q37 0 68 -8t55.5 -20t40.5 -24l-38 -65q-19 17 -51.5 29t-69.5 12q-38 0 -62.5 -19t-36 -48.5t-11.5 -60.5v-14h267v-522h-88v453h-179v-453h-88v453z" />
    <glyph glyph-name="fl" unicode="fl" horiz-adv-x="606" 
d="M504 -7q-51 0 -80.5 29t-29.5 81v450q0 26 -9 51.5t-31 42.5t-62 17q-36 0 -59 -17t-34 -47t-12 -69v-9h103v-69h-103v-453h-88v453h-71v69h71v18q0 61 22 105.5t64.5 69.5t105.5 25q96 0 143.5 -47t47.5 -121v-437q0 -43 12 -53t29 -10q21 0 40 4.5t32 9.5l14 -72
q-14 -6 -33 -10.5t-37.5 -7.5t-34.5 -3z" />
    <glyph glyph-name="f_f_i" unicode="ffi" horiz-adv-x="765" 
d="M99 0v453h-71v69h71v4q0 46 20.5 86t58.5 65t90 25q38 0 65.5 -8.5t53.5 -21.5l-24 -68q-22 14 -40 18t-38 4q-24 0 -42.5 -8.5t-31 -22.5t-18.5 -31.5t-6 -34.5v-7h139v-69h-139v-453h-88zM339 453h-71v69h71v11q0 39 12 75.5t36 66.5t60 47.5t85 17.5q37 0 68 -8
t55.5 -20t40.5 -24l-38 -65q-19 17 -51.5 29t-69.5 12q-38 0 -62.5 -19t-36 -48.5t-11.5 -60.5v-14h267v-522h-88v453h-179v-453h-88v453z" />
    <glyph glyph-name="f_f_l" unicode="ffl" horiz-adv-x="849" 
d="M99 0v453h-71v69h71v4q0 46 20.5 86t58.5 65t90 25q38 0 65.5 -8.5t53.5 -21.5l-24 -68q-22 14 -40 18t-38 4q-24 0 -42.5 -8.5t-31 -22.5t-18.5 -31.5t-6 -34.5v-7h139v-69h-139v-453h-88zM747 -7q-51 0 -80.5 29t-29.5 81v450q0 26 -9 51.5t-31 42.5t-62 17
q-36 0 -59 -17t-34 -47t-12 -69v-9h103v-69h-103v-453h-88v453h-71v69h71v18q0 61 22 105.5t64.5 69.5t105.5 25q96 0 143.5 -47t47.5 -121v-437q0 -43 12 -53t29 -10q21 0 40 4.5t32 9.5l14 -72q-14 -6 -33 -10.5t-37.5 -7.5t-34.5 -3z" />
    <glyph glyph-name=".notdef" horiz-adv-x="608" 
d="M558 29q0 -29 -33 -29h-448q-16 0 -21.5 6t-5.5 19v662q0 23 19 23h471q18 0 18 -21v-660zM506 74v568q0 18 -15 18h-373q-16 0 -16 -19v-570q0 -10 5 -15.5t18 -5.5h353q28 0 28 24zM478 28l-407 641l52 27l415 -663z" />
    <glyph glyph-name=".null" 
 />
    <glyph glyph-name="nonmarkingreturn" horiz-adv-x="333" 
 />
    <glyph glyph-name="NULL" 
 />
    <glyph glyph-name="NULL" 
 />
    <glyph glyph-name="CR" unicode="&#xd;" 
 />
    <glyph glyph-name="space" unicode=" " horiz-adv-x="253" 
 />
    <glyph glyph-name="exclam" unicode="!" horiz-adv-x="262" 
d="M87 240v477h88v-477h-88zM87 0v124h88v-124h-88z" />
    <glyph glyph-name="quotedbl" unicode="&#x22;" horiz-adv-x="324" 
d="M67 502v216h76v-216h-76zM181 502v216h76v-216h-76z" />
    <glyph glyph-name="numbersign" unicode="#" horiz-adv-x="692" 
d="M655 447h-134l-43 -178h133v-68h-149l-49 -201h-73l50 201h-168l-49 -201h-73l50 201h-113v68h129l43 178h-128v64h144l48 199h73l-49 -199h168l48 199h73l-49 -199h118v-64zM406 269l43 178h-168l-43 -178h168z" />
    <glyph glyph-name="dollar" unicode="$" horiz-adv-x="622" 
d="M285 39l56 -1v-145h-56v146zM290 50v609l45 7v-618zM285 815h56v-143l-56 -7v150zM508 561q-12 14 -32 27t-45 23.5t-54.5 17t-61.5 6.5q-82 0 -121 -31t-39 -85q0 -38 20 -60t61.5 -36t105.5 -29q74 -16 128 -39t83 -61.5t29 -102.5q0 -51 -19.5 -88.5t-54.5 -62
t-82 -36t-102 -11.5q-54 0 -105.5 11.5t-97.5 33.5t-86 55l43 76q16 -17 41.5 -33.5t58 -30.5t70.5 -22.5t78 -8.5q76 0 118 27.5t42 80.5q0 40 -23.5 64t-69.5 40t-112 32q-72 18 -121 39.5t-73.5 56.5t-24.5 91q0 68 33 115t91 71t131 24q48 0 89.5 -10t77.5 -28t66 -43z
" />
    <glyph glyph-name="percent" unicode="%" horiz-adv-x="733" 
d="M191 428q-42 0 -77 19.5t-56 53t-21 73.5q0 41 21 74t56 52.5t77 19.5q43 0 78 -19.5t55.5 -52.5t20.5 -73q0 -41 -20.5 -74.5t-55.5 -53t-78 -19.5zM191 476q25 0 45.5 13.5t32.5 36t12 48.5q0 27 -12.5 49.5t-33 35.5t-44.5 13q-25 0 -45.5 -13.5t-32.5 -36t-12 -48.5
q0 -27 12.5 -49t33 -35.5t44.5 -13.5zM542 -10q-43 0 -77.5 19.5t-55.5 53t-21 73.5q0 41 21 74t55.5 52.5t77.5 19.5t78 -19.5t55.5 -52.5t20.5 -73q0 -41 -20.5 -74.5t-55.5 -53t-78 -19.5zM542 38q25 0 45.5 13.5t32.5 36t12 48.5q0 27 -12.5 49.5t-33 35.5t-44.5 13
q-25 0 -45.5 -13.5t-32.5 -36t-12 -48.5q0 -27 12.5 -49t33 -35.5t44.5 -13.5zM71 33l280 337l268 345l43 -37l-277 -335l-272 -348z" />
    <glyph glyph-name="ampersand" unicode="&#x26;" horiz-adv-x="681" 
d="M560 0l-348 367q-43 46 -68.5 78.5t-36.5 59t-11 54.5q0 46 24 82t65.5 57t93.5 21q48 0 87 -17.5t62.5 -50t23.5 -77.5q0 -46 -25 -81.5t-65.5 -66t-89.5 -61.5q-40 -26 -72.5 -53t-51 -57.5t-18.5 -67.5q0 -40 22 -68.5t57.5 -43.5t74.5 -15q51 0 95 23.5t77.5 65.5
t52 97.5t18.5 119.5h73q0 -82 -25.5 -150.5t-70 -119t-103.5 -78.5t-126 -28q-65 0 -117.5 26t-82.5 70.5t-30 101.5q0 55 25.5 96.5t66 74t83.5 59.5q44 28 78 51.5t53.5 48.5t19.5 54q0 35 -26 57.5t-66 22.5q-30 0 -53 -12.5t-36 -33t-13 -45.5q0 -16 8 -33t30.5 -43
t63.5 -70l397 -415h-116z" />
    <glyph glyph-name="quotesingle" unicode="'" horiz-adv-x="210" 
d="M67 501v217h76v-217h-76z" />
    <glyph glyph-name="parenleft" unicode="(" horiz-adv-x="283" 
d="M42 346q0 102 41.5 200t100.5 198l68 -30q-19 -28 -41 -71t-42 -94t-32.5 -104t-12.5 -102q0 -79 34 -169.5t92 -181.5l-65 -34q-42 63 -74.5 127.5t-50.5 130.5t-18 130z" />
    <glyph glyph-name="parenright" unicode=")" horiz-adv-x="283" 
d="M241 346q0 -64 -18 -130t-50.5 -130.5t-74.5 -127.5l-65 34q58 91 92 181.5t34 169.5q0 49 -12.5 102t-32.5 104t-42 94t-41 71l68 30q59 -100 100.5 -198t41.5 -200z" />
    <glyph glyph-name="asterisk" unicode="*" horiz-adv-x="329" 
d="M84 538l44 65l-69 22l13 42l70 -27l-3 74h51l-3 -74l70 27l13 -42l-69 -22l45 -65l-38 -25l-43 67l-44 -67z" />
    <glyph glyph-name="plus" unicode="+" horiz-adv-x="416" 
d="M366 391v-72h-118v-128h-80v128h-118v72h118v128h80v-128h118z" />
    <glyph glyph-name="comma" unicode="," horiz-adv-x="211" 
d="M74 -81l20 89h-30v104h83v-104l-30 -89h-43z" />
    <glyph glyph-name="hyphen" unicode="-" horiz-adv-x="423" 
d="M64 233v80h295v-80h-295z" />
    <glyph glyph-name="period" unicode="." horiz-adv-x="202" 
d="M64 0v112h74v-112h-74z" />
    <glyph glyph-name="slash" unicode="/" horiz-adv-x="633" 
d="M605 710l-480 -710h-98l479 710h99z" />
    <glyph glyph-name="zero" unicode="0" horiz-adv-x="614" 
d="M560 293q0 -88 -33 -156.5t-90 -107.5t-130 -39t-130 39t-90 107.5t-33 156.5t33 156.5t90 108t130 39.5t130 -39.5t90 -108t33 -156.5zM471 293q0 66 -21 116t-58 78t-85 28q-49 0 -86 -28t-58 -78t-21 -116t21 -115.5t58 -77.5t86 -28q48 0 85 28t58 77.5t21 115.5z
" />
    <glyph glyph-name="one" unicode="1" horiz-adv-x="450" 
d="M426 80v-80h-359v80h142v390q-9 -12 -28 -25.5t-43 -25.5t-48 -19.5t-44 -7.5v84q22 0 48.5 12.5t51.5 29.5t42.5 32t20.5 21h90v-491h127z" />
    <glyph glyph-name="two" unicode="2" horiz-adv-x="535" 
d="M43 0q0 40 6.5 75t24 67t49.5 61.5t83 57.5q30 17 60.5 32t57 32t42.5 37.5t16 47.5q0 23 -13.5 44.5t-40 35t-65.5 13.5q-30 0 -54.5 -8t-44 -20.5t-34 -26t-24.5 -24.5l-55 62q8 9 27 24.5t48 31.5t67.5 27.5t84.5 11.5q62 0 106.5 -21.5t68.5 -58t24 -81.5
q0 -39 -16.5 -68t-42 -51t-53 -37.5t-49.5 -26.5q-45 -22 -77 -40t-52.5 -35.5t-33 -36.5t-18.5 -45h353v-80h-445z" />
    <glyph glyph-name="three" unicode="3" horiz-adv-x="540" 
d="M358 236q43 -7 74 -31.5t48 -62t17 -84.5q0 -61 -29.5 -107.5t-83.5 -72t-126 -25.5q-76 0 -133.5 28.5t-89.5 80.5l59 59q23 -40 62.5 -64t101.5 -24q69 0 108.5 31.5t39.5 93.5q0 63 -42.5 100.5t-123.5 37.5h-26v74h28q72 0 110.5 35t38.5 87q0 36 -17 59t-46 34.5
t-67 11.5q-55 0 -96.5 -23.5t-64.5 -65.5l-54 56q18 34 51.5 59t78 39t94.5 14q63 0 111.5 -22t75.5 -62t27 -94q0 -39 -15 -73.5t-43.5 -58t-67.5 -30.5z" />
    <glyph glyph-name="four" unicode="4" horiz-adv-x="558" 
d="M345 -127v169h-321v78l349 451h60v-449h88v-80h-88v-169h-88zM115 122h239v313z" />
    <glyph glyph-name="five" unicode="5" horiz-adv-x="548" 
d="M262 -149q-76 0 -137 36t-92 96l55 48q28 -46 74.5 -74t100.5 -28q46 0 82 20t57 55.5t21 81.5q0 45 -20.5 79t-55 53t-77.5 19t-80.5 -19t-61.5 -54h-79l80 407h345v-81h-280l-43 -226q22 23 55.5 36.5t74.5 13.5q66 0 118.5 -29t83 -80t30.5 -118q0 -70 -33.5 -123.5
t-90.5 -83t-127 -29.5z" />
    <glyph glyph-name="six" unicode="6" horiz-adv-x="606" 
d="M562 235q0 67 -32.5 121t-88 86t-124.5 32q-41 0 -77.5 -14t-63.5 -39.5t-42 -60.5q1 88 23.5 150t63.5 95t95 33q53 0 96 -27.5t65 -74.5l54 53q-32 59 -88.5 92.5t-125.5 33.5q-80 0 -140 -46.5t-93 -139.5t-33 -233q0 -95 32.5 -164t90.5 -105.5t134 -36.5
q72 0 129.5 33t91 88.5t33.5 123.5zM309 66q-46 0 -84.5 23t-61.5 61.5t-23 84.5t23 84t61.5 61t84.5 23t84.5 -23t61.5 -61t23 -84t-23 -84.5t-61.5 -61.5t-84.5 -23z" />
    <glyph glyph-name="seven" unicode="7" horiz-adv-x="535" 
d="M392 502h-365v81h504l-357 -710h-100z" />
    <glyph glyph-name="eight" unicode="8" horiz-adv-x="598" 
d="M549 201q0 -63 -34.5 -110t-92 -73t-125.5 -26q-71 0 -127 28.5t-88.5 76.5t-32.5 108q0 44 20 79t50.5 59.5t62.5 36.5q-29 13 -54 34t-40 49t-15 61q0 45 20 79.5t53 58.5t73 36t80 12t80 -12t73.5 -35.5t53.5 -58t20 -79.5q0 -33 -15 -61.5t-40.5 -49.5t-55.5 -34
q36 -14 66.5 -39.5t49 -60.5t18.5 -79zM460 207q0 32 -14 57.5t-38 43t-52.5 26.5t-57.5 9q-40 0 -76.5 -17t-59.5 -47.5t-23 -72.5q0 -31 14 -56t37.5 -43t52 -27t57.5 -9q40 0 76.5 17t60 48t23.5 71zM162 521q0 -35 21 -60t53 -37.5t63 -12.5q32 0 63.5 13t52.5 38t21 61
q0 34 -19.5 58t-51 37t-67.5 13q-35 0 -66.5 -13.5t-50.5 -38t-19 -58.5z" />
    <glyph glyph-name="nine" unicode="9" horiz-adv-x="589" 
d="M36 326q0 -67 32.5 -121t88.5 -86t124 -32q42 0 78 14t63.5 40t41.5 60q-1 -88 -23.5 -150t-63 -95t-95.5 -33q-52 0 -95.5 28t-65.5 74l-54 -53q32 -59 88.5 -92.5t125.5 -33.5q80 0 140 46.5t93 139.5t33 233q0 96 -32.5 164.5t-90 105t-134.5 36.5q-71 0 -129 -33
t-91.5 -88.5t-33.5 -123.5zM289 495q46 0 84.5 -23t61.5 -61.5t23 -84.5t-23 -84t-61 -61t-85 -23q-46 0 -84.5 23t-61.5 61t-23 84q0 47 23 85t61.5 61t84.5 23z" />
    <glyph glyph-name="colon" unicode=":" horiz-adv-x="201" 
d="M64 406v112h73v-112h-73zM64 0v112h73v-112h-73z" />
    <glyph glyph-name="semicolon" unicode=";" horiz-adv-x="221" 
d="M69 406v112h73v-112h-73zM79 -81l20 89h-30v104h83v-104l-30 -89h-43z" />
    <glyph glyph-name="less" unicode="&#x3c;" horiz-adv-x="510" 
d="M33 280l420 253v-94l-292 -180l292 -177v-98l-420 250v46z" />
    <glyph glyph-name="equal" unicode="=" horiz-adv-x="439" 
d="M67 179v60h305v-60h-305zM67 313v60h305v-60h-305z" />
    <glyph glyph-name="greater" unicode="&#x3e;" horiz-adv-x="510" 
d="M477 234l-420 -250v98l292 177l-292 180v94l420 -253v-46z" />
    <glyph glyph-name="question" unicode="?" horiz-adv-x="479" 
d="M144 211q0 36 8.5 66t27 54.5t48.5 43.5q18 12 41.5 25t45 30.5t35.5 42t14 58.5q0 38 -17.5 63.5t-45.5 38.5t-60 13q-33 0 -62 -13t-50.5 -34.5t-35.5 -47.5l-59 39q18 41 50.5 70t73.5 44t85 15q37 0 72.5 -11.5t64 -35.5t45.5 -60t17 -85q0 -38 -10 -65t-27.5 -47
t-40.5 -35t-48 -29q-24 -13 -46.5 -29t-37 -41.5t-14.5 -69.5h-74zM146 0v116h74v-116h-74z" />
    <glyph glyph-name="at" unicode="@" horiz-adv-x="840" 
d="M419 603q74 0 140 -26.5t117 -76.5t80.5 -120.5t29.5 -157.5q0 -17 -2.5 -46t-10.5 -62t-24 -62.5t-43.5 -48.5t-68.5 -19q-34 0 -52 13t-25 33.5t-10 42.5q-28 -30 -72.5 -50.5t-97.5 -20.5q-73 0 -112.5 39t-39.5 97q0 53 28 83t71.5 43t87.5 13q43 0 75 -8.5t48 -14.5
q0 44 -10 77.5t-36.5 52.5t-74.5 19q-40 0 -75 -12.5t-63 -33.5l-20 49q36 24 78 37.5t88 13.5q59 0 93 -18.5t50 -49t21 -67t5 -71.5v-119q0 -29 3 -53t14 -37.5t34 -13.5q30 0 49.5 20.5t30 52t15 65t4.5 58.5q0 72 -24.5 133.5t-68.5 107.5t-103.5 72t-130.5 26
q-69 0 -129 -24.5t-104.5 -69.5t-70 -106t-25.5 -133q0 -70 24 -131t67 -107t102 -72t129 -26q44 0 80.5 10.5t73.5 27.5l14 -38q-40 -20 -83 -30t-86 -10q-75 0 -140.5 27.5t-115.5 78t-78.5 119.5t-28.5 151q0 86 30.5 155t83 117.5t119.5 74.5t140 26zM476 76
q26 12 39 27.5t17.5 33t4.5 34.5v37q-13 2 -45.5 12t-77.5 10q-34 0 -63.5 -8t-47.5 -27.5t-18 -52.5q0 -25 12.5 -45t34.5 -31.5t52 -11.5q24 0 48.5 6.5t43.5 15.5z" />
    <glyph glyph-name="A" unicode="A" horiz-adv-x="677" 
d="M301 710h76l290 -710h-96l-84 208h-298l-83 -208h-96zM467 278l-128 328l-132 -328h260z" />
    <glyph glyph-name="B" unicode="B" horiz-adv-x="671" 
d="M630 183q0 -55 -28 -96t-75.5 -64t-104.5 -23h-337v710h353q50 0 86.5 -26.5t56 -68t19.5 -86.5q0 -52 -26.5 -97.5t-75.5 -67.5q61 -18 96.5 -66.5t35.5 -114.5zM539 199q0 33 -14.5 61t-39 45t-56.5 17h-254v-244h247q33 0 59.5 17t42 44.5t15.5 59.5zM175 632v-237
h226q32 0 56.5 16t39 43t14.5 59q0 34 -13.5 60.5t-37 42.5t-53.5 16h-232z" />
    <glyph glyph-name="C" unicode="C" horiz-adv-x="682" 
d="M39 360q0 65 22.5 127.5t66 114t106.5 82t143 30.5q95 0 163 -43.5t101 -111.5l-71 -46q-21 45 -53.5 71.5t-70 37.5t-73.5 11q-59 0 -104.5 -24t-76.5 -64t-46.5 -89.5t-15.5 -99.5q0 -55 18.5 -106t51.5 -90t78 -62t98 -23q37 0 76 13t73 40.5t54 71.5l75 -41
q-22 -53 -68 -90t-102.5 -56t-111.5 -19q-73 0 -134 31.5t-105.5 84t-69 118t-24.5 132.5z" />
    <glyph glyph-name="D" unicode="D" horiz-adv-x="716" 
d="M85 0v710h246q114 0 190.5 -47.5t114.5 -128t38 -178.5q0 -108 -42 -188t-119 -124t-182 -44h-246zM583 356q0 80 -29.5 142t-85.5 97t-137 35h-156v-550h156q82 0 138 36.5t85 99t29 140.5z" />
    <glyph glyph-name="E" unicode="E" horiz-adv-x="605" 
d="M567 80v-80h-482v710h473v-80h-383v-230h333v-75h-333v-245h392z" />
    <glyph glyph-name="F" unicode="F" horiz-adv-x="583" 
d="M85 0v710h469v-80h-379v-237h319v-75h-319v-318h-90z" />
    <glyph glyph-name="G" unicode="G" horiz-adv-x="714" 
d="M370 -5q-70 0 -130.5 30.5t-105.5 82t-70 116t-25 133.5q0 72 25 136.5t69.5 114.5t105 78.5t131.5 28.5q103 0 170 -43t101 -112l-69 -48q-31 62 -85 92t-119 30q-54 0 -98 -23t-75.5 -62.5t-48 -89.5t-16.5 -104q0 -57 18.5 -107.5t52.5 -89t79 -60.5t97 -22
q61 0 116 31t104 95v-93q-96 -114 -227 -114zM586 286h-153v68h229v-354h-76v286z" />
    <glyph glyph-name="H" unicode="H" horiz-adv-x="741" 
d="M656 710v-710h-90v323h-391v-323h-90v710h90v-307h391v307h90z" />
    <glyph glyph-name="I" unicode="I" horiz-adv-x="260" 
d="M85 0v710h90v-710h-90z" />
    <glyph glyph-name="J" unicode="J" horiz-adv-x="485" 
d="M35 106q19 -13 52.5 -24.5t79.5 -11.5q47 0 77 15.5t46 47t22 80.5t6 116v381h90v-361q0 -79 -8 -145t-32 -114.5t-71.5 -74.5t-126.5 -26q-50 0 -88 11t-70 33z" />
    <glyph glyph-name="K" unicode="K" horiz-adv-x="652" 
d="M85 0v709h90v-392l366 393h97l-285 -313l301 -397h-101l-257 343l-121 -126v-217h-90z" />
    <glyph glyph-name="L" unicode="L" horiz-adv-x="584" 
d="M85 0v710h90v-630h396v-80h-486z" />
    <glyph glyph-name="M" unicode="M" horiz-adv-x="874" 
d="M699 0v542l-234 -417h-55l-235 417v-542h-90v710h95l257 -461l258 461h94v-710h-90z" />
    <glyph glyph-name="N" unicode="N" horiz-adv-x="770" 
d="M175 544v-544h-90v710h76l434 -555v554h90v-709h-82z" />
    <glyph glyph-name="O" unicode="O" horiz-adv-x="748" 
d="M373 -5q-75 0 -136 30t-105.5 81.5t-68.5 116t-24 132.5q0 71 25.5 135.5t71 115t106.5 80t133 29.5q75 0 136 -31t105 -83t68 -116t24 -131q0 -71 -25 -135.5t-70.5 -115t-106.5 -79.5t-133 -29zM130 355q0 -54 17.5 -104.5t49.5 -89.5t77 -62t100 -23q57 0 102 24
t76.5 64t48 90t16.5 101q0 54 -17.5 104t-50 89.5t-77 62t-98.5 22.5q-57 0 -102 -23.5t-76.5 -63.5t-48.5 -89.5t-17 -101.5z" />
    <glyph glyph-name="P" unicode="P" horiz-adv-x="623" 
d="M85 0v710h296q47 0 86 -19.5t68 -52t45 -73t16 -82.5q0 -58 -26 -110.5t-73 -85t-110 -32.5h-212v-255h-90zM175 335h207q37 0 64.5 20t43 54t15.5 74q0 42 -18 75.5t-47 52.5t-64 19h-201v-295z" />
    <glyph glyph-name="Q" unicode="Q" horiz-adv-x="746" 
d="M373 -5q-75 0 -136 30.5t-105.5 81.5t-68.5 115.5t-24 132.5q0 71 25.5 135.5t71 115t106.5 80t133 29.5q75 0 136 -31t105 -83t68 -116t24 -131q0 -71 -25 -135.5t-70.5 -115t-106.5 -79.5t-133 -29zM374 76q57 0 102 24t76.5 64t48 90t16.5 101q0 54 -17.5 104.5
t-50 89.5t-77 62t-98.5 23q-57 0 -102 -24t-76.5 -64t-48.5 -89.5t-17 -101.5q0 -54 17.5 -104.5t49.5 -89.5t77 -62t100 -23zM414 232h88l199 -232h-88z" />
    <glyph glyph-name="R" unicode="R" horiz-adv-x="657" 
d="M85 0v710h304q47 0 86 -19.5t68 -52t45 -73t16 -82.5q0 -49 -18.5 -93t-52 -75t-78.5 -43l172 -272h-102l-162 255h-188v-255h-90zM175 335h215q37 0 64.5 20.5t43 54.5t15.5 73q0 40 -18 73.5t-47 53.5t-64 20h-209v-295z" />
    <glyph glyph-name="S" unicode="S" horiz-adv-x="609" 
d="M502 561q-12 14 -32 27t-45 23.5t-54.5 17t-61.5 6.5q-82 0 -121 -31t-39 -85q0 -38 20 -60t61.5 -36t105.5 -29q74 -16 128 -39t83 -61.5t29 -102.5q0 -51 -19.5 -88.5t-54.5 -62t-82 -36t-102 -11.5q-54 0 -105.5 11.5t-97.5 33.5t-86 55l43 76q16 -17 41.5 -33.5
t58 -30.5t70.5 -22.5t78 -8.5q76 0 118 27.5t42 80.5q0 40 -23.5 64t-69.5 40t-112 32q-72 18 -121 39.5t-73.5 56.5t-24.5 91q0 68 33 115t91 71t131 24q48 0 89.5 -10t77.5 -28t66 -43z" />
    <glyph glyph-name="T" unicode="T" horiz-adv-x="614" 
d="M597 630h-245v-630h-90v630h-245v80h580v-80z" />
    <glyph glyph-name="U" unicode="U" horiz-adv-x="755" 
d="M378 -5q-85 0 -143 29.5t-93 80t-51 114.5t-16 132v359h90v-359q0 -52 10.5 -101.5t34.5 -88.5t65 -62t102 -23q62 0 103 23.5t65 63t34.5 88.5t10.5 100v359h90v-359q0 -72 -16.5 -136.5t-52.5 -113.5t-93.5 -77.5t-139.5 -28.5z" />
    <glyph glyph-name="V" unicode="V" horiz-adv-x="680" 
d="M105 710l235 -597l234 597h95l-288 -710h-82l-289 710h95z" />
    <glyph glyph-name="W" unicode="W" horiz-adv-x="1049" 
d="M345 706h85l94 -247l95 247h85l-123 -309l122 -293l240 606h98l-297 -710h-78l-141 335l-142 -335h-78l-296 710h97l241 -606l121 293z" />
    <glyph glyph-name="X" unicode="X" horiz-adv-x="637" 
d="M105 710l214 -294l214 294h101l-265 -360l257 -350h-101l-206 284l-206 -284h-102l257 350l-265 360h102z" />
    <glyph glyph-name="Y" unicode="Y" horiz-adv-x="655" 
d="M112 710l215 -370l217 370h98l-270 -451v-259h-90v261l-269 449h99z" />
    <glyph glyph-name="Z" unicode="Z" horiz-adv-x="631" 
d="M32 70l458 560h-449v80h554v-70l-450 -560h450v-80h-563v70z" />
    <glyph glyph-name="bracketleft" unicode="[" horiz-adv-x="270" 
d="M84 -40v780h140v-72h-58v-636h58v-72h-140z" />
    <glyph glyph-name="backslash" unicode="\" horiz-adv-x="590" 
d="M127 710l435 -710h-98l-436 710h99z" />
    <glyph glyph-name="bracketright" unicode="]" horiz-adv-x="270" 
d="M46 -40v72h58v636h-58v72h140v-780h-140z" />
    <glyph glyph-name="asciicircum" unicode="^" horiz-adv-x="553" 
d="M42 303l198 407h74l197 -407h-75l-159 328l-162 -328h-73z" />
    <glyph glyph-name="underscore" unicode="_" horiz-adv-x="503" 
d="M63 -80v80h377v-80h-377z" />
    <glyph glyph-name="grave" unicode="`" horiz-adv-x="232" 
d="M48 730h87l59 -101l-57 -20z" />
    <glyph glyph-name="a" unicode="a" horiz-adv-x="554" 
d="M30 151q0 50 28.5 86.5t78.5 56.5t116 20q35 0 74 -5.5t69 -16.5v38q0 60 -36 94.5t-102 34.5q-43 0 -82.5 -15.5t-83.5 -44.5l-32 62q51 35 102 52.5t106 17.5q100 0 158 -55.5t58 -154.5v-221q0 -16 6.5 -23.5t21.5 -8.5v-68q-13 -2 -22.5 -3t-15.5 -1q-31 0 -46.5 17
t-17.5 36l-2 33q-34 -44 -89 -68t-109 -24q-52 0 -93 21.5t-64 58t-23 81.5zM370 114q12 14 19 28.5t7 24.5v65q-31 12 -65 18.5t-67 6.5q-67 0 -108.5 -26.5t-41.5 -72.5q0 -25 13.5 -48.5t40 -38.5t65.5 -15q41 0 78 16.5t59 41.5z" />
    <glyph glyph-name="b" unicode="b" horiz-adv-x="623" 
d="M339 -10q-61 0 -111 30t-79 78v-98h-78v730h88v-312q33 51 81 82t112 31q54 0 97 -22.5t73.5 -61t47 -87t16.5 -101.5q0 -55 -18.5 -103.5t-52.5 -86t-78.5 -58.5t-97.5 -21zM317 66q39 0 72 16t57 43t37 62t13 72q0 51 -21.5 96t-60 72.5t-89.5 27.5q-37 0 -69 -17
t-56.5 -44.5t-40.5 -60.5v-151q5 -25 21 -46t39 -36.5t48.5 -24.5t49.5 -9z" />
    <glyph glyph-name="c" unicode="c" horiz-adv-x="554" 
d="M302 -10q-59 0 -107.5 21.5t-84 59.5t-55 87t-19.5 104q0 74 33 135t93 97.5t139 36.5q77 0 134.5 -34.5t85.5 -92.5l-86 -27q-20 37 -56 57.5t-80 20.5q-48 0 -87.5 -25t-62.5 -68.5t-23 -99.5q0 -55 23.5 -99.5t63 -70.5t87.5 -26q31 0 59.5 11t50 29.5t29.5 40.5
l86 -26q-16 -38 -48.5 -67.5t-77 -46.5t-97.5 -17z" />
    <glyph glyph-name="d" unicode="d" horiz-adv-x="629" 
d="M37 260q0 74 30.5 135.5t84 98.5t122.5 37q63 0 113 -33t78 -80v312h88v-630q0 -16 6.5 -23.5t21.5 -8.5v-68q-25 -4 -39 -4q-26 0 -45.5 18t-19.5 40v44q-31 -50 -83 -79t-108 -29q-54 0 -99.5 21.5t-79 59.5t-52 86.5t-18.5 102.5zM465 183v150q-12 34 -39 61.5
t-60.5 44t-66.5 16.5q-39 0 -70.5 -16.5t-54 -44t-34.5 -62.5t-12 -73q0 -39 13.5 -74t38 -62t57 -42t70.5 -15q24 0 49.5 9t48.5 25t39 37.5t21 45.5z" />
    <glyph glyph-name="e" unicode="e" horiz-adv-x="591" 
d="M302 -10q-59 0 -107.5 21.5t-84 59t-55 86.5t-19.5 104q0 74 34 135t94.5 98t138.5 37q79 0 137.5 -37.5t91 -98t32.5 -130.5q0 -10 -0.5 -19.5t-1.5 -14.5h-433q4 -51 28.5 -90.5t63.5 -62t84 -22.5q48 0 90.5 24t58.5 63l76 -21q-17 -38 -50.5 -68t-79 -47t-98.5 -17z
M126 292h356q-4 51 -29 90t-64 61t-86 22q-46 0 -85 -22t-63.5 -61t-28.5 -90z" />
    <glyph glyph-name="f" unicode="f" horiz-adv-x="343" 
d="M99 0v453h-71v69h71v11q0 64 19.5 110.5t55.5 71.5t85 25q31 0 61 -8.5t54 -23.5l-22 -65q-14 10 -34.5 16t-40.5 6q-43 0 -66.5 -33.5t-23.5 -95.5v-14h139v-69h-139v-453h-88z" />
    <glyph glyph-name="g" unicode="g" horiz-adv-x="624" 
d="M279 -6q-53 0 -97.5 21.5t-76.5 59t-49.5 85.5t-17.5 100q0 55 17.5 104t50 86.5t76.5 59t98 21.5q65 0 113.5 -32t81.5 -81v104h78v-516q0 -74 -35.5 -125t-96 -77.5t-134.5 -26.5q-88 0 -144 31t-93 84l51 45q31 -46 80.5 -69t105.5 -23q48 0 88.5 17.5t65 53.5
t24.5 90v92q-29 -48 -79.5 -76t-106.5 -28zM306 66q28 0 54 10t48 26.5t37 37.5t20 43v150q-14 36 -40 63.5t-59 43t-68 15.5q-40 0 -71.5 -17t-53.5 -45.5t-34 -63.5t-12 -71q0 -39 14 -73.5t38 -61.5t57 -42t70 -15z" />
    <glyph glyph-name="h" unicode="h" horiz-adv-x="590" 
d="M524 0h-88v292q0 80 -28.5 120t-81.5 40q-34 0 -68.5 -18t-60.5 -48.5t-38 -70.5v-315h-88v730h88v-320q31 56 84.5 88.5t115.5 32.5q47 0 78.5 -16.5t50.5 -46.5t27.5 -69.5t8.5 -86.5v-312z" />
    <glyph glyph-name="i" unicode="i" horiz-adv-x="230" 
d="M71 0v522h88v-522h-88zM71 620v110h88v-110h-88z" />
    <glyph glyph-name="j" unicode="j" horiz-adv-x="237" 
d="M4 -186q-34 0 -65 10t-55 32l41 59q14 -13 32.5 -18t36.5 -5q22 0 41 11t31 30.5t12 43.5v545h88v-539q0 -49 -23 -87.5t-59.5 -60t-79.5 -21.5zM78 620v110h88v-110h-88z" />
    <glyph glyph-name="k" unicode="k" horiz-adv-x="539" 
d="M439 0l-181 254l-99 -93v-161h-88v730h88v-477l270 268h95l-208 -216l218 -305h-95z" />
    <glyph glyph-name="l" unicode="l" horiz-adv-x="286" 
d="M73 730h88v-595q0 -43 12 -53t29 -10q21 0 40 4.5t32 9.5l14 -72q-22 -9 -52 -15t-53 -6q-51 0 -80.5 29t-29.5 81v627z" />
    <glyph glyph-name="m" unicode="m" horiz-adv-x="924" 
d="M858 0h-88v292q0 82 -26.5 121t-78.5 39q-53 0 -96 -38.5t-61 -99.5v-314h-88v292q0 83 -26 121.5t-78 38.5t-95.5 -37.5t-61.5 -99.5v-315h-88v522h80v-112q32 58 83 89.5t115 31.5q65 0 104 -35.5t48 -91.5q35 62 85 94.5t114 32.5q45 0 75.5 -16.5t48.5 -46t26 -69.5
t8 -87v-312z" />
    <glyph glyph-name="n" unicode="n" horiz-adv-x="590" 
d="M524 0h-88v292q0 83 -25.5 121.5t-77.5 38.5q-36 0 -71.5 -18t-63 -48.5t-39.5 -70.5v-315h-88v522h80v-112q21 37 54 64t75 42t88 15q45 0 75.5 -16.5t48 -46t25 -69.5t7.5 -87v-312z" />
    <glyph glyph-name="o" unicode="o" horiz-adv-x="599" 
d="M299 -10q-59 0 -107 21.5t-83 59t-54 86.5t-19 103q0 55 19 104t54 86.5t83.5 59t107.5 21.5q58 0 106 -21.5t83.5 -59t54.5 -86.5t19 -104q0 -54 -19 -103t-54 -86.5t-83.5 -59t-107.5 -21.5zM126 259q0 -54 23.5 -98t62.5 -69.5t87 -25.5t87.5 26t63 70.5t23.5 98.5
t-23.5 98t-63 70t-87.5 26t-87 -26.5t-62.5 -70.5t-23.5 -99z" />
    <glyph glyph-name="p" unicode="p" horiz-adv-x="623" 
d="M352 -10q-64 0 -114 32t-79 81v-316h-88v735h78v-98q31 48 81 77.5t109 29.5q54 0 99 -22t78 -60t51.5 -86.5t18.5 -101.5q0 -74 -29.5 -136t-82.5 -98.5t-122 -36.5zM325 66q39 0 70.5 16.5t54 44t34.5 62.5t12 72q0 39 -13.5 74t-38 62t-57 42.5t-70.5 15.5
q-24 0 -49.5 -9t-48.5 -25.5t-39 -37.5t-21 -45v-149q15 -34 40 -62t58 -44.5t68 -16.5z" />
    <glyph glyph-name="q" unicode="q" horiz-adv-x="623" 
d="M271 -10q-52 0 -95 22t-74 59.5t-48 86.5t-17 103q0 55 19 104t52.5 86t78.5 58.5t97 21.5q61 0 111 -30.5t79 -77.5v99h78v-735h-88v316q-72 -113 -193 -113zM301 66q37 0 67.5 15t54.5 40.5t41 56.5v150q-4 26 -20 48.5t-39 40.5t-49.5 28t-52.5 10q-39 0 -71 -16.5
t-55.5 -44.5t-36.5 -63t-13 -72q0 -52 22.5 -96t61.5 -70.5t90 -26.5z" />
    <glyph glyph-name="r" unicode="r" horiz-adv-x="363" 
d="M347 445q-66 -1 -116.5 -33.5t-71.5 -89.5v-322h-88v522h82v-121q27 54 71.5 87.5t93.5 37.5h17t12 -1v-80z" />
    <glyph glyph-name="s" unicode="s" horiz-adv-x="488" 
d="M250 -10q-65 0 -122 21.5t-98 64.5l34 62q45 -42 90 -60t92 -18q54 0 88 20.5t34 60.5q0 29 -17.5 43t-49.5 23.5t-76 21.5q-54 16 -91 34t-56 45t-19 68q0 50 26 84.5t71.5 52.5t103.5 18t105 -18t81 -53l-40 -61q-31 32 -68 47.5t-83 15.5q-27 0 -53 -6.5t-43 -23
t-17 -46.5q0 -25 13.5 -39.5t40 -24.5t64.5 -22q59 -17 102.5 -34t67.5 -44t24 -75q0 -74 -56 -115.5t-148 -41.5z" />
    <glyph glyph-name="t" unicode="t" horiz-adv-x="352" 
d="M341 26q-11 -5 -30 -13t-44 -14t-53 -6q-32 0 -59 11.5t-43 36t-16 61.5v351h-71v69h71v174h88v-174h117v-69h-117v-324q2 -28 19 -41.5t40 -13.5q26 0 48 9t29 13z" />
    <glyph glyph-name="u" unicode="u" horiz-adv-x="601" 
d="M66 209v313h88v-296q0 -80 28 -120t83 -40q36 0 69.5 15.5t60.5 44.5t42 69v327h88v-422q0 -16 6.5 -23.5t21.5 -8.5v-68q-15 -2 -23.5 -2.5t-16.5 -0.5q-25 0 -43 15.5t-19 38.5l-2 61q-34 -58 -91.5 -90t-125.5 -32q-82 0 -124 55.5t-42 163.5z" />
    <glyph glyph-name="v" unicode="v" horiz-adv-x="539" 
d="M221 0l-205 522h92l164 -438l164 438h86l-205 -522h-96z" />
    <glyph glyph-name="w" unicode="w" horiz-adv-x="821" 
d="M725 522h85l-222 -522h-77l-101 246l-100 -246h-77l-222 522h84l180 -435l84 214l-88 220h77l62 -166l62 166h77l-87 -220l84 -214z" />
    <glyph glyph-name="x" unicode="x" horiz-adv-x="513" 
d="M110 522l138 -192l8 -16l9 16l137 192h98l-193 -262l194 -260h-98l-138 191l-9 15l-8 -15l-138 -191h-98l194 260l-193 262h97z" />
    <glyph glyph-name="y" unicode="y" horiz-adv-x="545" 
d="M95 -142q13 -1 26 -2.5t20 -1.5q16 0 28 11t26.5 42.5t37.5 92.5l-221 522h93l176 -433l159 433h87l-254 -659q-9 -23 -26.5 -43.5t-44.5 -32.5t-65 -12q-9 0 -18.5 1t-23.5 4v78z" />
    <glyph glyph-name="z" unicode="z" horiz-adv-x="493" 
d="M30 57l329 401h-320v64h419v-57l-327 -401h328v-64h-429v57z" />
    <glyph glyph-name="braceleft" unicode="{" horiz-adv-x="271" 
d="M169 668v-244q0 -14 -6.5 -32t-22.5 -32q15 -13 22 -31.5t7 -32.5v-255h55v-72h-112q-7 0 -15 6.5t-8 23.5v271q0 22 -11.5 39t-30.5 20v64q14 0 23.5 10t14 23.5t4.5 23.5v260q0 19 9 24.5t14 5.5h112v-72h-55z" />
    <glyph glyph-name="bar" unicode="|" horiz-adv-x="240" 
d="M82 -130v905h76v-905h-76z" />
    <glyph glyph-name="braceright" unicode="}" horiz-adv-x="271" 
d="M47 668v72h112q5 0 14 -5.5t9 -24.5v-260q0 -10 4.5 -23.5t14 -23.5t23.5 -10v-64q-19 -3 -30.5 -20t-11.5 -39v-271q0 -17 -8 -23.5t-15 -6.5h-112v72h55v255q0 14 6.5 32.5t22.5 31.5q-16 14 -22.5 32t-6.5 32v244h-55z" />
    <glyph glyph-name="asciitilde" unicode="~" horiz-adv-x="532" 
d="M65 237q0 6 6 24t20 38t36 35t55 15q32 0 58.5 -14t52.5 -28.5t54 -14.5q26 0 41 12t21.5 25t6.5 15h52q0 -3 -6 -19.5t-20 -37t-37.5 -35.5t-58.5 -15q-34 0 -62 14t-52.5 28t-50.5 14q-24 0 -38 -13.5t-20 -27.5t-6 -15h-52z" />
    <glyph glyph-name="uni00A0" unicode="&#xa0;" horiz-adv-x="253" 
 />
    <glyph glyph-name="exclamdown" unicode="&#xa1;" horiz-adv-x="260" 
d="M174 474v-477h-88v477h88zM174 714v-124h-88v124h88z" />
    <glyph glyph-name="cent" unicode="&#xa2;" horiz-adv-x="570" 
d="M276 -120v111q-51 4 -94 28t-74.5 62t-48.5 83.5t-17 93.5q0 68 28 127t80.5 98t125.5 47v115h44v-115q73 -2 125.5 -35t81.5 -91l-85 -27q-20 36 -52 54.5t-70 20.5v-384q24 2 50.5 12t47.5 27.5t28 39.5l86 -26q-17 -43 -54 -72.5t-79.5 -44t-78.5 -14.5v-110h-44z
M132 258q0 -44 18.5 -83.5t51 -67t74.5 -35.5v377q-34 -4 -61 -21.5t-45.5 -44.5t-28 -59.5t-9.5 -65.5z" />
    <glyph glyph-name="sterling" unicode="&#xa3;" horiz-adv-x="512" 
d="M53 375h349v-68h-349v68zM53 56q43 41 69 75t38 65.5t12 63.5q0 42 -14.5 77.5t-33 68t-33 66t-14.5 70.5q0 48 25.5 87.5t68.5 62.5t95 23q56 0 106.5 -28t82.5 -77l-49 -54q-24 39 -63 62.5t-79 23.5q-30 0 -54 -14t-38 -38.5t-14 -54.5q0 -31 13.5 -61t32 -61
t32 -67.5t13.5 -81.5q0 -32 -9.5 -62.5t-31 -62t-57.5 -70.5q20 5 38 7.5t36 2.5q27 0 50 -4.5t45 -9t45 -4.5q20 0 40 4.5t45 13.5l22 -67q-25 -13 -54 -20t-57 -7q-30 0 -57.5 6.5t-55.5 12.5t-59 6q-25 0 -56 -5t-58 -13z" />
    <glyph glyph-name="currency" unicode="&#xa4;" horiz-adv-x="538" 
d="M160 486q22 17 49.5 26t59.5 9t59.5 -9t49.5 -26l71 72l41 -41l-72 -72q16 -22 24.5 -50t8.5 -58t-8.5 -57.5t-25.5 -50.5l73 -72l-36 -36l-74 69q-22 -16 -50 -26t-61 -10t-61 10t-51 26l-73 -69l-36 36l72 72q-33 49 -33 108q0 30 8 58t24 50l-71 72l41 41zM159 336
q0 -34 15 -61.5t40 -43.5t55 -16q31 0 55.5 16.5t39.5 44.5t15 62q0 35 -15 62t-39.5 43t-55.5 16q-30 0 -55 -16t-40 -44t-15 -63z" />
    <glyph glyph-name="yen" unicode="&#xa5;" horiz-adv-x="687" 
d="M454 377h81v-60h-114l-34 -58v-28h149v-60h-149v-171h-90v171h-147v60h147v30l-32 56h-115v60h83l-204 333h98l215 -370l217 370h99z" />
    <glyph glyph-name="brokenbar" unicode="&#xa6;" horiz-adv-x="242" 
d="M159 273v-403h-76v403h76zM159 775v-403h-76v403h76z" />
    <glyph glyph-name="section" unicode="&#xa7;" horiz-adv-x="517" 
d="M430 201q21 -14 32 -40t11 -64q0 -48 -19.5 -83t-51 -57.5t-67.5 -33.5t-70 -11q-36 0 -67.5 9t-57 23t-45.5 31t-34 32l57 54q35 -34 69.5 -49.5t74.5 -15.5q30 0 57.5 11.5t45 33.5t17.5 53q0 34 -17 50.5t-43 22.5t-52 7q-59 4 -104 24t-70 56t-25 87q0 28 7.5 49
t16.5 33q-19 15 -33.5 45t-14.5 70q0 51 28.5 91t74.5 63t97 23q39 0 69.5 -9t54 -24.5t40.5 -34t29 -36.5l-68 -32q-11 21 -30.5 33.5t-42.5 18t-47 5.5q-30 0 -56.5 -12t-43 -33.5t-16.5 -51.5q0 -51 33.5 -70t83.5 -20q36 0 72.5 -8.5t66.5 -27.5t48 -49t18 -74
q0 -28 -8.5 -52t-19.5 -37zM157 330q0 -33 14 -51.5t36 -27t48 -11.5t50.5 -5.5t42.5 -9.5q12 10 19 27.5t7 35.5q0 34 -19 53.5t-46 27.5t-53 8q-22 0 -42.5 3.5t-34.5 9.5q-10 -10 -16 -26.5t-6 -33.5z" />
    <glyph glyph-name="dieresis" unicode="&#xa8;" horiz-adv-x="368" 
d="M66 624v102h74v-102h-74zM228 624v102h74v-102h-74z" />
    <glyph glyph-name="copyright" unicode="&#xa9;" horiz-adv-x="836" 
d="M416 -7q-79 0 -146.5 27t-117.5 76t-77.5 115t-27.5 144q0 77 27.5 143t77.5 114.5t117.5 75.5t146.5 27q80 0 148 -27t118.5 -75.5t78.5 -114.5t28 -143q0 -78 -28 -144t-78.5 -115t-118.5 -76t-148 -27zM416 37q69 0 128 23t103.5 65t69.5 100t25 128q0 68 -24.5 126
t-68.5 101t-103.5 67t-129.5 24q-69 0 -128 -24t-102.5 -67t-68 -100.5t-24.5 -125.5q0 -67 24 -124.5t68 -101t103 -67.5t128 -24zM424 121q-49 0 -92 17t-76 48t-52 74t-19 95q0 43 14.5 85t43.5 76t73 54t103 20q70 0 123.5 -30t77.5 -86l-85 -27q-12 27 -32.5 41.5
t-42.5 20t-41 5.5q-36 0 -63 -13.5t-45 -36.5t-27 -51t-9 -58q0 -38 13 -67.5t34.5 -49.5t47.5 -30.5t51 -10.5q23 0 46.5 8.5t43.5 24t30 37.5l85 -26q-11 -27 -38.5 -54.5t-69 -46.5t-94.5 -19z" />
    <glyph glyph-name="ordfeminine" unicode="&#xaa;" horiz-adv-x="438" 
d="M165 344q-50 0 -84.5 32t-34.5 79q0 50 42 81t107 31q56 0 96 -17v25q0 40 -23 63t-66 23q-28 0 -55.5 -10.5t-57.5 -30.5l-23 45q70 46 142 46t113 -37t41 -107v-131q0 -12 5 -17.5t16 -6.5v-62q-10 -1 -16.5 -2t-14.5 -1q-22 0 -34.5 11t-14.5 28l-1 23
q-25 -31 -60.5 -48t-76.5 -17zM185 397q29 0 54.5 10.5t38.5 27.5q13 12 13 26v48q-19 8 -41 11.5t-43 3.5q-42 0 -68 -17t-26 -46q0 -27 20.5 -45.5t51.5 -18.5z" />
    <glyph glyph-name="guillemotleft" unicode="&#xab;" horiz-adv-x="596" 
d="M40 280l253 181v-74l-182 -128l182 -125v-74l-253 174v46zM282 280l253 181v-74l-182 -128l182 -125v-74l-253 174v46z" />
    <glyph glyph-name="logicalnot" unicode="&#xac;" horiz-adv-x="591" 
d="M521 375v-255h-76v175h-378v80h454z" />
    <glyph glyph-name="uni00AD" unicode="&#xad;" horiz-adv-x="582" 
d="M64 233v80h454v-80h-454z" />
    <glyph glyph-name="registered" unicode="&#xae;" horiz-adv-x="836" 
d="M417 -7q-80 0 -147.5 27t-117.5 76t-77.5 115t-27.5 144q0 77 27.5 143t77.5 114.5t117.5 75.5t147.5 27t148 -27t118 -75.5t78 -114.5t28 -143q0 -78 -28 -144t-78 -115t-118 -76t-148 -27zM417 36q91 0 164.5 40.5t116.5 112t43 165.5q0 67 -24 124.5t-68 101
t-103 67.5t-129 24t-128.5 -24t-102 -67t-67.5 -100.5t-24 -124.5t24 -125.5t67.5 -101.5t102 -67.5t128.5 -24.5zM262 579h192q40 0 70.5 -21.5t48 -54.5t17.5 -68q0 -31 -12 -58.5t-33.5 -47.5t-50.5 -27l109 -172h-73l-102 162h-101v-162h-65v449zM451 349
q36 0 55.5 24.5t19.5 61.5q0 38 -22.5 61.5t-55.5 23.5h-121v-171h124z" />
    <glyph glyph-name="macron" unicode="&#xaf;" horiz-adv-x="403" 
d="M56 654v58h292v-58h-292z" />
    <glyph glyph-name="degree" unicode="&#xb0;" horiz-adv-x="272" 
d="M47 637q0 37 26 62t63 25q38 0 63.5 -25t25.5 -62q0 -40 -25.5 -65.5t-63.5 -25.5q-37 0 -63 26t-26 65zM106 665q-12 -14 -12 -30q0 -17 12 -29q13 -13 30 -13q19 0 30 13q5 5 8.5 13t3.5 16q0 9 -3.5 16.5t-8.5 13.5t-13.5 9t-16.5 3q-18 0 -30 -12z" />
    <glyph glyph-name="plusminus" unicode="&#xb1;" horiz-adv-x="466" 
d="M67 51v72h332v-72h-332zM399 404v-72h-126v-136h-80v136h-126v72h126v136h80v-136h126z" />
    <glyph glyph-name="uni00B2" unicode="&#xb2;" horiz-adv-x="396" 
d="M34 400q0 53 13.5 88t41.5 59t72 41q31 12 62.5 24t52.5 30t21 47t-24.5 48.5t-72.5 19.5q-32 0 -56.5 -8.5t-41.5 -21t-28 -23.5l-36 39q7 9 28 25.5t57 29.5t85 13q75 0 113 -34.5t38 -88.5q0 -31 -13.5 -53t-35 -36t-45.5 -23.5t-44 -15.5q-41 -13 -62.5 -31.5
t-29.5 -37.5t-8 -37h231v-54h-318z" />
    <glyph glyph-name="uni00B3" unicode="&#xb3;" horiz-adv-x="394" 
d="M190 394q-62 0 -105 23t-53 63l32 38q2 -14 18 -30t43.5 -27t63.5 -11q47 0 79.5 17.5t32.5 47.5q0 33 -40.5 50.5t-108.5 17.5h-23v51h23q62 0 98.5 15.5t36.5 46.5q0 30 -30.5 47t-69.5 17q-40 0 -69.5 -15t-45.5 -39l-37 43q13 20 36.5 33.5t53.5 21t62 7.5
q46 0 81.5 -14.5t56.5 -40t21 -57.5q0 -34 -24 -56.5t-68 -31.5q47 -7 75 -36t28 -68q0 -36 -23.5 -61.5t-61.5 -38.5t-82 -13z" />
    <glyph glyph-name="acute" unicode="&#xb4;" horiz-adv-x="232" 
d="M106 609l-58 20l58 101h88z" />
    <glyph glyph-name="uni00B5" unicode="&#xb5;" horiz-adv-x="628" 
d="M78 522h88v-296q0 -80 28 -120t85 -40q35 0 68.5 15.5t60.5 44.5t42 69v327h88v-414q0 -16 6.5 -23.5t21.5 -8.5v-76q-15 -2 -24 -2.5t-17 -0.5q-28 0 -45.5 18.5t-17.5 41.5v55q-16 -32 -45 -60t-66 -45t-77 -17q-30 0 -53 10.5t-37.5 28t-22.5 38.5l5 -279h-88v734z
" />
    <glyph glyph-name="paragraph" unicode="&#xb6;" horiz-adv-x="618" 
d="M35 465q0 116 74.5 180.5t207.5 64.5h257v-68h-70v-722h-76v304h-67v-304h-76v304q-76 1 -132.5 30.5t-87 83.5t-30.5 127zM110 467q0 -57 24 -94.5t64 -57.5t87 -23v350q-85 -1 -130 -48t-45 -127zM428 642h-67v-350h67v350z" />
    <glyph glyph-name="periodcentered" unicode="&#xb7;" horiz-adv-x="202" 
d="M64 245v124h74v-124h-74z" />
    <glyph glyph-name="cedilla" unicode="&#xb8;" horiz-adv-x="296" 
d="M149 -186q-26 0 -56.5 7t-59.5 21l24 49q20 -10 37.5 -16t39.5 -6q31 0 48 12.5t17 36.5q0 25 -17.5 44t-49.5 38l32 23q41 -25 66 -52t25 -68t-28 -65t-78 -24z" />
    <glyph glyph-name="uni00B9" unicode="&#xb9;" horiz-adv-x="280" 
d="M259 455v-55h-210v55h80v294q-7 -8 -23.5 -20t-36 -20.5t-35.5 -8.5v55q21 0 43 13.5t37 27.5t15 15h56v-356h74z" />
    <glyph glyph-name="ordmasculine" unicode="&#xba;" horiz-adv-x="448" 
d="M224 344q-55 0 -96 25.5t-63.5 67.5t-22.5 90q0 50 23 92t64 67t95 25q55 0 95.5 -25t63.5 -67t23 -92q0 -48 -22.5 -90t-63.5 -67.5t-96 -25.5zM114 526q0 -34 15 -61.5t40 -43.5t55 -16q31 0 55.5 16.5t39.5 44.5t15 62q0 35 -15 62t-39.5 43t-55.5 16q-30 0 -55 -16
t-40 -44t-15 -63z" />
    <glyph glyph-name="guillemotright" unicode="&#xbb;" horiz-adv-x="596" 
d="M556 234l-253 -174v74l182 125l-182 128v74l253 -181v-46zM314 234l-253 -174v74l182 125l-182 128v74l253 -181v-46z" />
    <glyph glyph-name="onequarter" unicode="&#xbc;" horiz-adv-x="826" 
d="M259 375v-55h-210v55h80v294q-7 -8 -23.5 -20t-36 -20.5t-35.5 -8.5v55q21 0 43 13.5t37 27.5t15 15h56v-356h74zM68 33l280 337l268 345l43 -37l-277 -335l-272 -348zM683 0v100h-226v53l243 253h38v-252h59v-54h-59v-100h-55zM514 154h171v180z" />
    <glyph glyph-name="onehalf" unicode="&#xbd;" horiz-adv-x="834" 
d="M481 0q0 53 13 88t40 59t70 41q30 12 60 23.5t50 29.5t20 47q0 30 -23.5 49.5t-69.5 19.5q-31 0 -54.5 -8.5t-40.5 -21t-27 -24.5l-34 40q6 9 26.5 25.5t55 29.5t82.5 13q72 0 108.5 -34.5t36.5 -89.5q0 -31 -13 -53t-33.5 -36t-43 -23t-42.5 -15q-40 -13 -61 -31.5
t-28 -37.5t-7 -37h229v-54h-314zM259 375v-55h-210v55h80v294q-7 -8 -23.5 -20t-36 -20.5t-35.5 -8.5v55q21 0 43 13.5t37 27.5t15 15h56v-356h74zM68 33l280 337l268 345l43 -37l-277 -335l-272 -348z" />
    <glyph glyph-name="threequarters" unicode="&#xbe;" horiz-adv-x="940" 
d="M190 314q-62 0 -105 23t-53 63l32 38q2 -14 18 -30t43.5 -27t63.5 -11q47 0 79.5 17.5t32.5 47.5q0 33 -40.5 50.5t-108.5 17.5h-23v51h23q62 0 98.5 15.5t36.5 46.5q0 30 -30.5 47t-69.5 17q-40 0 -69.5 -15t-45.5 -39l-37 43q13 20 36.5 33.5t53.5 21t62 7.5
q46 0 81.5 -14.5t56.5 -40t21 -57.5q0 -34 -24 -56.5t-68 -31.5q47 -7 75 -36t28 -68q0 -36 -23.5 -61.5t-61.5 -38.5t-82 -13zM182 33l280 337l268 345l43 -37l-277 -335l-272 -348zM797 0v100h-226v53l243 253h38v-252h59v-54h-59v-100h-55zM628 154h171v180z" />
    <glyph glyph-name="questiondown" unicode="&#xbf;" horiz-adv-x="473" 
d="M331 295q0 -36 -8.5 -66t-26.5 -54t-49 -44q-18 -12 -41.5 -25t-45 -30.5t-35.5 -42t-14 -58.5q0 -37 17.5 -63t46 -39t59.5 -13q34 0 62.5 13t50.5 35t35 47l59 -39q-18 -41 -50.5 -70t-73.5 -44t-85 -15q-37 0 -72.5 11.5t-64 35.5t-45.5 60t-17 85q0 38 10 65t27.5 47
t40.5 35t48 29t47 29.5t36.5 41t14.5 69.5h74zM329 506v-116h-74v116h74z" />
    <glyph glyph-name="Agrave" unicode="&#xc0;" horiz-adv-x="677" 
d="M301 710h76l290 -710h-96l-84 208h-298l-83 -208h-96zM467 278l-128 328l-132 -328h260zM235 917h87l59 -101l-57 -20z" />
    <glyph glyph-name="Aacute" unicode="&#xc1;" horiz-adv-x="677" 
d="M301 710h76l290 -710h-96l-84 208h-298l-83 -208h-96zM467 278l-128 328l-132 -328h260zM370 795l-58 20l58 101h88z" />
    <glyph glyph-name="Acircumflex" unicode="&#xc2;" horiz-adv-x="677" 
d="M301 710h76l290 -710h-96l-84 208h-298l-83 -208h-96zM467 278l-128 328l-132 -328h260zM206 826l101 90h64l101 -90l-48 -24l-85 63l-85 -63z" />
    <glyph glyph-name="Atilde" unicode="&#xc3;" horiz-adv-x="677" 
d="M301 710h76l290 -710h-96l-84 208h-298l-83 -208h-96zM467 278l-128 328l-132 -328h260zM401 813q-30 0 -51 10.5t-38.5 21t-39.5 10.5t-32.5 -11t-13.5 -23t-3 -14h-52q0 6 4.5 22.5t15.5 35t30 32t49 13.5q29 0 48.5 -10.5t38 -21.5t42.5 -11q26 0 37.5 11.5t15 23.5
t3.5 14h52q0 -6 -4.5 -22t-16.5 -35t-32.5 -32.5t-52.5 -13.5z" />
    <glyph glyph-name="Adieresis" unicode="&#xc4;" horiz-adv-x="677" 
d="M301 710h76l290 -710h-96l-84 208h-298l-83 -208h-96zM467 278l-128 328l-132 -328h260zM221 811v102h74v-102h-74zM383 811v102h74v-102h-74z" />
    <glyph glyph-name="Aring" unicode="&#xc5;" horiz-adv-x="677" 
d="M301 710h76l290 -710h-96l-84 208h-298l-83 -208h-96zM467 278l-128 328l-132 -328h260zM244 851q0 40 27 64t68 24q42 0 68.5 -24t26.5 -64q0 -39 -26.5 -62.5t-68.5 -23.5q-41 0 -68 23.5t-27 62.5zM339 899q-19 0 -33 -12.5t-14 -35.5q0 -20 13.5 -33.5t33.5 -13.5
q19 0 33.5 13t14.5 34q0 23 -14 35.5t-34 12.5z" />
    <glyph glyph-name="AE" unicode="&#xc6;" horiz-adv-x="961" 
d="M428 710h488v-80h-375v-228h321v-80h-321v-242h384v-80h-473v208h-249l-130 -208h-98zM446 288v317l-203 -317h203z" />
    <glyph glyph-name="Ccedilla" unicode="&#xc7;" horiz-adv-x="682" 
d="M39 360q0 65 22.5 127.5t66 114t106.5 82t143 30.5q95 0 163 -43.5t101 -111.5l-71 -46q-21 45 -53.5 71.5t-70 37.5t-73.5 11q-59 0 -104.5 -24t-76.5 -64t-46.5 -89.5t-15.5 -99.5q0 -55 18.5 -106t51.5 -90t78 -62t98 -23q37 0 76 13t73 40.5t54 71.5l75 -41
q-22 -53 -68 -90t-102.5 -56t-111.5 -19q-73 0 -134 31.5t-105.5 84t-69 118t-24.5 132.5zM361 -186q-26 0 -56.5 7t-59.5 21l24 49q20 -10 37.5 -16t39.5 -6q31 0 48 12.5t17 36.5q0 25 -17.5 44t-49.5 38l32 23q41 -25 66 -52t25 -68t-28 -65t-78 -24z" />
    <glyph glyph-name="Egrave" unicode="&#xc8;" horiz-adv-x="605" 
d="M567 80v-80h-482v710h473v-80h-383v-230h333v-75h-333v-245h392zM230 917h87l59 -101l-57 -20z" />
    <glyph glyph-name="Eacute" unicode="&#xc9;" horiz-adv-x="605" 
d="M567 80v-80h-482v710h473v-80h-383v-230h333v-75h-333v-245h392zM365 795l-58 20l58 101h88z" />
    <glyph glyph-name="Ecircumflex" unicode="&#xca;" horiz-adv-x="605" 
d="M567 80v-80h-482v710h473v-80h-383v-230h333v-75h-333v-245h392zM201 826l101 90h64l101 -90l-48 -24l-85 63l-85 -63z" />
    <glyph glyph-name="Edieresis" unicode="&#xcb;" horiz-adv-x="605" 
d="M567 80v-80h-482v710h473v-80h-383v-230h333v-75h-333v-245h392zM216 811v102h74v-102h-74zM378 811v102h74v-102h-74z" />
    <glyph glyph-name="Igrave" unicode="&#xcc;" horiz-adv-x="260" 
d="M85 0v710h90v-710h-90zM26 917h87l59 -101l-57 -20z" />
    <glyph glyph-name="Iacute" unicode="&#xcd;" horiz-adv-x="260" 
d="M85 0v710h90v-710h-90zM161 795l-58 20l58 101h88z" />
    <glyph glyph-name="Icircumflex" unicode="&#xce;" horiz-adv-x="260" 
d="M85 0v710h90v-710h-90zM-3 826l101 90h64l101 -90l-48 -24l-85 63l-85 -63z" />
    <glyph glyph-name="Idieresis" unicode="&#xcf;" horiz-adv-x="260" 
d="M85 0v710h90v-710h-90zM12 811v102h74v-102h-74zM174 811v102h74v-102h-74z" />
    <glyph glyph-name="Eth" unicode="&#xd0;" horiz-adv-x="722" 
d="M34 323v68h308v-68h-308zM91 0v710h246q114 0 190.5 -47.5t114.5 -128t38 -178.5q0 -108 -42 -188t-119 -124t-182 -44h-246zM589 356q0 80 -29.5 142t-85.5 97t-137 35h-156v-550h156q82 0 138 36.5t85 99t29 140.5z" />
    <glyph glyph-name="Ntilde" unicode="&#xd1;" horiz-adv-x="770" 
d="M175 544v-544h-90v710h76l434 -555v554h90v-709h-82zM449 813q-30 0 -51 10.5t-38.5 21t-39.5 10.5t-32.5 -11t-13.5 -23t-3 -14h-52q0 6 4.5 22.5t15.5 35t30 32t49 13.5q29 0 48.5 -10.5t38 -21.5t42.5 -11q26 0 37.5 11.5t15 23.5t3.5 14h52q0 -6 -4.5 -22t-16.5 -35
t-32.5 -32.5t-52.5 -13.5z" />
    <glyph glyph-name="Ograve" unicode="&#xd2;" horiz-adv-x="748" 
d="M373 -5q-75 0 -136 30t-105.5 81.5t-68.5 116t-24 132.5q0 71 25.5 135.5t71 115t106.5 80t133 29.5q75 0 136 -31t105 -83t68 -116t24 -131q0 -71 -25 -135.5t-70.5 -115t-106.5 -79.5t-133 -29zM130 355q0 -54 17.5 -104.5t49.5 -89.5t77 -62t100 -23q57 0 102 24
t76.5 64t48 90t16.5 101q0 54 -17.5 104t-50 89.5t-77 62t-98.5 22.5q-57 0 -102 -23.5t-76.5 -63.5t-48.5 -89.5t-17 -101.5zM271 917h87l59 -101l-57 -20z" />
    <glyph glyph-name="Oacute" unicode="&#xd3;" horiz-adv-x="748" 
d="M373 -5q-75 0 -136 30t-105.5 81.5t-68.5 116t-24 132.5q0 71 25.5 135.5t71 115t106.5 80t133 29.5q75 0 136 -31t105 -83t68 -116t24 -131q0 -71 -25 -135.5t-70.5 -115t-106.5 -79.5t-133 -29zM130 355q0 -54 17.5 -104.5t49.5 -89.5t77 -62t100 -23q57 0 102 24
t76.5 64t48 90t16.5 101q0 54 -17.5 104t-50 89.5t-77 62t-98.5 22.5q-57 0 -102 -23.5t-76.5 -63.5t-48.5 -89.5t-17 -101.5zM406 795l-58 20l58 101h88z" />
    <glyph glyph-name="Ocircumflex" unicode="&#xd4;" horiz-adv-x="748" 
d="M373 -5q-75 0 -136 30t-105.5 81.5t-68.5 116t-24 132.5q0 71 25.5 135.5t71 115t106.5 80t133 29.5q75 0 136 -31t105 -83t68 -116t24 -131q0 -71 -25 -135.5t-70.5 -115t-106.5 -79.5t-133 -29zM130 355q0 -54 17.5 -104.5t49.5 -89.5t77 -62t100 -23q57 0 102 24
t76.5 64t48 90t16.5 101q0 54 -17.5 104t-50 89.5t-77 62t-98.5 22.5q-57 0 -102 -23.5t-76.5 -63.5t-48.5 -89.5t-17 -101.5zM242 826l101 90h64l101 -90l-48 -24l-85 63l-85 -63z" />
    <glyph glyph-name="Otilde" unicode="&#xd5;" horiz-adv-x="748" 
d="M373 -5q-75 0 -136 30t-105.5 81.5t-68.5 116t-24 132.5q0 71 25.5 135.5t71 115t106.5 80t133 29.5q75 0 136 -31t105 -83t68 -116t24 -131q0 -71 -25 -135.5t-70.5 -115t-106.5 -79.5t-133 -29zM130 355q0 -54 17.5 -104.5t49.5 -89.5t77 -62t100 -23q57 0 102 24
t76.5 64t48 90t16.5 101q0 54 -17.5 104t-50 89.5t-77 62t-98.5 22.5q-57 0 -102 -23.5t-76.5 -63.5t-48.5 -89.5t-17 -101.5zM437 813q-30 0 -51 10.5t-38.5 21t-39.5 10.5t-32.5 -11t-13.5 -23t-3 -14h-52q0 6 4.5 22.5t15.5 35t30 32t49 13.5q29 0 48.5 -10.5t38 -21.5
t42.5 -11q26 0 37.5 11.5t15 23.5t3.5 14h52q0 -6 -4.5 -22t-16.5 -35t-32.5 -32.5t-52.5 -13.5z" />
    <glyph glyph-name="Odieresis" unicode="&#xd6;" horiz-adv-x="748" 
d="M373 -5q-75 0 -136 30t-105.5 81.5t-68.5 116t-24 132.5q0 71 25.5 135.5t71 115t106.5 80t133 29.5q75 0 136 -31t105 -83t68 -116t24 -131q0 -71 -25 -135.5t-70.5 -115t-106.5 -79.5t-133 -29zM130 355q0 -54 17.5 -104.5t49.5 -89.5t77 -62t100 -23q57 0 102 24
t76.5 64t48 90t16.5 101q0 54 -17.5 104t-50 89.5t-77 62t-98.5 22.5q-57 0 -102 -23.5t-76.5 -63.5t-48.5 -89.5t-17 -101.5zM257 811v102h74v-102h-74zM419 811v102h74v-102h-74z" />
    <glyph glyph-name="multiply" unicode="&#xd7;" horiz-adv-x="464" 
d="M404 157l-56 -55l-116 116l-116 -116l-55 56l115 115l-113 114l56 55l113 -113l114 114l55 -56l-113 -114z" />
    <glyph glyph-name="Oslash" unicode="&#xd8;" horiz-adv-x="748" 
d="M373 -5q-75 0 -136 30t-105.5 81.5t-68.5 116t-24 132.5q0 71 25.5 135.5t71 115t106.5 80t133 29.5q75 0 136 -31t105 -83t68 -116t24 -131q0 -71 -25 -135.5t-70.5 -115t-106.5 -79.5t-133 -29zM130 355q0 -54 17.5 -104.5t49.5 -89.5t77 -62t100 -23q57 0 102 24
t76.5 64t48 90t16.5 101q0 54 -17.5 104t-50 89.5t-77 62t-98.5 22.5q-57 0 -102 -23.5t-76.5 -63.5t-48.5 -89.5t-17 -101.5zM663 710l-480 -710h-98l479 710h99z" />
    <glyph glyph-name="Ugrave" unicode="&#xd9;" horiz-adv-x="755" 
d="M378 -5q-85 0 -143 29.5t-93 80t-51 114.5t-16 132v359h90v-359q0 -52 10.5 -101.5t34.5 -88.5t65 -62t102 -23q62 0 103 23.5t65 63t34.5 88.5t10.5 100v359h90v-359q0 -72 -16.5 -136.5t-52.5 -113.5t-93.5 -77.5t-139.5 -28.5zM274 917h87l59 -101l-57 -20z" />
    <glyph glyph-name="Uacute" unicode="&#xda;" horiz-adv-x="755" 
d="M378 -5q-85 0 -143 29.5t-93 80t-51 114.5t-16 132v359h90v-359q0 -52 10.5 -101.5t34.5 -88.5t65 -62t102 -23q62 0 103 23.5t65 63t34.5 88.5t10.5 100v359h90v-359q0 -72 -16.5 -136.5t-52.5 -113.5t-93.5 -77.5t-139.5 -28.5zM409 795l-58 20l58 101h88z" />
    <glyph glyph-name="Ucircumflex" unicode="&#xdb;" horiz-adv-x="755" 
d="M378 -5q-85 0 -143 29.5t-93 80t-51 114.5t-16 132v359h90v-359q0 -52 10.5 -101.5t34.5 -88.5t65 -62t102 -23q62 0 103 23.5t65 63t34.5 88.5t10.5 100v359h90v-359q0 -72 -16.5 -136.5t-52.5 -113.5t-93.5 -77.5t-139.5 -28.5zM245 826l101 90h64l101 -90l-48 -24
l-85 63l-85 -63z" />
    <glyph glyph-name="Udieresis" unicode="&#xdc;" horiz-adv-x="755" 
d="M378 -5q-85 0 -143 29.5t-93 80t-51 114.5t-16 132v359h90v-359q0 -52 10.5 -101.5t34.5 -88.5t65 -62t102 -23q62 0 103 23.5t65 63t34.5 88.5t10.5 100v359h90v-359q0 -72 -16.5 -136.5t-52.5 -113.5t-93.5 -77.5t-139.5 -28.5zM260 811v102h74v-102h-74zM422 811v102
h74v-102h-74z" />
    <glyph glyph-name="Yacute" unicode="&#xdd;" horiz-adv-x="655" 
d="M112 710l215 -370l217 370h98l-270 -451v-259h-90v261l-269 449h99zM358 795l-58 20l58 101h88z" />
    <glyph glyph-name="Thorn" unicode="&#xde;" horiz-adv-x="604" 
d="M363 573q47 0 86 -19.5t68 -52t45 -73t16 -82.5q0 -59 -26 -111t-73 -84.5t-110 -32.5h-194v-118h-90v710h90v-137h188zM365 198q38 0 65.5 21t42.5 55t15 72q0 40 -17.5 73.5t-47 53.5t-64.5 20h-184v-295h190z" />
    <glyph glyph-name="germandbls" unicode="&#xdf;" horiz-adv-x="553" 
d="M241 75q82 2 134 34.5t52 105.5q0 43 -19 75t-53 49.5t-79 17.5h-19v80h18q32 0 56.5 13t38 36t13.5 54q0 34 -15 55.5t-39.5 32t-53.5 10.5q-41 0 -68 -19t-39.5 -49.5t-12.5 -66.5v-503h-84v517q0 58 27 102.5t73.5 69.5t106.5 25q54 0 96.5 -20t67.5 -56.5t25 -84.5
q0 -35 -13.5 -67t-36 -54t-50.5 -30q71 -15 111 -69t40 -125q0 -51 -20.5 -90.5t-57.5 -66t-88 -41t-111 -16.5v81z" />
    <glyph glyph-name="agrave" unicode="&#xe0;" horiz-adv-x="554" 
d="M30 151q0 50 28.5 86.5t78.5 56.5t116 20q35 0 74 -5.5t69 -16.5v38q0 60 -36 94.5t-102 34.5q-43 0 -82.5 -15.5t-83.5 -44.5l-32 62q51 35 102 52.5t106 17.5q100 0 158 -55.5t58 -154.5v-221q0 -16 6.5 -23.5t21.5 -8.5v-68q-13 -2 -22.5 -3t-15.5 -1q-31 0 -46.5 17
t-17.5 36l-2 33q-34 -44 -89 -68t-109 -24q-52 0 -93 21.5t-64 58t-23 81.5zM370 114q12 14 19 28.5t7 24.5v65q-31 12 -65 18.5t-67 6.5q-67 0 -108.5 -26.5t-41.5 -72.5q0 -25 13.5 -48.5t40 -38.5t65.5 -15q41 0 78 16.5t59 41.5zM162 731h87l59 -101l-57 -20z" />
    <glyph glyph-name="aacute" unicode="&#xe1;" horiz-adv-x="554" 
d="M30 151q0 50 28.5 86.5t78.5 56.5t116 20q35 0 74 -5.5t69 -16.5v38q0 60 -36 94.5t-102 34.5q-43 0 -82.5 -15.5t-83.5 -44.5l-32 62q51 35 102 52.5t106 17.5q100 0 158 -55.5t58 -154.5v-221q0 -16 6.5 -23.5t21.5 -8.5v-68q-13 -2 -22.5 -3t-15.5 -1q-31 0 -46.5 17
t-17.5 36l-2 33q-34 -44 -89 -68t-109 -24q-52 0 -93 21.5t-64 58t-23 81.5zM370 114q12 14 19 28.5t7 24.5v65q-31 12 -65 18.5t-67 6.5q-67 0 -108.5 -26.5t-41.5 -72.5q0 -25 13.5 -48.5t40 -38.5t65.5 -15q41 0 78 16.5t59 41.5zM297 609l-58 20l58 101h88z" />
    <glyph glyph-name="acircumflex" unicode="&#xe2;" horiz-adv-x="554" 
d="M30 151q0 50 28.5 86.5t78.5 56.5t116 20q35 0 74 -5.5t69 -16.5v38q0 60 -36 94.5t-102 34.5q-43 0 -82.5 -15.5t-83.5 -44.5l-32 62q51 35 102 52.5t106 17.5q100 0 158 -55.5t58 -154.5v-221q0 -16 6.5 -23.5t21.5 -8.5v-68q-13 -2 -22.5 -3t-15.5 -1q-31 0 -46.5 17
t-17.5 36l-2 33q-34 -44 -89 -68t-109 -24q-52 0 -93 21.5t-64 58t-23 81.5zM370 114q12 14 19 28.5t7 24.5v65q-31 12 -65 18.5t-67 6.5q-67 0 -108.5 -26.5t-41.5 -72.5q0 -25 13.5 -48.5t40 -38.5t65.5 -15q41 0 78 16.5t59 41.5zM133 640l101 90h64l101 -90l-48 -24
l-85 63l-85 -63z" />
    <glyph glyph-name="atilde" unicode="&#xe3;" horiz-adv-x="554" 
d="M30 151q0 50 28.5 86.5t78.5 56.5t116 20q35 0 74 -5.5t69 -16.5v38q0 60 -36 94.5t-102 34.5q-43 0 -82.5 -15.5t-83.5 -44.5l-32 62q51 35 102 52.5t106 17.5q100 0 158 -55.5t58 -154.5v-221q0 -16 6.5 -23.5t21.5 -8.5v-68q-13 -2 -22.5 -3t-15.5 -1q-31 0 -46.5 17
t-17.5 36l-2 33q-34 -44 -89 -68t-109 -24q-52 0 -93 21.5t-64 58t-23 81.5zM370 114q12 14 19 28.5t7 24.5v65q-31 12 -65 18.5t-67 6.5q-67 0 -108.5 -26.5t-41.5 -72.5q0 -25 13.5 -48.5t40 -38.5t65.5 -15q41 0 78 16.5t59 41.5zM328 627q-30 0 -51 10.5t-38.5 21
t-39.5 10.5t-32.5 -11t-13.5 -23t-3 -14h-52q0 6 4.5 22.5t15.5 35t30 32t49 13.5q29 0 48.5 -10.5t38 -21.5t42.5 -11q26 0 37.5 11.5t15 23.5t3.5 14h52q0 -6 -4.5 -22t-16.5 -35t-32.5 -32.5t-52.5 -13.5z" />
    <glyph glyph-name="adieresis" unicode="&#xe4;" horiz-adv-x="554" 
d="M30 151q0 50 28.5 86.5t78.5 56.5t116 20q35 0 74 -5.5t69 -16.5v38q0 60 -36 94.5t-102 34.5q-43 0 -82.5 -15.5t-83.5 -44.5l-32 62q51 35 102 52.5t106 17.5q100 0 158 -55.5t58 -154.5v-221q0 -16 6.5 -23.5t21.5 -8.5v-68q-13 -2 -22.5 -3t-15.5 -1q-31 0 -46.5 17
t-17.5 36l-2 33q-34 -44 -89 -68t-109 -24q-52 0 -93 21.5t-64 58t-23 81.5zM370 114q12 14 19 28.5t7 24.5v65q-31 12 -65 18.5t-67 6.5q-67 0 -108.5 -26.5t-41.5 -72.5q0 -25 13.5 -48.5t40 -38.5t65.5 -15q41 0 78 16.5t59 41.5zM148 625v102h74v-102h-74zM310 625v102
h74v-102h-74z" />
    <glyph glyph-name="aring" unicode="&#xe5;" horiz-adv-x="554" 
d="M30 151q0 50 28.5 86.5t78.5 56.5t116 20q35 0 74 -5.5t69 -16.5v38q0 60 -36 94.5t-102 34.5q-43 0 -82.5 -15.5t-83.5 -44.5l-32 62q51 35 102 52.5t106 17.5q100 0 158 -55.5t58 -154.5v-221q0 -16 6.5 -23.5t21.5 -8.5v-68q-13 -2 -22.5 -3t-15.5 -1q-31 0 -46.5 17
t-17.5 36l-2 33q-34 -44 -89 -68t-109 -24q-52 0 -93 21.5t-64 58t-23 81.5zM370 114q12 14 19 28.5t7 24.5v65q-31 12 -65 18.5t-67 6.5q-67 0 -108.5 -26.5t-41.5 -72.5q0 -25 13.5 -48.5t40 -38.5t65.5 -15q41 0 78 16.5t59 41.5zM171 665q0 40 27 64t68 24
q42 0 68.5 -24t26.5 -64q0 -39 -26.5 -62.5t-68.5 -23.5q-41 0 -68 23.5t-27 62.5zM266 713q-19 0 -33 -12.5t-14 -35.5q0 -20 13.5 -33.5t33.5 -13.5q19 0 33.5 13t14.5 34q0 23 -14 35.5t-34 12.5z" />
    <glyph glyph-name="ae" unicode="&#xe6;" horiz-adv-x="933" 
d="M204 -10q-49 0 -88.5 21.5t-62.5 58.5t-23 83q0 48 28 84t77.5 56.5t113.5 20.5q34 0 67.5 -5.5t61.5 -14.5q2 16 5 34t9 32q-7 50 -42 78.5t-93 28.5q-40 0 -81 -15.5t-85 -45.5l-29 57q103 68 203 68q64 0 110 -25t71 -70q33 43 83.5 69t111.5 26q79 0 138.5 -37
t93 -98t33.5 -135q0 -6 -0.5 -15.5t-1.5 -14.5h-443q4 -51 30 -90.5t67 -62t89 -22.5t90.5 24t58.5 63l76 -21q-17 -38 -50.5 -68t-79 -47t-98.5 -17q-70 0 -126.5 31t-91.5 82q-22 -40 -59.5 -65t-80.5 -36.5t-82 -11.5zM227 56q47 0 87.5 17.5t62.5 46.5q17 17 19 35
q-8 17 -12.5 42.5t-5.5 44.5q-27 9 -57 14t-59 5q-66 0 -107.5 -28t-41.5 -73q0 -29 15 -53t41 -37.5t58 -13.5zM822 288q-4 52 -28.5 92t-64 62.5t-89.5 22.5q-49 0 -89 -23t-64 -62.5t-27 -91.5h362z" />
    <glyph glyph-name="ccedilla" unicode="&#xe7;" horiz-adv-x="554" 
d="M302 -10q-59 0 -107.5 21.5t-84 59.5t-55 87t-19.5 104q0 74 33 135t93 97.5t139 36.5q77 0 134.5 -34.5t85.5 -92.5l-86 -27q-20 37 -56 57.5t-80 20.5q-48 0 -87.5 -25t-62.5 -68.5t-23 -99.5q0 -55 23.5 -99.5t63 -70.5t87.5 -26q31 0 59.5 11t50 29.5t29.5 40.5
l86 -26q-16 -38 -48.5 -67.5t-77 -46.5t-97.5 -17zM290 -186q-26 0 -56.5 7t-59.5 21l24 49q20 -10 37.5 -16t39.5 -6q31 0 48 12.5t17 36.5q0 25 -17.5 44t-49.5 38l32 23q41 -25 66 -52t25 -68t-28 -65t-78 -24z" />
    <glyph glyph-name="egrave" unicode="&#xe8;" horiz-adv-x="591" 
d="M302 -10q-59 0 -107.5 21.5t-84 59t-55 86.5t-19.5 104q0 74 34 135t94.5 98t138.5 37q79 0 137.5 -37.5t91 -98t32.5 -130.5q0 -10 -0.5 -19.5t-1.5 -14.5h-433q4 -51 28.5 -90.5t63.5 -62t84 -22.5q48 0 90.5 24t58.5 63l76 -21q-17 -38 -50.5 -68t-79 -47t-98.5 -17z
M126 292h356q-4 51 -29 90t-64 61t-86 22q-46 0 -85 -22t-63.5 -61t-28.5 -90zM195 731h87l59 -101l-57 -20z" />
    <glyph glyph-name="eacute" unicode="&#xe9;" horiz-adv-x="591" 
d="M302 -10q-59 0 -107.5 21.5t-84 59t-55 86.5t-19.5 104q0 74 34 135t94.5 98t138.5 37q79 0 137.5 -37.5t91 -98t32.5 -130.5q0 -10 -0.5 -19.5t-1.5 -14.5h-433q4 -51 28.5 -90.5t63.5 -62t84 -22.5q48 0 90.5 24t58.5 63l76 -21q-17 -38 -50.5 -68t-79 -47t-98.5 -17z
M126 292h356q-4 51 -29 90t-64 61t-86 22q-46 0 -85 -22t-63.5 -61t-28.5 -90zM330 609l-58 20l58 101h88z" />
    <glyph glyph-name="ecircumflex" unicode="&#xea;" horiz-adv-x="591" 
d="M302 -10q-59 0 -107.5 21.5t-84 59t-55 86.5t-19.5 104q0 74 34 135t94.5 98t138.5 37q79 0 137.5 -37.5t91 -98t32.5 -130.5q0 -10 -0.5 -19.5t-1.5 -14.5h-433q4 -51 28.5 -90.5t63.5 -62t84 -22.5q48 0 90.5 24t58.5 63l76 -21q-17 -38 -50.5 -68t-79 -47t-98.5 -17z
M126 292h356q-4 51 -29 90t-64 61t-86 22q-46 0 -85 -22t-63.5 -61t-28.5 -90zM166 640l101 90h64l101 -90l-48 -24l-85 63l-85 -63z" />
    <glyph glyph-name="edieresis" unicode="&#xeb;" horiz-adv-x="591" 
d="M302 -10q-59 0 -107.5 21.5t-84 59t-55 86.5t-19.5 104q0 74 34 135t94.5 98t138.5 37q79 0 137.5 -37.5t91 -98t32.5 -130.5q0 -10 -0.5 -19.5t-1.5 -14.5h-433q4 -51 28.5 -90.5t63.5 -62t84 -22.5q48 0 90.5 24t58.5 63l76 -21q-17 -38 -50.5 -68t-79 -47t-98.5 -17z
M126 292h356q-4 51 -29 90t-64 61t-86 22q-46 0 -85 -22t-63.5 -61t-28.5 -90zM181 625v102h74v-102h-74zM343 625v102h74v-102h-74z" />
    <glyph glyph-name="igrave" unicode="&#xec;" horiz-adv-x="230" 
d="M71 0v522h88v-522h-88zM11 731h87l59 -101l-57 -20z" />
    <glyph glyph-name="iacute" unicode="&#xed;" horiz-adv-x="230" 
d="M71 0v522h88v-522h-88zM146 609l-58 20l58 101h88z" />
    <glyph glyph-name="icircumflex" unicode="&#xee;" horiz-adv-x="230" 
d="M71 0v522h88v-522h-88zM-18 640l101 90h64l101 -90l-48 -24l-85 63l-85 -63z" />
    <glyph glyph-name="idieresis" unicode="&#xef;" horiz-adv-x="230" 
d="M71 0v522h88v-522h-88zM-3 625v102h74v-102h-74zM159 625v102h74v-102h-74z" />
    <glyph glyph-name="eth" unicode="&#xf0;" horiz-adv-x="606" 
d="M566 290q0 -70 -21.5 -125.5t-59 -94.5t-86 -59.5t-102.5 -20.5q-70 0 -129 32.5t-94 87.5t-35 123q0 49 19 92.5t52.5 76.5t77.5 52t95 19q62 0 114 -29t79 -76q-8 48 -26.5 94t-52.5 91t-87.5 89.5t-132.5 87.5h124q76 -44 127 -99.5t81.5 -115t43.5 -117.5t13 -108z
M129 233q0 -46 23 -84t61.5 -60.5t86.5 -22.5q50 0 89.5 24t63 63.5t23.5 85.5t-23 82.5t-62 58t-87 21.5q-49 0 -88.5 -22.5t-63 -60.5t-23.5 -85zM505 676l-105 -62l-28 -10l-119 -72l-27 37l117 70l26 8l109 66z" />
    <glyph glyph-name="ntilde" unicode="&#xf1;" horiz-adv-x="590" 
d="M524 0h-88v292q0 83 -25.5 121.5t-77.5 38.5q-36 0 -71.5 -18t-63 -48.5t-39.5 -70.5v-315h-88v522h80v-112q21 37 54 64t75 42t88 15q45 0 75.5 -16.5t48 -46t25 -69.5t7.5 -87v-312zM365 627q-30 0 -51 10.5t-38.5 21t-39.5 10.5t-32.5 -11t-13.5 -23t-3 -14h-52
q0 6 4.5 22.5t15.5 35t30 32t49 13.5q29 0 48.5 -10.5t38 -21.5t42.5 -11q26 0 37.5 11.5t15 23.5t3.5 14h52q0 -6 -4.5 -22t-16.5 -35t-32.5 -32.5t-52.5 -13.5z" />
    <glyph glyph-name="ograve" unicode="&#xf2;" horiz-adv-x="599" 
d="M299 -10q-59 0 -107 21.5t-83 59t-54 86.5t-19 103q0 55 19 104t54 86.5t83.5 59t107.5 21.5q58 0 106 -21.5t83.5 -59t54.5 -86.5t19 -104q0 -54 -19 -103t-54 -86.5t-83.5 -59t-107.5 -21.5zM126 259q0 -54 23.5 -98t62.5 -69.5t87 -25.5t87.5 26t63 70.5t23.5 98.5
t-23.5 98t-63 70t-87.5 26t-87 -26.5t-62.5 -70.5t-23.5 -99zM195 731h87l59 -101l-57 -20z" />
    <glyph glyph-name="oacute" unicode="&#xf3;" horiz-adv-x="599" 
d="M299 -10q-59 0 -107 21.5t-83 59t-54 86.5t-19 103q0 55 19 104t54 86.5t83.5 59t107.5 21.5q58 0 106 -21.5t83.5 -59t54.5 -86.5t19 -104q0 -54 -19 -103t-54 -86.5t-83.5 -59t-107.5 -21.5zM126 259q0 -54 23.5 -98t62.5 -69.5t87 -25.5t87.5 26t63 70.5t23.5 98.5
t-23.5 98t-63 70t-87.5 26t-87 -26.5t-62.5 -70.5t-23.5 -99zM330 609l-58 20l58 101h88z" />
    <glyph glyph-name="ocircumflex" unicode="&#xf4;" horiz-adv-x="599" 
d="M299 -10q-59 0 -107 21.5t-83 59t-54 86.5t-19 103q0 55 19 104t54 86.5t83.5 59t107.5 21.5q58 0 106 -21.5t83.5 -59t54.5 -86.5t19 -104q0 -54 -19 -103t-54 -86.5t-83.5 -59t-107.5 -21.5zM126 259q0 -54 23.5 -98t62.5 -69.5t87 -25.5t87.5 26t63 70.5t23.5 98.5
t-23.5 98t-63 70t-87.5 26t-87 -26.5t-62.5 -70.5t-23.5 -99zM166 640l101 90h64l101 -90l-48 -24l-85 63l-85 -63z" />
    <glyph glyph-name="otilde" unicode="&#xf5;" horiz-adv-x="599" 
d="M299 -10q-59 0 -107 21.5t-83 59t-54 86.5t-19 103q0 55 19 104t54 86.5t83.5 59t107.5 21.5q58 0 106 -21.5t83.5 -59t54.5 -86.5t19 -104q0 -54 -19 -103t-54 -86.5t-83.5 -59t-107.5 -21.5zM126 259q0 -54 23.5 -98t62.5 -69.5t87 -25.5t87.5 26t63 70.5t23.5 98.5
t-23.5 98t-63 70t-87.5 26t-87 -26.5t-62.5 -70.5t-23.5 -99zM361 627q-30 0 -51 10.5t-38.5 21t-39.5 10.5t-32.5 -11t-13.5 -23t-3 -14h-52q0 6 4.5 22.5t15.5 35t30 32t49 13.5q29 0 48.5 -10.5t38 -21.5t42.5 -11q26 0 37.5 11.5t15 23.5t3.5 14h52q0 -6 -4.5 -22
t-16.5 -35t-32.5 -32.5t-52.5 -13.5z" />
    <glyph glyph-name="odieresis" unicode="&#xf6;" horiz-adv-x="599" 
d="M299 -10q-59 0 -107 21.5t-83 59t-54 86.5t-19 103q0 55 19 104t54 86.5t83.5 59t107.5 21.5q58 0 106 -21.5t83.5 -59t54.5 -86.5t19 -104q0 -54 -19 -103t-54 -86.5t-83.5 -59t-107.5 -21.5zM126 259q0 -54 23.5 -98t62.5 -69.5t87 -25.5t87.5 26t63 70.5t23.5 98.5
t-23.5 98t-63 70t-87.5 26t-87 -26.5t-62.5 -70.5t-23.5 -99zM181 625v102h74v-102h-74zM343 625v102h74v-102h-74z" />
    <glyph glyph-name="divide" unicode="&#xf7;" horiz-adv-x="533" 
d="M229 405v102h75v-102h-75zM229 66v102h75v-102h-75zM65 251v72h403v-72h-403z" />
    <glyph glyph-name="oslash" unicode="&#xf8;" horiz-adv-x="599" 
d="M299 -10q-59 0 -107 21.5t-83 59t-54 86.5t-19 103q0 55 19 104t54 86.5t83.5 59t106.5 21.5q59 0 107 -21.5t83.5 -59t54.5 -86.5t19 -104q0 -54 -19 -103t-54 -86.5t-83.5 -59t-107.5 -21.5zM299 66q48 0 87.5 26t63 70.5t23.5 98.5t-23.5 98t-63 70t-87.5 26
t-87 -26.5t-62.5 -70.5t-23.5 -99q0 -54 23.5 -98t62.5 -69.5t87 -25.5zM65 -2l77 96l51 -30l-53 -66h-75zM202 71l-49 27l245 357l54 -23zM463 437l-56 24l49 63h76z" />
    <glyph glyph-name="ugrave" unicode="&#xf9;" horiz-adv-x="601" 
d="M66 209v313h88v-296q0 -80 28 -120t83 -40q36 0 69.5 15.5t60.5 44.5t42 69v327h88v-422q0 -16 6.5 -23.5t21.5 -8.5v-68q-15 -2 -23.5 -2.5t-16.5 -0.5q-25 0 -43 15.5t-19 38.5l-2 61q-34 -58 -91.5 -90t-125.5 -32q-82 0 -124 55.5t-42 163.5zM190 731h87l59 -101
l-57 -20z" />
    <glyph glyph-name="uacute" unicode="&#xfa;" horiz-adv-x="601" 
d="M66 209v313h88v-296q0 -80 28 -120t83 -40q36 0 69.5 15.5t60.5 44.5t42 69v327h88v-422q0 -16 6.5 -23.5t21.5 -8.5v-68q-15 -2 -23.5 -2.5t-16.5 -0.5q-25 0 -43 15.5t-19 38.5l-2 61q-34 -58 -91.5 -90t-125.5 -32q-82 0 -124 55.5t-42 163.5zM325 609l-58 20l58 101
h88z" />
    <glyph glyph-name="ucircumflex" unicode="&#xfb;" horiz-adv-x="601" 
d="M66 209v313h88v-296q0 -80 28 -120t83 -40q36 0 69.5 15.5t60.5 44.5t42 69v327h88v-422q0 -16 6.5 -23.5t21.5 -8.5v-68q-15 -2 -23.5 -2.5t-16.5 -0.5q-25 0 -43 15.5t-19 38.5l-2 61q-34 -58 -91.5 -90t-125.5 -32q-82 0 -124 55.5t-42 163.5zM161 640l101 90h64
l101 -90l-48 -24l-85 63l-85 -63z" />
    <glyph glyph-name="udieresis" unicode="&#xfc;" horiz-adv-x="601" 
d="M66 209v313h88v-296q0 -80 28 -120t83 -40q36 0 69.5 15.5t60.5 44.5t42 69v327h88v-422q0 -16 6.5 -23.5t21.5 -8.5v-68q-15 -2 -23.5 -2.5t-16.5 -0.5q-25 0 -43 15.5t-19 38.5l-2 61q-34 -58 -91.5 -90t-125.5 -32q-82 0 -124 55.5t-42 163.5zM176 625v102h74v-102
h-74zM338 625v102h74v-102h-74z" />
    <glyph glyph-name="yacute" unicode="&#xfd;" horiz-adv-x="545" 
d="M95 -142q13 -1 26 -2.5t20 -1.5q16 0 28 11t26.5 42.5t37.5 92.5l-221 522h93l176 -433l159 433h87l-254 -659q-9 -23 -26.5 -43.5t-44.5 -32.5t-65 -12q-9 0 -18.5 1t-23.5 4v78zM312 609l-58 20l58 101h88z" />
    <glyph glyph-name="thorn" unicode="&#xfe;" horiz-adv-x="603" 
d="M568 257q-1 -54 -21 -103.5t-55 -88t-81.5 -61t-100.5 -22.5q-52 0 -91 23.5t-58 54.5v-273h-90v923h90v-261q24 34 62 59.5t96 25.5t104 -24.5t78.5 -64.5t49.5 -89t17 -99zM478 258q0 52 -20.5 96.5t-57 72t-86.5 27.5q-36 0 -65 -15t-51 -40t-37 -55v-171
q0 -21 14 -41t36 -35.5t47.5 -25t49.5 -9.5q37 0 68 16t54 43.5t35.5 63t12.5 73.5z" />
    <glyph glyph-name="ydieresis" unicode="&#xff;" horiz-adv-x="545" 
d="M95 -142q13 -1 26 -2.5t20 -1.5q16 0 28 11t26.5 42.5t37.5 92.5l-221 522h93l176 -433l159 433h87l-254 -659q-9 -23 -26.5 -43.5t-44.5 -32.5t-65 -12q-9 0 -18.5 1t-23.5 4v78zM163 625v102h74v-102h-74zM325 625v102h74v-102h-74z" />
    <glyph glyph-name="Amacron" unicode="&#x100;" horiz-adv-x="677" 
d="M301 710h76l290 -710h-96l-84 208h-298l-83 -208h-96zM467 278l-128 328l-132 -328h260zM194 840v58h292v-58h-292z" />
    <glyph glyph-name="amacron" unicode="&#x101;" horiz-adv-x="554" 
d="M30 151q0 50 28.5 86.5t78.5 56.5t116 20q35 0 74 -5.5t69 -16.5v38q0 60 -36 94.5t-102 34.5q-43 0 -82.5 -15.5t-83.5 -44.5l-32 62q51 35 102 52.5t106 17.5q100 0 158 -55.5t58 -154.5v-221q0 -16 6.5 -23.5t21.5 -8.5v-68q-13 -2 -22.5 -3t-15.5 -1q-31 0 -46.5 17
t-17.5 36l-2 33q-34 -44 -89 -68t-109 -24q-52 0 -93 21.5t-64 58t-23 81.5zM370 114q12 14 19 28.5t7 24.5v65q-31 12 -65 18.5t-67 6.5q-67 0 -108.5 -26.5t-41.5 -72.5q0 -25 13.5 -48.5t40 -38.5t65.5 -15q41 0 78 16.5t59 41.5zM121 654v58h292v-58h-292z" />
    <glyph glyph-name="Abreve" unicode="&#x102;" horiz-adv-x="677" 
d="M301 710h76l290 -710h-96l-84 208h-298l-83 -208h-96zM467 278l-128 328l-132 -328h260zM339 848q22 0 38.5 19.5t19.5 48.5h50q0 -47 -31 -79t-77 -32t-77 32t-31 79h51q0 -27 17.5 -47.5t39.5 -20.5z" />
    <glyph glyph-name="abreve" unicode="&#x103;" horiz-adv-x="554" 
d="M30 151q0 50 28.5 86.5t78.5 56.5t116 20q35 0 74 -5.5t69 -16.5v38q0 60 -36 94.5t-102 34.5q-43 0 -82.5 -15.5t-83.5 -44.5l-32 62q51 35 102 52.5t106 17.5q100 0 158 -55.5t58 -154.5v-221q0 -16 6.5 -23.5t21.5 -8.5v-68q-13 -2 -22.5 -3t-15.5 -1q-31 0 -46.5 17
t-17.5 36l-2 33q-34 -44 -89 -68t-109 -24q-52 0 -93 21.5t-64 58t-23 81.5zM370 114q12 14 19 28.5t7 24.5v65q-31 12 -65 18.5t-67 6.5q-67 0 -108.5 -26.5t-41.5 -72.5q0 -25 13.5 -48.5t40 -38.5t65.5 -15q41 0 78 16.5t59 41.5zM266 662q22 0 38.5 19.5t19.5 48.5h50
q0 -47 -31 -79t-77 -32t-77 32t-31 79h51q0 -27 17.5 -47.5t39.5 -20.5z" />
    <glyph glyph-name="Aogonek" unicode="&#x104;" horiz-adv-x="677" 
d="M301 710h76l290 -710h-96l-84 208h-298l-83 -208h-96zM467 278l-128 328l-132 -328h260zM530 -107q0 33 22.5 63.5t70.5 61.5h24l20 -18q-41 -31 -59.5 -53.5t-18.5 -41.5q0 -20 21 -28t57 -10l-20 -56q-49 4 -74.5 17t-34 30.5t-8.5 34.5z" />
    <glyph glyph-name="aogonek" unicode="&#x105;" horiz-adv-x="554" 
d="M30 151q0 50 28.5 86.5t78.5 56.5t116 20q35 0 74 -5.5t69 -16.5v38q0 60 -36 94.5t-102 34.5q-43 0 -82.5 -15.5t-83.5 -44.5l-32 62q51 35 102 52.5t106 17.5q100 0 158 -55.5t58 -154.5v-221q0 -16 6.5 -23.5t21.5 -8.5v-68q-13 -2 -22.5 -3t-15.5 -1q-31 0 -46.5 17
t-17.5 36l-2 33q-34 -44 -89 -68t-109 -24q-52 0 -93 21.5t-64 58t-23 81.5zM370 114q12 14 19 28.5t7 24.5v65q-31 12 -65 18.5t-67 6.5q-67 0 -108.5 -26.5t-41.5 -72.5q0 -25 13.5 -48.5t40 -38.5t65.5 -15q41 0 78 16.5t59 41.5zM375 -107q0 33 22.5 63.5t70.5 61.5h24
l20 -18q-41 -31 -59.5 -53.5t-18.5 -41.5q0 -20 21 -28t57 -10l-20 -56q-49 4 -74.5 17t-34 30.5t-8.5 34.5z" />
    <glyph glyph-name="Cacute" unicode="&#x106;" horiz-adv-x="682" 
d="M39 360q0 65 22.5 127.5t66 114t106.5 82t143 30.5q95 0 163 -43.5t101 -111.5l-71 -46q-21 45 -53.5 71.5t-70 37.5t-73.5 11q-59 0 -104.5 -24t-76.5 -64t-46.5 -89.5t-15.5 -99.5q0 -55 18.5 -106t51.5 -90t78 -62t98 -23q37 0 76 13t73 40.5t54 71.5l75 -41
q-22 -53 -68 -90t-102.5 -56t-111.5 -19q-73 0 -134 31.5t-105.5 84t-69 118t-24.5 132.5zM407 795l-58 20l58 101h88z" />
    <glyph glyph-name="cacute" unicode="&#x107;" horiz-adv-x="554" 
d="M302 -10q-59 0 -107.5 21.5t-84 59.5t-55 87t-19.5 104q0 74 33 135t93 97.5t139 36.5q77 0 134.5 -34.5t85.5 -92.5l-86 -27q-20 37 -56 57.5t-80 20.5q-48 0 -87.5 -25t-62.5 -68.5t-23 -99.5q0 -55 23.5 -99.5t63 -70.5t87.5 -26q31 0 59.5 11t50 29.5t29.5 40.5
l86 -26q-16 -38 -48.5 -67.5t-77 -46.5t-97.5 -17zM331 609l-58 20l58 101h88z" />
    <glyph glyph-name="Ccircumflex" unicode="&#x108;" horiz-adv-x="682" 
d="M39 360q0 65 22.5 127.5t66 114t106.5 82t143 30.5q95 0 163 -43.5t101 -111.5l-71 -46q-21 45 -53.5 71.5t-70 37.5t-73.5 11q-59 0 -104.5 -24t-76.5 -64t-46.5 -89.5t-15.5 -99.5q0 -55 18.5 -106t51.5 -90t78 -62t98 -23q37 0 76 13t73 40.5t54 71.5l75 -41
q-22 -53 -68 -90t-102.5 -56t-111.5 -19q-73 0 -134 31.5t-105.5 84t-69 118t-24.5 132.5zM243 826l101 90h64l101 -90l-48 -24l-85 63l-85 -63z" />
    <glyph glyph-name="ccircumflex" unicode="&#x109;" horiz-adv-x="554" 
d="M302 -10q-59 0 -107.5 21.5t-84 59.5t-55 87t-19.5 104q0 74 33 135t93 97.5t139 36.5q77 0 134.5 -34.5t85.5 -92.5l-86 -27q-20 37 -56 57.5t-80 20.5q-48 0 -87.5 -25t-62.5 -68.5t-23 -99.5q0 -55 23.5 -99.5t63 -70.5t87.5 -26q31 0 59.5 11t50 29.5t29.5 40.5
l86 -26q-16 -38 -48.5 -67.5t-77 -46.5t-97.5 -17zM167 640l101 90h64l101 -90l-48 -24l-85 63l-85 -63z" />
    <glyph glyph-name="Cdotaccent" unicode="&#x10a;" horiz-adv-x="682" 
d="M39 360q0 65 22.5 127.5t66 114t106.5 82t143 30.5q95 0 163 -43.5t101 -111.5l-71 -46q-21 45 -53.5 71.5t-70 37.5t-73.5 11q-59 0 -104.5 -24t-76.5 -64t-46.5 -89.5t-15.5 -99.5q0 -55 18.5 -106t51.5 -90t78 -62t98 -23q37 0 76 13t73 40.5t54 71.5l75 -41
q-22 -53 -68 -90t-102.5 -56t-111.5 -19q-73 0 -134 31.5t-105.5 84t-69 118t-24.5 132.5zM336 810v106h80v-106h-80z" />
    <glyph glyph-name="cdotaccent" unicode="&#x10b;" horiz-adv-x="554" 
d="M302 -10q-59 0 -107.5 21.5t-84 59.5t-55 87t-19.5 104q0 74 33 135t93 97.5t139 36.5q77 0 134.5 -34.5t85.5 -92.5l-86 -27q-20 37 -56 57.5t-80 20.5q-48 0 -87.5 -25t-62.5 -68.5t-23 -99.5q0 -55 23.5 -99.5t63 -70.5t87.5 -26q31 0 59.5 11t50 29.5t29.5 40.5
l86 -26q-16 -38 -48.5 -67.5t-77 -46.5t-97.5 -17zM260 624v106h80v-106h-80z" />
    <glyph glyph-name="Ccaron" unicode="&#x10c;" horiz-adv-x="682" 
d="M39 360q0 65 22.5 127.5t66 114t106.5 82t143 30.5q95 0 163 -43.5t101 -111.5l-71 -46q-21 45 -53.5 71.5t-70 37.5t-73.5 11q-59 0 -104.5 -24t-76.5 -64t-46.5 -89.5t-15.5 -99.5q0 -55 18.5 -106t51.5 -90t78 -62t98 -23q37 0 76 13t73 40.5t54 71.5l75 -41
q-22 -53 -68 -90t-102.5 -56t-111.5 -19q-73 0 -134 31.5t-105.5 84t-69 118t-24.5 132.5zM291 916l85 -63l85 63l48 -24l-101 -90h-64l-101 90z" />
    <glyph glyph-name="ccaron" unicode="&#x10d;" horiz-adv-x="554" 
d="M302 -10q-59 0 -107.5 21.5t-84 59.5t-55 87t-19.5 104q0 74 33 135t93 97.5t139 36.5q77 0 134.5 -34.5t85.5 -92.5l-86 -27q-20 37 -56 57.5t-80 20.5q-48 0 -87.5 -25t-62.5 -68.5t-23 -99.5q0 -55 23.5 -99.5t63 -70.5t87.5 -26q31 0 59.5 11t50 29.5t29.5 40.5
l86 -26q-16 -38 -48.5 -67.5t-77 -46.5t-97.5 -17zM215 730l85 -63l85 63l48 -24l-101 -90h-64l-101 90z" />
    <glyph glyph-name="Dcaron" unicode="&#x10e;" horiz-adv-x="716" 
d="M85 0v710h246q114 0 190.5 -47.5t114.5 -128t38 -178.5q0 -108 -42 -188t-119 -124t-182 -44h-246zM583 356q0 80 -29.5 142t-85.5 97t-137 35h-156v-550h156q82 0 138 36.5t85 99t29 140.5zM255 916l85 -63l85 63l48 -24l-101 -90h-64l-101 90z" />
    <glyph glyph-name="dcaron" unicode="&#x10f;" horiz-adv-x="629" 
d="M37 260q0 74 30.5 135.5t84 98.5t122.5 37q63 0 113 -33t78 -80v312h88v-630q0 -16 6.5 -23.5t21.5 -8.5v-68q-25 -4 -39 -4q-26 0 -45.5 18t-19.5 40v44q-31 -50 -83 -79t-108 -29q-54 0 -99.5 21.5t-79 59.5t-52 86.5t-18.5 102.5zM465 183v150q-12 34 -39 61.5
t-60.5 44t-66.5 16.5q-39 0 -70.5 -16.5t-54 -44t-34.5 -62.5t-12 -73q0 -39 13.5 -74t38 -62t57 -42t70.5 -15q24 0 49.5 9t48.5 25t39 37.5t21 45.5zM644 609l-58 20l58 101h88z" />
    <glyph glyph-name="Dcroat" unicode="&#x110;" horiz-adv-x="722" 
d="M34 323v68h308v-68h-308zM91 0v710h246q114 0 190.5 -47.5t114.5 -128t38 -178.5q0 -108 -42 -188t-119 -124t-182 -44h-246zM589 356q0 80 -29.5 142t-85.5 97t-137 35h-156v-550h156q82 0 138 36.5t85 99t29 140.5z" />
    <glyph glyph-name="dcroat" unicode="&#x111;" horiz-adv-x="629" 
d="M355 611v56h266v-56h-266zM37 260q0 74 30.5 135.5t84 98.5t122.5 37q63 0 113 -33t78 -80v312h88v-630q0 -16 6.5 -23.5t21.5 -8.5v-68q-25 -4 -39 -4q-26 0 -45.5 18t-19.5 40v44q-31 -50 -83 -79t-108 -29q-54 0 -99.5 21.5t-79 59.5t-52 86.5t-18.5 102.5zM465 183
v150q-12 34 -39 61.5t-60.5 44t-66.5 16.5q-39 0 -70.5 -16.5t-54 -44t-34.5 -62.5t-12 -73q0 -39 13.5 -74t38 -62t57 -42t70.5 -15q24 0 49.5 9t48.5 25t39 37.5t21 45.5z" />
    <glyph glyph-name="Emacron" unicode="&#x112;" horiz-adv-x="605" 
d="M567 80v-80h-482v710h473v-80h-383v-230h333v-75h-333v-245h392zM189 840v58h292v-58h-292z" />
    <glyph glyph-name="emacron" unicode="&#x113;" horiz-adv-x="591" 
d="M302 -10q-59 0 -107.5 21.5t-84 59t-55 86.5t-19.5 104q0 74 34 135t94.5 98t138.5 37q79 0 137.5 -37.5t91 -98t32.5 -130.5q0 -10 -0.5 -19.5t-1.5 -14.5h-433q4 -51 28.5 -90.5t63.5 -62t84 -22.5q48 0 90.5 24t58.5 63l76 -21q-17 -38 -50.5 -68t-79 -47t-98.5 -17z
M126 292h356q-4 51 -29 90t-64 61t-86 22q-46 0 -85 -22t-63.5 -61t-28.5 -90zM154 654v58h292v-58h-292z" />
    <glyph glyph-name="Ebreve" unicode="&#x114;" horiz-adv-x="605" 
d="M567 80v-80h-482v710h473v-80h-383v-230h333v-75h-333v-245h392zM334 848q22 0 38.5 19.5t19.5 48.5h50q0 -47 -31 -79t-77 -32t-77 32t-31 79h51q0 -27 17.5 -47.5t39.5 -20.5z" />
    <glyph glyph-name="ebreve" unicode="&#x115;" horiz-adv-x="591" 
d="M302 -10q-59 0 -107.5 21.5t-84 59t-55 86.5t-19.5 104q0 74 34 135t94.5 98t138.5 37q79 0 137.5 -37.5t91 -98t32.5 -130.5q0 -10 -0.5 -19.5t-1.5 -14.5h-433q4 -51 28.5 -90.5t63.5 -62t84 -22.5q48 0 90.5 24t58.5 63l76 -21q-17 -38 -50.5 -68t-79 -47t-98.5 -17z
M126 292h356q-4 51 -29 90t-64 61t-86 22q-46 0 -85 -22t-63.5 -61t-28.5 -90zM299 662q22 0 38.5 19.5t19.5 48.5h50q0 -47 -31 -79t-77 -32t-77 32t-31 79h51q0 -27 17.5 -47.5t39.5 -20.5z" />
    <glyph glyph-name="Edotaccent" unicode="&#x116;" horiz-adv-x="605" 
d="M567 80v-80h-482v710h473v-80h-383v-230h333v-75h-333v-245h392zM294 810v106h80v-106h-80z" />
    <glyph glyph-name="edotaccent" unicode="&#x117;" horiz-adv-x="591" 
d="M302 -10q-59 0 -107.5 21.5t-84 59t-55 86.5t-19.5 104q0 74 34 135t94.5 98t138.5 37q79 0 137.5 -37.5t91 -98t32.5 -130.5q0 -10 -0.5 -19.5t-1.5 -14.5h-433q4 -51 28.5 -90.5t63.5 -62t84 -22.5q48 0 90.5 24t58.5 63l76 -21q-17 -38 -50.5 -68t-79 -47t-98.5 -17z
M126 292h356q-4 51 -29 90t-64 61t-86 22q-46 0 -85 -22t-63.5 -61t-28.5 -90zM259 624v106h80v-106h-80z" />
    <glyph glyph-name="Eogonek" unicode="&#x118;" horiz-adv-x="605" 
d="M567 80v-80h-482v710h473v-80h-383v-230h333v-75h-333v-245h392zM430 -107q0 33 22.5 63.5t70.5 61.5h24l20 -18q-41 -31 -59.5 -53.5t-18.5 -41.5q0 -20 21 -28t57 -10l-20 -56q-49 4 -74.5 17t-34 30.5t-8.5 34.5z" />
    <glyph glyph-name="eogonek" unicode="&#x119;" horiz-adv-x="591" 
d="M302 -10q-59 0 -107.5 21.5t-84 59t-55 86.5t-19.5 104q0 74 34 135t94.5 98t138.5 37q79 0 137.5 -37.5t91 -98t32.5 -130.5q0 -10 -0.5 -19.5t-1.5 -14.5h-433q4 -51 28.5 -90.5t63.5 -62t84 -22.5q48 0 90.5 24t58.5 63l76 -21q-17 -38 -50.5 -68t-79 -47t-98.5 -17z
M126 292h356q-4 51 -29 90t-64 61t-86 22q-46 0 -85 -22t-63.5 -61t-28.5 -90zM239 -107q0 33 22.5 63.5t70.5 61.5h24l20 -18q-41 -31 -59.5 -53.5t-18.5 -41.5q0 -20 21 -28t57 -10l-20 -56q-49 4 -74.5 17t-34 30.5t-8.5 34.5z" />
    <glyph glyph-name="Ecaron" unicode="&#x11a;" horiz-adv-x="605" 
d="M567 80v-80h-482v710h473v-80h-383v-230h333v-75h-333v-245h392zM249 916l85 -63l85 63l48 -24l-101 -90h-64l-101 90z" />
    <glyph glyph-name="ecaron" unicode="&#x11b;" horiz-adv-x="591" 
d="M302 -10q-59 0 -107.5 21.5t-84 59t-55 86.5t-19.5 104q0 74 34 135t94.5 98t138.5 37q79 0 137.5 -37.5t91 -98t32.5 -130.5q0 -10 -0.5 -19.5t-1.5 -14.5h-433q4 -51 28.5 -90.5t63.5 -62t84 -22.5q48 0 90.5 24t58.5 63l76 -21q-17 -38 -50.5 -68t-79 -47t-98.5 -17z
M126 292h356q-4 51 -29 90t-64 61t-86 22q-46 0 -85 -22t-63.5 -61t-28.5 -90zM214 730l85 -63l85 63l48 -24l-101 -90h-64l-101 90z" />
    <glyph glyph-name="Gcircumflex" unicode="&#x11c;" horiz-adv-x="714" 
d="M370 -5q-70 0 -130.5 30.5t-105.5 82t-70 116t-25 133.5q0 72 25 136.5t69.5 114.5t105 78.5t131.5 28.5q103 0 170 -43t101 -112l-69 -48q-31 62 -85 92t-119 30q-54 0 -98 -23t-75.5 -62.5t-48 -89.5t-16.5 -104q0 -57 18.5 -107.5t52.5 -89t79 -60.5t97 -22
q61 0 116 31t104 95v-93q-96 -114 -227 -114zM586 286h-153v68h229v-354h-76v286zM236 826l101 90h64l101 -90l-48 -24l-85 63l-85 -63z" />
    <glyph glyph-name="gcircumflex" unicode="&#x11d;" horiz-adv-x="624" 
d="M279 -6q-53 0 -97.5 21.5t-76.5 59t-49.5 85.5t-17.5 100q0 55 17.5 104t50 86.5t76.5 59t98 21.5q65 0 113.5 -32t81.5 -81v104h78v-516q0 -74 -35.5 -125t-96 -77.5t-134.5 -26.5q-88 0 -144 31t-93 84l51 45q31 -46 80.5 -69t105.5 -23q48 0 88.5 17.5t65 53.5
t24.5 90v92q-29 -48 -79.5 -76t-106.5 -28zM306 66q28 0 54 10t48 26.5t37 37.5t20 43v150q-14 36 -40 63.5t-59 43t-68 15.5q-40 0 -71.5 -17t-53.5 -45.5t-34 -63.5t-12 -71q0 -39 14 -73.5t38 -61.5t57 -42t70 -15zM168 640l101 90h64l101 -90l-48 -24l-85 63l-85 -63z
" />
    <glyph glyph-name="Gbreve" unicode="&#x11e;" horiz-adv-x="714" 
d="M370 -5q-70 0 -130.5 30.5t-105.5 82t-70 116t-25 133.5q0 72 25 136.5t69.5 114.5t105 78.5t131.5 28.5q103 0 170 -43t101 -112l-69 -48q-31 62 -85 92t-119 30q-54 0 -98 -23t-75.5 -62.5t-48 -89.5t-16.5 -104q0 -57 18.5 -107.5t52.5 -89t79 -60.5t97 -22
q61 0 116 31t104 95v-93q-96 -114 -227 -114zM586 286h-153v68h229v-354h-76v286zM369 848q22 0 38.5 19.5t19.5 48.5h50q0 -47 -31 -79t-77 -32t-77 32t-31 79h51q0 -27 17.5 -47.5t39.5 -20.5z" />
    <glyph glyph-name="gbreve" unicode="&#x11f;" horiz-adv-x="624" 
d="M279 -6q-53 0 -97.5 21.5t-76.5 59t-49.5 85.5t-17.5 100q0 55 17.5 104t50 86.5t76.5 59t98 21.5q65 0 113.5 -32t81.5 -81v104h78v-516q0 -74 -35.5 -125t-96 -77.5t-134.5 -26.5q-88 0 -144 31t-93 84l51 45q31 -46 80.5 -69t105.5 -23q48 0 88.5 17.5t65 53.5
t24.5 90v92q-29 -48 -79.5 -76t-106.5 -28zM306 66q28 0 54 10t48 26.5t37 37.5t20 43v150q-14 36 -40 63.5t-59 43t-68 15.5q-40 0 -71.5 -17t-53.5 -45.5t-34 -63.5t-12 -71q0 -39 14 -73.5t38 -61.5t57 -42t70 -15zM301 662q22 0 38.5 19.5t19.5 48.5h50q0 -47 -31 -79
t-77 -32t-77 32t-31 79h51q0 -27 17.5 -47.5t39.5 -20.5z" />
    <glyph glyph-name="Gdotaccent" unicode="&#x120;" horiz-adv-x="714" 
d="M370 -5q-70 0 -130.5 30.5t-105.5 82t-70 116t-25 133.5q0 72 25 136.5t69.5 114.5t105 78.5t131.5 28.5q103 0 170 -43t101 -112l-69 -48q-31 62 -85 92t-119 30q-54 0 -98 -23t-75.5 -62.5t-48 -89.5t-16.5 -104q0 -57 18.5 -107.5t52.5 -89t79 -60.5t97 -22
q61 0 116 31t104 95v-93q-96 -114 -227 -114zM586 286h-153v68h229v-354h-76v286zM329 810v106h80v-106h-80z" />
    <glyph glyph-name="gdotaccent" unicode="&#x121;" horiz-adv-x="624" 
d="M279 -6q-53 0 -97.5 21.5t-76.5 59t-49.5 85.5t-17.5 100q0 55 17.5 104t50 86.5t76.5 59t98 21.5q65 0 113.5 -32t81.5 -81v104h78v-516q0 -74 -35.5 -125t-96 -77.5t-134.5 -26.5q-88 0 -144 31t-93 84l51 45q31 -46 80.5 -69t105.5 -23q48 0 88.5 17.5t65 53.5
t24.5 90v92q-29 -48 -79.5 -76t-106.5 -28zM306 66q28 0 54 10t48 26.5t37 37.5t20 43v150q-14 36 -40 63.5t-59 43t-68 15.5q-40 0 -71.5 -17t-53.5 -45.5t-34 -63.5t-12 -71q0 -39 14 -73.5t38 -61.5t57 -42t70 -15zM261 624v106h80v-106h-80z" />
    <glyph glyph-name="uni0122" unicode="&#x122;" horiz-adv-x="714" 
d="M370 -5q-70 0 -130.5 30.5t-105.5 82t-70 116t-25 133.5q0 72 25 136.5t69.5 114.5t105 78.5t131.5 28.5q103 0 170 -43t101 -112l-69 -48q-31 62 -85 92t-119 30q-54 0 -98 -23t-75.5 -62.5t-48 -89.5t-16.5 -104q0 -57 18.5 -107.5t52.5 -89t79 -60.5t97 -22
q61 0 116 31t104 95v-93q-96 -114 -227 -114zM586 286h-153v68h229v-354h-76v286zM338 -213l20 81h-25v84h78v-84l-30 -81h-43z" />
    <glyph glyph-name="uni0123" unicode="&#x123;" horiz-adv-x="624" 
d="M279 -6q-53 0 -97.5 21.5t-76.5 59t-49.5 85.5t-17.5 100q0 55 17.5 104t50 86.5t76.5 59t98 21.5q65 0 113.5 -32t81.5 -81v104h78v-516q0 -74 -35.5 -125t-96 -77.5t-134.5 -26.5q-88 0 -144 31t-93 84l51 45q31 -46 80.5 -69t105.5 -23q48 0 88.5 17.5t65 53.5
t24.5 90v92q-29 -48 -79.5 -76t-106.5 -28zM306 66q28 0 54 10t48 26.5t37 37.5t20 43v150q-14 36 -40 63.5t-59 43t-68 15.5q-40 0 -71.5 -17t-53.5 -45.5t-34 -63.5t-12 -71q0 -39 14 -73.5t38 -61.5t57 -42t70 -15zM335 730l-20 -66h25v-75h-78v75l30 66h43z" />
    <glyph glyph-name="Hcircumflex" unicode="&#x124;" horiz-adv-x="741" 
d="M656 710v-710h-90v323h-391v-323h-90v710h90v-307h391v307h90zM240 826l101 90h64l101 -90l-48 -24l-85 63l-85 -63z" />
    <glyph glyph-name="hcircumflex" unicode="&#x125;" horiz-adv-x="590" 
d="M524 0h-88v292q0 80 -28.5 120t-81.5 40q-34 0 -68.5 -18t-60.5 -48.5t-38 -70.5v-315h-88v730h88v-320q31 56 84.5 88.5t115.5 32.5q47 0 78.5 -16.5t50.5 -46.5t27.5 -69.5t8.5 -86.5v-312zM182 828l101 90h64l101 -90l-48 -24l-85 63l-85 -63z" />
    <glyph glyph-name="Hbar" unicode="&#x126;" horiz-adv-x="751" 
d="M40 529v66h671v-66h-671zM661 710v-710h-90v323h-391v-323h-90v710h90v-307h391v307h90z" />
    <glyph glyph-name="hbar" unicode="&#x127;" horiz-adv-x="590" 
d="M15 611v56h266v-56h-266zM524 0h-88v292q0 80 -28.5 120t-81.5 40q-34 0 -68.5 -18t-60.5 -48.5t-38 -70.5v-315h-88v730h88v-320q31 56 84.5 88.5t115.5 32.5q47 0 78.5 -16.5t50.5 -46.5t27.5 -69.5t8.5 -86.5v-312z" />
    <glyph glyph-name="Itilde" unicode="&#x128;" horiz-adv-x="260" 
d="M85 0v710h90v-710h-90zM192 813q-30 0 -51 10.5t-38.5 21t-39.5 10.5t-32.5 -11t-13.5 -23t-3 -14h-52q0 6 4.5 22.5t15.5 35t30 32t49 13.5q29 0 48.5 -10.5t38 -21.5t42.5 -11q26 0 37.5 11.5t15 23.5t3.5 14h52q0 -6 -4.5 -22t-16.5 -35t-32.5 -32.5t-52.5 -13.5z" />
    <glyph glyph-name="itilde" unicode="&#x129;" horiz-adv-x="230" 
d="M71 0v522h88v-522h-88zM177 627q-30 0 -51 10.5t-38.5 21t-39.5 10.5t-32.5 -11t-13.5 -23t-3 -14h-52q0 6 4.5 22.5t15.5 35t30 32t49 13.5q29 0 48.5 -10.5t38 -21.5t42.5 -11q26 0 37.5 11.5t15 23.5t3.5 14h52q0 -6 -4.5 -22t-16.5 -35t-32.5 -32.5t-52.5 -13.5z" />
    <glyph glyph-name="Imacron" unicode="&#x12a;" horiz-adv-x="260" 
d="M85 0v710h90v-710h-90zM-15 840v58h292v-58h-292z" />
    <glyph glyph-name="imacron" unicode="&#x12b;" horiz-adv-x="230" 
d="M71 0v522h88v-522h-88zM-30 654v58h292v-58h-292z" />
    <glyph glyph-name="Ibreve" unicode="&#x12c;" horiz-adv-x="260" 
d="M85 0v710h90v-710h-90zM130 848q22 0 38.5 19.5t19.5 48.5h50q0 -47 -31 -79t-77 -32t-77 32t-31 79h51q0 -27 17.5 -47.5t39.5 -20.5z" />
    <glyph glyph-name="ibreve" unicode="&#x12d;" horiz-adv-x="230" 
d="M71 0v522h88v-522h-88zM115 662q22 0 38.5 19.5t19.5 48.5h50q0 -47 -31 -79t-77 -32t-77 32t-31 79h51q0 -27 17.5 -47.5t39.5 -20.5z" />
    <glyph glyph-name="Iogonek" unicode="&#x12e;" horiz-adv-x="260" 
d="M85 0v710h90v-710h-90zM38 -107q0 33 22.5 63.5t70.5 61.5h24l20 -18q-41 -31 -59.5 -53.5t-18.5 -41.5q0 -20 21 -28t57 -10l-20 -56q-49 4 -74.5 17t-34 30.5t-8.5 34.5z" />
    <glyph glyph-name="iogonek" unicode="&#x12f;" horiz-adv-x="230" 
d="M71 0v522h88v-522h-88zM71 620v110h88v-110h-88zM22 -107q0 33 22.5 63.5t70.5 61.5h24l20 -18q-41 -31 -59.5 -53.5t-18.5 -41.5q0 -20 21 -28t57 -10l-20 -56q-49 4 -74.5 17t-34 30.5t-8.5 34.5z" />
    <glyph glyph-name="Idotaccent" unicode="&#x130;" horiz-adv-x="260" 
d="M85 0v710h90v-710h-90zM90 810v106h80v-106h-80z" />
    <glyph glyph-name="dotlessi" unicode="&#x131;" horiz-adv-x="230" 
d="M71 0v522h88v-522h-88z" />
    <glyph glyph-name="IJ" unicode="&#x132;" horiz-adv-x="745" 
d="M85 0v710h90v-710h-90zM295 106q19 -13 52.5 -24.5t79.5 -11.5q47 0 77 15.5t46 47t22 80.5t6 116v381h90v-361q0 -79 -8 -145t-32 -114.5t-71.5 -74.5t-126.5 -26q-50 0 -88 11t-70 33z" />
    <glyph glyph-name="ij" unicode="&#x133;" horiz-adv-x="467" 
d="M71 0v522h88v-522h-88zM71 620v110h88v-110h-88zM234 -186q-34 0 -65 10t-55 32l41 59q14 -13 32.5 -18t36.5 -5q22 0 41 11t31 30.5t12 43.5v545h88v-539q0 -49 -23 -87.5t-59.5 -60t-79.5 -21.5zM308 620v110h88v-110h-88z" />
    <glyph glyph-name="Jcircumflex" unicode="&#x134;" horiz-adv-x="485" 
d="M35 106q19 -13 52.5 -24.5t79.5 -11.5q47 0 77 15.5t46 47t22 80.5t6 116v381h90v-361q0 -79 -8 -145t-32 -114.5t-71.5 -74.5t-126.5 -26q-50 0 -88 11t-70 33zM231 826l101 90h64l101 -90l-48 -24l-85 63l-85 -63z" />
    <glyph glyph-name="jcircumflex" unicode="&#x135;" horiz-adv-x="230" 
d="M-3 -186q-34 0 -65 10t-55 32l41 59q14 -13 32.5 -18t36.5 -5q22 0 41 11t31 30.5t12 43.5v545h88v-539q0 -49 -23 -87.5t-59.5 -60t-79.5 -21.5zM-18 640l101 90h64l101 -90l-48 -24l-85 63l-85 -63z" />
    <glyph glyph-name="uni0136" unicode="&#x136;" horiz-adv-x="652" 
d="M85 0v709h90v-392l366 393h97l-285 -313l301 -397h-101l-257 343l-121 -126v-217h-90zM301 -213l20 81h-25v84h78v-84l-30 -81h-43z" />
    <glyph glyph-name="uni0137" unicode="&#x137;" horiz-adv-x="539" 
d="M439 0l-181 254l-99 -93v-161h-88v730h88v-477l270 268h95l-208 -216l218 -305h-95zM243 -213l20 81h-25v84h78v-84l-30 -81h-43z" />
    <glyph glyph-name="kgreenlandic" unicode="&#x138;" horiz-adv-x="539" 
d="M439 0l-180 255l-100 -94v-161h-88v522h88v-272l268 271h97l-208 -216l218 -305h-95z" />
    <glyph glyph-name="Lacute" unicode="&#x139;" horiz-adv-x="584" 
d="M85 0v710h90v-630h396v-80h-486zM158 795l-58 20l58 101h88z" />
    <glyph glyph-name="lacute" unicode="&#x13a;" horiz-adv-x="286" 
d="M73 730h88v-595q0 -43 12 -53t29 -10q21 0 40 4.5t32 9.5l14 -72q-22 -9 -52 -15t-53 -6q-51 0 -80.5 29t-29.5 81v627zM148 797l-58 20l58 101h88z" />
    <glyph glyph-name="uni013B" unicode="&#x13b;" horiz-adv-x="584" 
d="M85 0v710h90v-630h396v-80h-486zM298 -213l20 81h-25v84h78v-84l-30 -81h-43z" />
    <glyph glyph-name="uni013C" unicode="&#x13c;" horiz-adv-x="286" 
d="M73 730h88v-595q0 -43 12 -53t29 -10q21 0 40 4.5t32 9.5l14 -72q-22 -9 -52 -15t-53 -6q-51 0 -80.5 29t-29.5 81v627zM142 -213l20 81h-25v84h78v-84l-30 -81h-43z" />
    <glyph glyph-name="Lcaron" unicode="&#x13d;" horiz-adv-x="584" 
d="M85 0v710h90v-630h396v-80h-486zM430 613l-58 20l58 101h88z" />
    <glyph glyph-name="lcaron" unicode="&#x13e;" horiz-adv-x="286" 
d="M73 730h88v-595q0 -43 12 -53t29 -10q21 0 40 4.5t32 9.5l14 -72q-22 -9 -52 -15t-53 -6q-51 0 -80.5 29t-29.5 81v627zM262 609l-58 20l58 101h88z" />
    <glyph glyph-name="Ldot" unicode="&#x13f;" horiz-adv-x="584" 
d="M85 0v710h90v-630h396v-80h-486zM366 343v124h74v-124h-74z" />
    <glyph glyph-name="ldot" unicode="&#x140;" horiz-adv-x="339" 
d="M73 730h88v-595q0 -43 12 -53t29 -10q21 0 40 4.5t32 9.5l14 -72q-22 -9 -52 -15t-53 -6q-51 0 -80.5 29t-29.5 81v627zM249 245v124h74v-124h-74z" />
    <glyph glyph-name="Lslash" unicode="&#x141;" horiz-adv-x="591" 
d="M36 233l-26 50l314 240l25 -49zM92 0v710h90v-630h396v-80h-486z" />
    <glyph glyph-name="lslash" unicode="&#x142;" horiz-adv-x="308" 
d="M34 283l-26 49l262 190l27 -49zM94 730h88v-595q0 -43 12 -53t29 -10q21 0 40 4.5t32 9.5l14 -72q-22 -9 -52 -15t-53 -6q-51 0 -80.5 29t-29.5 81v627z" />
    <glyph glyph-name="Nacute" unicode="&#x143;" horiz-adv-x="770" 
d="M175 544v-544h-90v710h76l434 -555v554h90v-709h-82zM418 795l-58 20l58 101h88z" />
    <glyph glyph-name="nacute" unicode="&#x144;" horiz-adv-x="590" 
d="M524 0h-88v292q0 83 -25.5 121.5t-77.5 38.5q-36 0 -71.5 -18t-63 -48.5t-39.5 -70.5v-315h-88v522h80v-112q21 37 54 64t75 42t88 15q45 0 75.5 -16.5t48 -46t25 -69.5t7.5 -87v-312zM334 609l-58 20l58 101h88z" />
    <glyph glyph-name="uni0145" unicode="&#x145;" horiz-adv-x="770" 
d="M175 544v-544h-90v710h76l434 -555v554h90v-709h-82zM350 -213l20 81h-25v84h78v-84l-30 -81h-43z" />
    <glyph glyph-name="uni0146" unicode="&#x146;" horiz-adv-x="590" 
d="M524 0h-88v292q0 83 -25.5 121.5t-77.5 38.5q-36 0 -71.5 -18t-63 -48.5t-39.5 -70.5v-315h-88v522h80v-112q21 37 54 64t75 42t88 15q45 0 75.5 -16.5t48 -46t25 -69.5t7.5 -87v-312zM257 -213l20 81h-25v84h78v-84l-30 -81h-43z" />
    <glyph glyph-name="Ncaron" unicode="&#x147;" horiz-adv-x="770" 
d="M175 544v-544h-90v710h76l434 -555v554h90v-709h-82zM302 916l85 -63l85 63l48 -24l-101 -90h-64l-101 90z" />
    <glyph glyph-name="ncaron" unicode="&#x148;" horiz-adv-x="590" 
d="M524 0h-88v292q0 83 -25.5 121.5t-77.5 38.5q-36 0 -71.5 -18t-63 -48.5t-39.5 -70.5v-315h-88v522h80v-112q21 37 54 64t75 42t88 15q45 0 75.5 -16.5t48 -46t25 -69.5t7.5 -87v-312zM218 730l85 -63l85 63l48 -24l-101 -90h-64l-101 90z" />
    <glyph glyph-name="napostrophe" unicode="&#x149;" horiz-adv-x="590" 
d="M524 0h-88v292q0 83 -25.5 121.5t-77.5 38.5q-36 0 -71.5 -18t-63 -48.5t-39.5 -70.5v-315h-88v522h80v-112q21 37 54 64t75 42t88 15q45 0 75.5 -16.5t48 -46t25 -69.5t7.5 -87v-312zM137 730l-89 -121l-57 20l37 63l-3 38h112z" />
    <glyph glyph-name="Eng" unicode="&#x14a;" horiz-adv-x="762" 
d="M175 540v-540h-90v710h69l433 -549v548h90v-729q0 -49 -23 -86.5t-60.5 -58.5t-79.5 -21q-34 0 -64.5 10t-54.5 32l41 59q14 -13 32 -18t36 -5q22 0 41 11t31.5 30.5t12.5 43.5v38z" />
    <glyph glyph-name="eng" unicode="&#x14b;" horiz-adv-x="590" 
d="M362 -186q-34 0 -65 10t-55 32l41 59q14 -13 32.5 -18t36.5 -5q22 0 41 11t31 30.5t12 43.5v315q0 83 -25.5 121.5t-77.5 38.5q-36 0 -71.5 -18t-63 -48.5t-39.5 -70.5v-315h-88v522h80v-112q21 37 54 64t75 42t88 15q45 0 75.5 -16.5t48 -46t25 -69.5t7.5 -87v-329
q0 -49 -23 -87.5t-59.5 -60t-79.5 -21.5z" />
    <glyph glyph-name="Omacron" unicode="&#x14c;" horiz-adv-x="748" 
d="M373 -5q-75 0 -136 30t-105.5 81.5t-68.5 116t-24 132.5q0 71 25.5 135.5t71 115t106.5 80t133 29.5q75 0 136 -31t105 -83t68 -116t24 -131q0 -71 -25 -135.5t-70.5 -115t-106.5 -79.5t-133 -29zM130 355q0 -54 17.5 -104.5t49.5 -89.5t77 -62t100 -23q57 0 102 24
t76.5 64t48 90t16.5 101q0 54 -17.5 104t-50 89.5t-77 62t-98.5 22.5q-57 0 -102 -23.5t-76.5 -63.5t-48.5 -89.5t-17 -101.5zM230 840v58h292v-58h-292z" />
    <glyph glyph-name="omacron" unicode="&#x14d;" horiz-adv-x="599" 
d="M299 -10q-59 0 -107 21.5t-83 59t-54 86.5t-19 103q0 55 19 104t54 86.5t83.5 59t107.5 21.5q58 0 106 -21.5t83.5 -59t54.5 -86.5t19 -104q0 -54 -19 -103t-54 -86.5t-83.5 -59t-107.5 -21.5zM126 259q0 -54 23.5 -98t62.5 -69.5t87 -25.5t87.5 26t63 70.5t23.5 98.5
t-23.5 98t-63 70t-87.5 26t-87 -26.5t-62.5 -70.5t-23.5 -99zM154 654v58h292v-58h-292z" />
    <glyph glyph-name="Obreve" unicode="&#x14e;" horiz-adv-x="748" 
d="M373 -5q-75 0 -136 30t-105.5 81.5t-68.5 116t-24 132.5q0 71 25.5 135.5t71 115t106.5 80t133 29.5q75 0 136 -31t105 -83t68 -116t24 -131q0 -71 -25 -135.5t-70.5 -115t-106.5 -79.5t-133 -29zM130 355q0 -54 17.5 -104.5t49.5 -89.5t77 -62t100 -23q57 0 102 24
t76.5 64t48 90t16.5 101q0 54 -17.5 104t-50 89.5t-77 62t-98.5 22.5q-57 0 -102 -23.5t-76.5 -63.5t-48.5 -89.5t-17 -101.5zM375 848q22 0 38.5 19.5t19.5 48.5h50q0 -47 -31 -79t-77 -32t-77 32t-31 79h51q0 -27 17.5 -47.5t39.5 -20.5z" />
    <glyph glyph-name="obreve" unicode="&#x14f;" horiz-adv-x="599" 
d="M299 -10q-59 0 -107 21.5t-83 59t-54 86.5t-19 103q0 55 19 104t54 86.5t83.5 59t107.5 21.5q58 0 106 -21.5t83.5 -59t54.5 -86.5t19 -104q0 -54 -19 -103t-54 -86.5t-83.5 -59t-107.5 -21.5zM126 259q0 -54 23.5 -98t62.5 -69.5t87 -25.5t87.5 26t63 70.5t23.5 98.5
t-23.5 98t-63 70t-87.5 26t-87 -26.5t-62.5 -70.5t-23.5 -99zM299 662q22 0 38.5 19.5t19.5 48.5h50q0 -47 -31 -79t-77 -32t-77 32t-31 79h51q0 -27 17.5 -47.5t39.5 -20.5z" />
    <glyph glyph-name="Ohungarumlaut" unicode="&#x150;" horiz-adv-x="748" 
d="M373 -5q-75 0 -136 30t-105.5 81.5t-68.5 116t-24 132.5q0 71 25.5 135.5t71 115t106.5 80t133 29.5q75 0 136 -31t105 -83t68 -116t24 -131q0 -71 -25 -135.5t-70.5 -115t-106.5 -79.5t-133 -29zM130 355q0 -54 17.5 -104.5t49.5 -89.5t77 -62t100 -23q57 0 102 24
t76.5 64t48 90t16.5 101q0 54 -17.5 104t-50 89.5t-77 62t-98.5 22.5q-57 0 -102 -23.5t-76.5 -63.5t-48.5 -89.5t-17 -101.5zM312 796l-46 20l54 101h76zM448 796l-46 20l54 101h76z" />
    <glyph glyph-name="ohungarumlaut" unicode="&#x151;" horiz-adv-x="599" 
d="M299 -10q-59 0 -107 21.5t-83 59t-54 86.5t-19 103q0 55 19 104t54 86.5t83.5 59t107.5 21.5q58 0 106 -21.5t83.5 -59t54.5 -86.5t19 -104q0 -54 -19 -103t-54 -86.5t-83.5 -59t-107.5 -21.5zM126 259q0 -54 23.5 -98t62.5 -69.5t87 -25.5t87.5 26t63 70.5t23.5 98.5
t-23.5 98t-63 70t-87.5 26t-87 -26.5t-62.5 -70.5t-23.5 -99zM236 610l-46 20l54 101h76zM372 610l-46 20l54 101h76z" />
    <glyph glyph-name="OE" unicode="&#x152;" horiz-adv-x="1131" 
d="M1094 80v-80h-474v157q-22 -46 -59 -82.5t-84.5 -58t-102.5 -21.5q-75 0 -136.5 30t-106 81.5t-68.5 116t-24 132.5q0 71 25.5 135.5t71 115t106.5 80t133 29.5q56 0 103.5 -21.5t83.5 -58.5t58 -82v157h465v-80h-375v-228h321v-80h-321v-242h384zM374 76q57 0 102 24
t76.5 64t48 90t16.5 102q0 54 -17.5 104t-50 89t-77 62t-98.5 23q-57 0 -102 -24t-76.5 -64t-48.5 -89.5t-17 -101.5q0 -54 17.5 -104.5t49.5 -89.5t77 -62t100 -23z" />
    <glyph glyph-name="oe" unicode="&#x153;" horiz-adv-x="1028" 
d="M298 -10q-74 0 -133.5 35.5t-94 96.5t-34.5 137q0 77 34.5 138.5t94.5 97.5t134 36q49 0 91.5 -18.5t75 -52.5t51.5 -81q31 73 88 112.5t133 39.5q75 0 132 -33.5t91.5 -94.5t38.5 -142v-15.5t-1 -14.5h-433q4 -49 29.5 -89t65.5 -63.5t88 -23.5q50 0 92.5 24.5
t57.5 63.5l74 -21q-18 -39 -52.5 -69t-80 -46.5t-95.5 -16.5q-47 0 -90 18.5t-77.5 52t-59.5 78.5q-24 -47 -57.5 -80.5t-74.5 -51t-88 -17.5zM299 66q49 0 88.5 26t62.5 70t23 98q0 55 -23 99t-62 70t-88 26q-48 0 -87.5 -26.5t-63 -71t-23.5 -99.5q0 -54 23 -97.5
t62.5 -69t87.5 -25.5zM915 288q-3 52 -28.5 92t-64.5 62.5t-86 22.5t-85 -23t-61 -62.5t-26 -91.5h351z" />
    <glyph glyph-name="Racute" unicode="&#x154;" horiz-adv-x="657" 
d="M85 0v710h304q47 0 86 -19.5t68 -52t45 -73t16 -82.5q0 -49 -18.5 -93t-52 -75t-78.5 -43l172 -272h-102l-162 255h-188v-255h-90zM175 335h215q37 0 64.5 20.5t43 54.5t15.5 73q0 40 -18 73.5t-47 53.5t-64 20h-209v-295zM339 797l-58 20l58 101h88z" />
    <glyph glyph-name="racute" unicode="&#x155;" horiz-adv-x="363" 
d="M347 445q-66 -1 -116.5 -33.5t-71.5 -89.5v-322h-88v522h82v-121q27 54 71.5 87.5t93.5 37.5h17t12 -1v-80zM242 609l-58 20l58 101h88z" />
    <glyph glyph-name="uni0156" unicode="&#x156;" horiz-adv-x="657" 
d="M85 0v710h304q47 0 86 -19.5t68 -52t45 -73t16 -82.5q0 -49 -18.5 -93t-52 -75t-78.5 -43l172 -272h-102l-162 255h-188v-255h-90zM175 335h215q37 0 64.5 20.5t43 54.5t15.5 73q0 40 -18 73.5t-47 53.5t-64 20h-209v-295zM295 -213l20 81h-25v84h78v-84l-30 -81h-43z
" />
    <glyph glyph-name="uni0157" unicode="&#x157;" horiz-adv-x="363" 
d="M347 445q-66 -1 -116.5 -33.5t-71.5 -89.5v-322h-88v522h82v-121q27 54 71.5 87.5t93.5 37.5h17t12 -1v-80zM75 -213l20 81h-25v84h78v-84l-30 -81h-43z" />
    <glyph glyph-name="Rcaron" unicode="&#x158;" horiz-adv-x="657" 
d="M85 0v710h304q47 0 86 -19.5t68 -52t45 -73t16 -82.5q0 -49 -18.5 -93t-52 -75t-78.5 -43l172 -272h-102l-162 255h-188v-255h-90zM175 335h215q37 0 64.5 20.5t43 54.5t15.5 73q0 40 -18 73.5t-47 53.5t-64 20h-209v-295zM223 918l85 -63l85 63l48 -24l-101 -90h-64
l-101 90z" />
    <glyph glyph-name="rcaron" unicode="&#x159;" horiz-adv-x="363" 
d="M347 445q-66 -1 -116.5 -33.5t-71.5 -89.5v-322h-88v522h82v-121q27 54 71.5 87.5t93.5 37.5h17t12 -1v-80zM126 730l85 -63l85 63l48 -24l-101 -90h-64l-101 90z" />
    <glyph glyph-name="Sacute" unicode="&#x15a;" horiz-adv-x="609" 
d="M502 561q-12 14 -32 27t-45 23.5t-54.5 17t-61.5 6.5q-82 0 -121 -31t-39 -85q0 -38 20 -60t61.5 -36t105.5 -29q74 -16 128 -39t83 -61.5t29 -102.5q0 -51 -19.5 -88.5t-54.5 -62t-82 -36t-102 -11.5q-54 0 -105.5 11.5t-97.5 33.5t-86 55l43 76q16 -17 41.5 -33.5
t58 -30.5t70.5 -22.5t78 -8.5q76 0 118 27.5t42 80.5q0 40 -23.5 64t-69.5 40t-112 32q-72 18 -121 39.5t-73.5 56.5t-24.5 91q0 68 33 115t91 71t131 24q48 0 89.5 -10t77.5 -28t66 -43zM345 808l-58 20l58 101h88z" />
    <glyph glyph-name="sacute" unicode="&#x15b;" horiz-adv-x="488" 
d="M250 -10q-65 0 -122 21.5t-98 64.5l34 62q45 -42 90 -60t92 -18q54 0 88 20.5t34 60.5q0 29 -17.5 43t-49.5 23.5t-76 21.5q-54 16 -91 34t-56 45t-19 68q0 50 26 84.5t71.5 52.5t103.5 18t105 -18t81 -53l-40 -61q-31 32 -68 47.5t-83 15.5q-27 0 -53 -6.5t-43 -23
t-17 -46.5q0 -25 13.5 -39.5t40 -24.5t64.5 -22q59 -17 102.5 -34t67.5 -44t24 -75q0 -74 -56 -115.5t-148 -41.5zM282 609l-58 20l58 101h88z" />
    <glyph glyph-name="Scircumflex" unicode="&#x15c;" horiz-adv-x="609" 
d="M502 561q-12 14 -32 27t-45 23.5t-54.5 17t-61.5 6.5q-82 0 -121 -31t-39 -85q0 -38 20 -60t61.5 -36t105.5 -29q74 -16 128 -39t83 -61.5t29 -102.5q0 -51 -19.5 -88.5t-54.5 -62t-82 -36t-102 -11.5q-54 0 -105.5 11.5t-97.5 33.5t-86 55l43 76q16 -17 41.5 -33.5
t58 -30.5t70.5 -22.5t78 -8.5q76 0 118 27.5t42 80.5q0 40 -23.5 64t-69.5 40t-112 32q-72 18 -121 39.5t-73.5 56.5t-24.5 91q0 68 33 115t91 71t131 24q48 0 89.5 -10t77.5 -28t66 -43zM181 839l101 90h64l101 -90l-48 -24l-85 63l-85 -63z" />
    <glyph glyph-name="scircumflex" unicode="&#x15d;" horiz-adv-x="488" 
d="M250 -10q-65 0 -122 21.5t-98 64.5l34 62q45 -42 90 -60t92 -18q54 0 88 20.5t34 60.5q0 29 -17.5 43t-49.5 23.5t-76 21.5q-54 16 -91 34t-56 45t-19 68q0 50 26 84.5t71.5 52.5t103.5 18t105 -18t81 -53l-40 -61q-31 32 -68 47.5t-83 15.5q-27 0 -53 -6.5t-43 -23
t-17 -46.5q0 -25 13.5 -39.5t40 -24.5t64.5 -22q59 -17 102.5 -34t67.5 -44t24 -75q0 -74 -56 -115.5t-148 -41.5zM118 640l101 90h64l101 -90l-48 -24l-85 63l-85 -63z" />
    <glyph glyph-name="Scedilla" unicode="&#x15e;" horiz-adv-x="609" 
d="M502 561q-12 14 -32 27t-45 23.5t-54.5 17t-61.5 6.5q-82 0 -121 -31t-39 -85q0 -38 20 -60t61.5 -36t105.5 -29q74 -16 128 -39t83 -61.5t29 -102.5q0 -51 -19.5 -88.5t-54.5 -62t-82 -36t-102 -11.5q-54 0 -105.5 11.5t-97.5 33.5t-86 55l43 76q16 -17 41.5 -33.5
t58 -30.5t70.5 -22.5t78 -8.5q76 0 118 27.5t42 80.5q0 40 -23.5 64t-69.5 40t-112 32q-72 18 -121 39.5t-73.5 56.5t-24.5 91q0 68 33 115t91 71t131 24q48 0 89.5 -10t77.5 -28t66 -43zM305 -186q-26 0 -56.5 7t-59.5 21l24 49q20 -10 37.5 -16t39.5 -6q31 0 48 12.5
t17 36.5q0 25 -17.5 44t-49.5 38l32 23q41 -25 66 -52t25 -68t-28 -65t-78 -24z" />
    <glyph glyph-name="scedilla" unicode="&#x15f;" horiz-adv-x="488" 
d="M250 -10q-65 0 -122 21.5t-98 64.5l34 62q45 -42 90 -60t92 -18q54 0 88 20.5t34 60.5q0 29 -17.5 43t-49.5 23.5t-76 21.5q-54 16 -91 34t-56 45t-19 68q0 50 26 84.5t71.5 52.5t103.5 18t105 -18t81 -53l-40 -61q-31 32 -68 47.5t-83 15.5q-27 0 -53 -6.5t-43 -23
t-17 -46.5q0 -25 13.5 -39.5t40 -24.5t64.5 -22q59 -17 102.5 -34t67.5 -44t24 -75q0 -74 -56 -115.5t-148 -41.5zM237 -186q-26 0 -56.5 7t-59.5 21l24 49q20 -10 37.5 -16t39.5 -6q31 0 48 12.5t17 36.5q0 25 -17.5 44t-49.5 38l32 23q41 -25 66 -52t25 -68t-28 -65
t-78 -24z" />
    <glyph glyph-name="Scaron" unicode="&#x160;" horiz-adv-x="609" 
d="M502 561q-12 14 -32 27t-45 23.5t-54.5 17t-61.5 6.5q-82 0 -121 -31t-39 -85q0 -38 20 -60t61.5 -36t105.5 -29q74 -16 128 -39t83 -61.5t29 -102.5q0 -51 -19.5 -88.5t-54.5 -62t-82 -36t-102 -11.5q-54 0 -105.5 11.5t-97.5 33.5t-86 55l43 76q16 -17 41.5 -33.5
t58 -30.5t70.5 -22.5t78 -8.5q76 0 118 27.5t42 80.5q0 40 -23.5 64t-69.5 40t-112 32q-72 18 -121 39.5t-73.5 56.5t-24.5 91q0 68 33 115t91 71t131 24q48 0 89.5 -10t77.5 -28t66 -43zM229 929l85 -63l85 63l48 -24l-101 -90h-64l-101 90z" />
    <glyph glyph-name="scaron" unicode="&#x161;" horiz-adv-x="488" 
d="M250 -10q-65 0 -122 21.5t-98 64.5l34 62q45 -42 90 -60t92 -18q54 0 88 20.5t34 60.5q0 29 -17.5 43t-49.5 23.5t-76 21.5q-54 16 -91 34t-56 45t-19 68q0 50 26 84.5t71.5 52.5t103.5 18t105 -18t81 -53l-40 -61q-31 32 -68 47.5t-83 15.5q-27 0 -53 -6.5t-43 -23
t-17 -46.5q0 -25 13.5 -39.5t40 -24.5t64.5 -22q59 -17 102.5 -34t67.5 -44t24 -75q0 -74 -56 -115.5t-148 -41.5zM166 730l85 -63l85 63l48 -24l-101 -90h-64l-101 90z" />
    <glyph glyph-name="uni0162" unicode="&#x162;" horiz-adv-x="614" 
d="M597 630h-245v-630h-90v630h-245v80h580v-80zM298 -186q-26 0 -56.5 7t-59.5 21l24 49q20 -10 37.5 -16t39.5 -6q31 0 48 12.5t17 36.5q0 25 -17.5 44t-49.5 38l32 23q41 -25 66 -52t25 -68t-28 -65t-78 -24z" />
    <glyph glyph-name="uni0163" unicode="&#x163;" horiz-adv-x="352" 
d="M341 26q-11 -5 -30 -13t-44 -14t-53 -6q-32 0 -59 11.5t-43 36t-16 61.5v351h-71v69h71v174h88v-174h117v-69h-117v-324q2 -28 19 -41.5t40 -13.5q26 0 48 9t29 13zM202 -186q-26 0 -56.5 7t-59.5 21l24 49q20 -10 37.5 -16t39.5 -6q31 0 48 12.5t17 36.5q0 25 -17.5 44
t-49.5 38l32 23q41 -25 66 -52t25 -68t-28 -65t-78 -24z" />
    <glyph glyph-name="Tcaron" unicode="&#x164;" horiz-adv-x="614" 
d="M597 630h-245v-630h-90v630h-245v80h580v-80zM225 916l85 -63l85 63l48 -24l-101 -90h-64l-101 90z" />
    <glyph glyph-name="tcaron" unicode="&#x165;" horiz-adv-x="352" 
d="M341 26q-11 -5 -30 -13t-44 -14t-53 -6q-32 0 -59 11.5t-43 36t-16 61.5v351h-71v69h71v174h88v-174h117v-69h-117v-324q2 -28 19 -41.5t40 -13.5q26 0 48 9t29 13zM303 609l-58 20l58 101h88z" />
    <glyph glyph-name="Tbar" unicode="&#x166;" horiz-adv-x="642" 
d="M75 309v66h492v-66h-492zM611 630h-245v-630h-90v630h-245v80h580v-80z" />
    <glyph glyph-name="tbar" unicode="&#x167;" horiz-adv-x="353" 
d="M36 272v56h253v-56h-253zM342 26q-11 -5 -30 -13t-44 -14t-53 -6q-32 0 -59 11.5t-43 36t-16 61.5v351h-71v69h71v174h88v-174h117v-69h-117v-324q2 -28 19 -41.5t40 -13.5q26 0 48 9t29 13z" />
    <glyph glyph-name="Utilde" unicode="&#x168;" horiz-adv-x="755" 
d="M378 -5q-85 0 -143 29.5t-93 80t-51 114.5t-16 132v359h90v-359q0 -52 10.5 -101.5t34.5 -88.5t65 -62t102 -23q62 0 103 23.5t65 63t34.5 88.5t10.5 100v359h90v-359q0 -72 -16.5 -136.5t-52.5 -113.5t-93.5 -77.5t-139.5 -28.5zM440 813q-30 0 -51 10.5t-38.5 21
t-39.5 10.5t-32.5 -11t-13.5 -23t-3 -14h-52q0 6 4.5 22.5t15.5 35t30 32t49 13.5q29 0 48.5 -10.5t38 -21.5t42.5 -11q26 0 37.5 11.5t15 23.5t3.5 14h52q0 -6 -4.5 -22t-16.5 -35t-32.5 -32.5t-52.5 -13.5z" />
    <glyph glyph-name="utilde" unicode="&#x169;" horiz-adv-x="601" 
d="M66 209v313h88v-296q0 -80 28 -120t83 -40q36 0 69.5 15.5t60.5 44.5t42 69v327h88v-422q0 -16 6.5 -23.5t21.5 -8.5v-68q-15 -2 -23.5 -2.5t-16.5 -0.5q-25 0 -43 15.5t-19 38.5l-2 61q-34 -58 -91.5 -90t-125.5 -32q-82 0 -124 55.5t-42 163.5zM356 627q-30 0 -51 10.5
t-38.5 21t-39.5 10.5t-32.5 -11t-13.5 -23t-3 -14h-52q0 6 4.5 22.5t15.5 35t30 32t49 13.5q29 0 48.5 -10.5t38 -21.5t42.5 -11q26 0 37.5 11.5t15 23.5t3.5 14h52q0 -6 -4.5 -22t-16.5 -35t-32.5 -32.5t-52.5 -13.5z" />
    <glyph glyph-name="Umacron" unicode="&#x16a;" horiz-adv-x="755" 
d="M378 -5q-85 0 -143 29.5t-93 80t-51 114.5t-16 132v359h90v-359q0 -52 10.5 -101.5t34.5 -88.5t65 -62t102 -23q62 0 103 23.5t65 63t34.5 88.5t10.5 100v359h90v-359q0 -72 -16.5 -136.5t-52.5 -113.5t-93.5 -77.5t-139.5 -28.5zM233 840v58h292v-58h-292z" />
    <glyph glyph-name="umacron" unicode="&#x16b;" horiz-adv-x="601" 
d="M66 209v313h88v-296q0 -80 28 -120t83 -40q36 0 69.5 15.5t60.5 44.5t42 69v327h88v-422q0 -16 6.5 -23.5t21.5 -8.5v-68q-15 -2 -23.5 -2.5t-16.5 -0.5q-25 0 -43 15.5t-19 38.5l-2 61q-34 -58 -91.5 -90t-125.5 -32q-82 0 -124 55.5t-42 163.5zM149 654v58h292v-58
h-292z" />
    <glyph glyph-name="Ubreve" unicode="&#x16c;" horiz-adv-x="755" 
d="M378 -5q-85 0 -143 29.5t-93 80t-51 114.5t-16 132v359h90v-359q0 -52 10.5 -101.5t34.5 -88.5t65 -62t102 -23q62 0 103 23.5t65 63t34.5 88.5t10.5 100v359h90v-359q0 -72 -16.5 -136.5t-52.5 -113.5t-93.5 -77.5t-139.5 -28.5zM378 848q22 0 38.5 19.5t19.5 48.5h50
q0 -47 -31 -79t-77 -32t-77 32t-31 79h51q0 -27 17.5 -47.5t39.5 -20.5z" />
    <glyph glyph-name="ubreve" unicode="&#x16d;" horiz-adv-x="601" 
d="M66 209v313h88v-296q0 -80 28 -120t83 -40q36 0 69.5 15.5t60.5 44.5t42 69v327h88v-422q0 -16 6.5 -23.5t21.5 -8.5v-68q-15 -2 -23.5 -2.5t-16.5 -0.5q-25 0 -43 15.5t-19 38.5l-2 61q-34 -58 -91.5 -90t-125.5 -32q-82 0 -124 55.5t-42 163.5zM294 662q22 0 38.5 19.5
t19.5 48.5h50q0 -47 -31 -79t-77 -32t-77 32t-31 79h51q0 -27 17.5 -47.5t39.5 -20.5z" />
    <glyph glyph-name="Uring" unicode="&#x16e;" horiz-adv-x="755" 
d="M378 -5q-85 0 -143 29.5t-93 80t-51 114.5t-16 132v359h90v-359q0 -52 10.5 -101.5t34.5 -88.5t65 -62t102 -23q62 0 103 23.5t65 63t34.5 88.5t10.5 100v359h90v-359q0 -72 -16.5 -136.5t-52.5 -113.5t-93.5 -77.5t-139.5 -28.5zM283 851q0 40 27 64t68 24
q42 0 68.5 -24t26.5 -64q0 -39 -26.5 -62.5t-68.5 -23.5q-41 0 -68 23.5t-27 62.5zM378 899q-19 0 -33 -12.5t-14 -35.5q0 -20 13.5 -33.5t33.5 -13.5q19 0 33.5 13t14.5 34q0 23 -14 35.5t-34 12.5z" />
    <glyph glyph-name="uring" unicode="&#x16f;" horiz-adv-x="601" 
d="M66 209v313h88v-296q0 -80 28 -120t83 -40q36 0 69.5 15.5t60.5 44.5t42 69v327h88v-422q0 -16 6.5 -23.5t21.5 -8.5v-68q-15 -2 -23.5 -2.5t-16.5 -0.5q-25 0 -43 15.5t-19 38.5l-2 61q-34 -58 -91.5 -90t-125.5 -32q-82 0 -124 55.5t-42 163.5zM199 665q0 40 27 64
t68 24q42 0 68.5 -24t26.5 -64q0 -39 -26.5 -62.5t-68.5 -23.5q-41 0 -68 23.5t-27 62.5zM294 713q-19 0 -33 -12.5t-14 -35.5q0 -20 13.5 -33.5t33.5 -13.5q19 0 33.5 13t14.5 34q0 23 -14 35.5t-34 12.5z" />
    <glyph glyph-name="Uhungarumlaut" unicode="&#x170;" horiz-adv-x="755" 
d="M378 -5q-85 0 -143 29.5t-93 80t-51 114.5t-16 132v359h90v-359q0 -52 10.5 -101.5t34.5 -88.5t65 -62t102 -23q62 0 103 23.5t65 63t34.5 88.5t10.5 100v359h90v-359q0 -72 -16.5 -136.5t-52.5 -113.5t-93.5 -77.5t-139.5 -28.5zM315 796l-46 20l54 101h76zM451 796
l-46 20l54 101h76z" />
    <glyph glyph-name="uhungarumlaut" unicode="&#x171;" horiz-adv-x="601" 
d="M66 209v313h88v-296q0 -80 28 -120t83 -40q36 0 69.5 15.5t60.5 44.5t42 69v327h88v-422q0 -16 6.5 -23.5t21.5 -8.5v-68q-15 -2 -23.5 -2.5t-16.5 -0.5q-25 0 -43 15.5t-19 38.5l-2 61q-34 -58 -91.5 -90t-125.5 -32q-82 0 -124 55.5t-42 163.5zM231 610l-46 20l54 101
h76zM367 610l-46 20l54 101h76z" />
    <glyph glyph-name="Uogonek" unicode="&#x172;" horiz-adv-x="755" 
d="M378 -5q-85 0 -143 29.5t-93 80t-51 114.5t-16 132v359h90v-359q0 -52 10.5 -101.5t34.5 -88.5t65 -62t102 -23q62 0 103 23.5t65 63t34.5 88.5t10.5 100v359h90v-359q0 -72 -16.5 -136.5t-52.5 -113.5t-93.5 -77.5t-139.5 -28.5zM305 -106q0 33 22.5 63.5t70.5 61.5h24
l20 -18q-41 -31 -59.5 -53.5t-18.5 -41.5q0 -20 21 -28t57 -10l-20 -56q-49 4 -74.5 17t-34 30.5t-8.5 34.5z" />
    <glyph glyph-name="uogonek" unicode="&#x173;" horiz-adv-x="601" 
d="M66 209v313h88v-296q0 -80 28 -120t83 -40q36 0 69.5 15.5t60.5 44.5t42 69v327h88v-422q0 -16 6.5 -23.5t21.5 -8.5v-68q-15 -2 -23.5 -2.5t-16.5 -0.5q-25 0 -43 15.5t-19 38.5l-2 61q-34 -58 -91.5 -90t-125.5 -32q-82 0 -124 55.5t-42 163.5zM416 -107
q0 33 22.5 63.5t70.5 61.5h24l20 -18q-41 -31 -59.5 -53.5t-18.5 -41.5q0 -20 21 -28t57 -10l-20 -56q-49 4 -74.5 17t-34 30.5t-8.5 34.5z" />
    <glyph glyph-name="Wcircumflex" unicode="&#x174;" horiz-adv-x="1049" 
d="M345 706h85l94 -247l95 247h85l-123 -309l122 -293l240 606h98l-297 -710h-78l-141 335l-142 -335h-78l-296 710h97l241 -606l121 293zM391 826l101 90h64l101 -90l-48 -24l-85 63l-85 -63z" />
    <glyph glyph-name="wcircumflex" unicode="&#x175;" horiz-adv-x="821" 
d="M725 522h85l-222 -522h-77l-101 246l-100 -246h-77l-222 522h84l180 -435l84 214l-88 220h77l62 -166l62 166h77l-87 -220l84 -214zM277 640l101 90h64l101 -90l-48 -24l-85 63l-85 -63z" />
    <glyph glyph-name="Ycircumflex" unicode="&#x176;" horiz-adv-x="655" 
d="M112 710l215 -370l217 370h98l-270 -451v-259h-90v261l-269 449h99zM194 826l101 90h64l101 -90l-48 -24l-85 63l-85 -63z" />
    <glyph glyph-name="ycircumflex" unicode="&#x177;" horiz-adv-x="545" 
d="M95 -142q13 -1 26 -2.5t20 -1.5q16 0 28 11t26.5 42.5t37.5 92.5l-221 522h93l176 -433l159 433h87l-254 -659q-9 -23 -26.5 -43.5t-44.5 -32.5t-65 -12q-9 0 -18.5 1t-23.5 4v78zM148 640l101 90h64l101 -90l-48 -24l-85 63l-85 -63z" />
    <glyph glyph-name="Ydieresis" unicode="&#x178;" horiz-adv-x="655" 
d="M112 710l215 -370l217 370h98l-270 -451v-259h-90v261l-269 449h99zM209 811v102h74v-102h-74zM371 811v102h74v-102h-74z" />
    <glyph glyph-name="Zacute" unicode="&#x179;" horiz-adv-x="631" 
d="M32 70l458 560h-449v80h554v-70l-450 -560h450v-80h-563v70zM362 795l-58 20l58 101h88z" />
    <glyph glyph-name="zacute" unicode="&#x17a;" horiz-adv-x="493" 
d="M30 57l329 401h-320v64h419v-57l-327 -401h328v-64h-429v57zM285 609l-58 20l58 101h88z" />
    <glyph glyph-name="Zdotaccent" unicode="&#x17b;" horiz-adv-x="631" 
d="M32 70l458 560h-449v80h554v-70l-450 -560h450v-80h-563v70zM291 810v106h80v-106h-80z" />
    <glyph glyph-name="zdotaccent" unicode="&#x17c;" horiz-adv-x="493" 
d="M30 57l329 401h-320v64h419v-57l-327 -401h328v-64h-429v57zM214 624v106h80v-106h-80z" />
    <glyph glyph-name="Zcaron" unicode="&#x17d;" horiz-adv-x="631" 
d="M32 70l458 560h-449v80h554v-70l-450 -560h450v-80h-563v70zM246 916l85 -63l85 63l48 -24l-101 -90h-64l-101 90z" />
    <glyph glyph-name="zcaron" unicode="&#x17e;" horiz-adv-x="493" 
d="M30 57l329 401h-320v64h419v-57l-327 -401h328v-64h-429v57zM169 730l85 -63l85 63l48 -24l-101 -90h-64l-101 90z" />
    <glyph glyph-name="uni018F" unicode="&#x18f;" horiz-adv-x="736" 
d="M364 -5q-70 0 -131 27.5t-107.5 76.5t-72.5 113t-26 137q0 13 1 25t2 18h567q-5 51 -25.5 95t-53 76.5t-73 50.5t-86.5 18t-87 -17t-71 -47t-43 -69l-85 39q26 53 72 92.5t103.5 62t118.5 22.5q69 0 128.5 -28t104.5 -77.5t70.5 -115t25.5 -141.5q0 -75 -25.5 -140.5
t-71 -114t-105.5 -76t-130 -27.5zM366 76q63 0 114 31t83 84.5t36 122.5h-475q4 -67 37.5 -121t87 -85.5t117.5 -31.5z" />
    <glyph glyph-name="florin" unicode="&#x192;" horiz-adv-x="534" 
d="M150 -186q-34 0 -65 10t-55 32l41 59q14 -13 32.5 -18t36.5 -5q22 0 41 11t31 30.5t12 43.5v415h-71v69h71v72q0 64 19.5 110.5t55.5 71.5t85 25q30 0 60.5 -8.5t54.5 -23.5l-22 -65q-14 10 -35 16t-41 6q-43 0 -66 -33.5t-23 -95.5v-75h139v-69h-139v-413
q0 -48 -23 -85.5t-60 -58.5t-79 -21z" />
    <glyph glyph-name="Ohorn" unicode="&#x1a0;" horiz-adv-x="748" 
d="M373 -5q-75 0 -136 30t-105.5 81.5t-68.5 116t-24 132.5q0 71 25.5 135.5t71 115t106.5 80t133 29.5q75 0 136 -31t105 -83t68 -116t24 -131q0 -71 -25 -135.5t-70.5 -115t-106.5 -79.5t-133 -29zM130 355q0 -54 17.5 -104.5t49.5 -89.5t77 -62t100 -23q57 0 102 24
t76.5 64t48 90t16.5 101q0 54 -17.5 104t-50 89.5t-77 62t-98.5 22.5q-57 0 -102 -23.5t-76.5 -63.5t-48.5 -89.5t-17 -101.5zM430 646l2 64q35 0 52.5 6t27.5 17q10 13 13 27.5t4 33.5h72q-1 -18 -4.5 -36t-10.5 -34.5t-20 -31.5t-33.5 -25.5t-46.5 -15.5t-56 -5z" />
    <glyph glyph-name="ohorn" unicode="&#x1a1;" horiz-adv-x="599" 
d="M299 -10q-59 0 -107 21.5t-83 59t-54 86.5t-19 103q0 55 19 104t54 86.5t83.5 59t107.5 21.5q58 0 106 -21.5t83.5 -59t54.5 -86.5t19 -104q0 -54 -19 -103t-54 -86.5t-83.5 -59t-107.5 -21.5zM126 259q0 -54 23.5 -98t62.5 -69.5t87 -25.5t87.5 26t63 70.5t23.5 98.5
t-23.5 98t-63 70t-87.5 26t-87 -26.5t-62.5 -70.5t-23.5 -99zM364 459l2 64q35 0 52.5 6t27.5 17q10 13 13 27.5t4 33.5h72q-1 -18 -4.5 -36t-10.5 -34.5t-20 -31.5t-33.5 -25.5t-46.5 -15.5t-56 -5z" />
    <glyph glyph-name="Uhorn" unicode="&#x1af;" horiz-adv-x="755" 
d="M378 -5q-85 0 -143 29.5t-93 80t-51 114.5t-16 132v359h90v-359q0 -52 10.5 -101.5t34.5 -88.5t65 -62t102 -23q62 0 103 23.5t65 63t34.5 88.5t10.5 100v359h90v-359q0 -72 -16.5 -136.5t-52.5 -113.5t-93.5 -77.5t-139.5 -28.5zM627 647l2 64q35 0 52.5 6t27.5 17
q10 13 13 27.5t4 33.5h72q-1 -18 -4.5 -36t-10.5 -34.5t-20 -31.5t-33.5 -25.5t-46.5 -15.5t-56 -5z" />
    <glyph glyph-name="uhorn" unicode="&#x1b0;" horiz-adv-x="601" 
d="M66 209v313h88v-296q0 -80 28 -120t83 -40q36 0 69.5 15.5t60.5 44.5t42 69v327h88v-422q0 -16 6.5 -23.5t21.5 -8.5v-68q-15 -2 -23.5 -2.5t-16.5 -0.5q-25 0 -43 15.5t-19 38.5l-2 61q-34 -58 -91.5 -90t-125.5 -32q-82 0 -124 55.5t-42 163.5zM467 458l2 64
q35 0 52.5 6t27.5 17q10 13 13 27.5t4 33.5h72q-1 -18 -4.5 -36t-10.5 -34.5t-20 -31.5t-33.5 -25.5t-46.5 -15.5t-56 -5z" />
    <glyph glyph-name="uni01C4" unicode="&#x1c4;" horiz-adv-x="1347" 
d="M748 70l458 560h-449v80h554v-70l-450 -560h450v-80h-563v70zM85 0v710h246q114 0 190.5 -47.5t114.5 -128t38 -178.5q0 -108 -42 -188t-119 -124t-182 -44h-246zM583 356q0 80 -29.5 142t-85.5 97t-137 35h-156v-550h156q82 0 138 36.5t85 99t29 140.5zM962 916l85 -63
l85 63l48 -24l-101 -90h-64l-101 90z" />
    <glyph glyph-name="uni01C5" unicode="&#x1c5;" horiz-adv-x="1209" 
d="M85 0v710h246q114 0 190.5 -47.5t114.5 -128t38 -178.5q0 -108 -42 -188t-119 -124t-182 -44h-246zM583 356q0 80 -29.5 142t-85.5 97t-137 35h-156v-550h156q82 0 138 36.5t85 99t29 140.5zM746 57l329 401h-320v64h419v-57l-327 -401h328v-64h-429v57zM885 730l85 -63
l85 63l48 -24l-101 -90h-64l-101 90z" />
    <glyph glyph-name="uni01C6" unicode="&#x1c6;" horiz-adv-x="1122" 
d="M37 260q0 74 30.5 135.5t84 98.5t122.5 37q63 0 113 -33t78 -80v312h88v-630q0 -16 6.5 -23.5t21.5 -8.5v-68q-25 -4 -39 -4q-26 0 -45.5 18t-19.5 40v44q-31 -50 -83 -79t-108 -29q-54 0 -99.5 21.5t-79 59.5t-52 86.5t-18.5 102.5zM465 183v150q-12 34 -39 61.5
t-60.5 44t-66.5 16.5q-39 0 -70.5 -16.5t-54 -44t-34.5 -62.5t-12 -73q0 -39 13.5 -74t38 -62t57 -42t70.5 -15q24 0 49.5 9t48.5 25t39 37.5t21 45.5zM659 57l329 401h-320v64h419v-57l-327 -401h328v-64h-429v57zM798 730l85 -63l85 63l48 -24l-101 -90h-64l-101 90z" />
    <glyph glyph-name="uni01C7" unicode="&#x1c7;" horiz-adv-x="1069" 
d="M85 0v710h90v-630h396v-80h-486zM619 106q19 -13 52.5 -24.5t79.5 -11.5q47 0 77 15.5t46 47t22 80.5t6 116v381h90v-361q0 -79 -8 -145t-32 -114.5t-71.5 -74.5t-126.5 -26q-50 0 -88 11t-70 33z" />
    <glyph glyph-name="uni01C8" unicode="&#x1c8;" horiz-adv-x="821" 
d="M85 0v710h90v-630h396v-80h-486zM588 -186q-34 0 -65 10t-55 32l41 59q14 -13 32.5 -18t36.5 -5q22 0 41 11t31 30.5t12 43.5v545h88v-539q0 -49 -23 -87.5t-59.5 -60t-79.5 -21.5zM662 620v110h88v-110h-88z" />
    <glyph glyph-name="uni01C9" unicode="&#x1c9;" horiz-adv-x="523" 
d="M73 730h88v-595q0 -43 12 -53t29 -10q21 0 40 4.5t32 9.5l14 -72q-22 -9 -52 -15t-53 -6q-51 0 -80.5 29t-29.5 81v627zM290 -186q-34 0 -65 10t-55 32l41 59q14 -13 32.5 -18t36.5 -5q22 0 41 11t31 30.5t12 43.5v545h88v-539q0 -49 -23 -87.5t-59.5 -60t-79.5 -21.5z
M364 620v110h88v-110h-88z" />
    <glyph glyph-name="uni01CA" unicode="&#x1ca;" horiz-adv-x="1255" 
d="M175 544v-544h-90v710h76l434 -555v554h90v-709h-82zM805 106q19 -13 52.5 -24.5t79.5 -11.5q47 0 77 15.5t46 47t22 80.5t6 116v381h90v-361q0 -79 -8 -145t-32 -114.5t-71.5 -74.5t-126.5 -26q-50 0 -88 11t-70 33z" />
    <glyph glyph-name="uni01CB" unicode="&#x1cb;" horiz-adv-x="1007" 
d="M175 544v-544h-90v710h76l434 -555v554h90v-709h-82zM774 -186q-34 0 -65 10t-55 32l41 59q14 -13 32.5 -18t36.5 -5q22 0 41 11t31 30.5t12 43.5v545h88v-539q0 -49 -23 -87.5t-59.5 -60t-79.5 -21.5zM848 620v110h88v-110h-88z" />
    <glyph glyph-name="uni01CC" unicode="&#x1cc;" horiz-adv-x="827" 
d="M524 0h-88v292q0 83 -25.5 121.5t-77.5 38.5q-36 0 -71.5 -18t-63 -48.5t-39.5 -70.5v-315h-88v522h80v-112q21 37 54 64t75 42t88 15q45 0 75.5 -16.5t48 -46t25 -69.5t7.5 -87v-312zM594 -186q-34 0 -65 10t-55 32l41 59q14 -13 32.5 -18t36.5 -5q22 0 41 11t31 30.5
t12 43.5v545h88v-539q0 -49 -23 -87.5t-59.5 -60t-79.5 -21.5zM668 620v110h88v-110h-88z" />
    <glyph glyph-name="Gcaron" unicode="&#x1e6;" horiz-adv-x="714" 
d="M370 -5q-70 0 -130.5 30.5t-105.5 82t-70 116t-25 133.5q0 72 25 136.5t69.5 114.5t105 78.5t131.5 28.5q103 0 170 -43t101 -112l-69 -48q-31 62 -85 92t-119 30q-54 0 -98 -23t-75.5 -62.5t-48 -89.5t-16.5 -104q0 -57 18.5 -107.5t52.5 -89t79 -60.5t97 -22
q61 0 116 31t104 95v-93q-96 -114 -227 -114zM586 286h-153v68h229v-354h-76v286zM284 916l85 -63l85 63l48 -24l-101 -90h-64l-101 90z" />
    <glyph glyph-name="gcaron" unicode="&#x1e7;" horiz-adv-x="624" 
d="M279 -6q-53 0 -97.5 21.5t-76.5 59t-49.5 85.5t-17.5 100q0 55 17.5 104t50 86.5t76.5 59t98 21.5q65 0 113.5 -32t81.5 -81v104h78v-516q0 -74 -35.5 -125t-96 -77.5t-134.5 -26.5q-88 0 -144 31t-93 84l51 45q31 -46 80.5 -69t105.5 -23q48 0 88.5 17.5t65 53.5
t24.5 90v92q-29 -48 -79.5 -76t-106.5 -28zM306 66q28 0 54 10t48 26.5t37 37.5t20 43v150q-14 36 -40 63.5t-59 43t-68 15.5q-40 0 -71.5 -17t-53.5 -45.5t-34 -63.5t-12 -71q0 -39 14 -73.5t38 -61.5t57 -42t70 -15zM216 730l85 -63l85 63l48 -24l-101 -90h-64l-101 90z
" />
    <glyph glyph-name="uni01EA" unicode="&#x1ea;" horiz-adv-x="748" 
d="M373 -5q-75 0 -136 30t-105.5 81.5t-68.5 116t-24 132.5q0 71 25.5 135.5t71 115t106.5 80t133 29.5q75 0 136 -31t105 -83t68 -116t24 -131q0 -71 -25 -135.5t-70.5 -115t-106.5 -79.5t-133 -29zM130 355q0 -54 17.5 -104.5t49.5 -89.5t77 -62t100 -23q57 0 102 24
t76.5 64t48 90t16.5 101q0 54 -17.5 104t-50 89.5t-77 62t-98.5 22.5q-57 0 -102 -23.5t-76.5 -63.5t-48.5 -89.5t-17 -101.5zM315 -100q0 33 22.5 63.5t70.5 61.5h24l20 -18q-41 -31 -59.5 -53.5t-18.5 -41.5q0 -20 21 -28t57 -10l-20 -56q-49 4 -74.5 17t-34 30.5
t-8.5 34.5z" />
    <glyph glyph-name="uni01EB" unicode="&#x1eb;" horiz-adv-x="599" 
d="M299 -10q-59 0 -107 21.5t-83 59t-54 86.5t-19 103q0 55 19 104t54 86.5t83.5 59t107.5 21.5q58 0 106 -21.5t83.5 -59t54.5 -86.5t19 -104q0 -54 -19 -103t-54 -86.5t-83.5 -59t-107.5 -21.5zM126 259q0 -54 23.5 -98t62.5 -69.5t87 -25.5t87.5 26t63 70.5t23.5 98.5
t-23.5 98t-63 70t-87.5 26t-87 -26.5t-62.5 -70.5t-23.5 -99zM235 -107q0 33 22.5 63.5t70.5 61.5h24l20 -18q-41 -31 -59.5 -53.5t-18.5 -41.5q0 -20 21 -28t57 -10l-20 -56q-49 4 -74.5 17t-34 30.5t-8.5 34.5z" />
    <glyph glyph-name="uni01F1" unicode="&#x1f1;" horiz-adv-x="1334" 
d="M85 0v710h246q114 0 190.5 -47.5t114.5 -128t38 -178.5q0 -108 -42 -188t-119 -124t-182 -44h-246zM583 356q0 80 -29.5 142t-85.5 97t-137 35h-156v-550h156q82 0 138 36.5t85 99t29 140.5zM735 70l458 560h-449v80h554v-70l-450 -560h450v-80h-563v70z" />
    <glyph glyph-name="uni01F2" unicode="&#x1f2;" horiz-adv-x="1209" 
d="M85 0v710h246q114 0 190.5 -47.5t114.5 -128t38 -178.5q0 -108 -42 -188t-119 -124t-182 -44h-246zM583 356q0 80 -29.5 142t-85.5 97t-137 35h-156v-550h156q82 0 138 36.5t85 99t29 140.5zM746 57l329 401h-320v64h419v-57l-327 -401h328v-64h-429v57z" />
    <glyph glyph-name="uni01F3" unicode="&#x1f3;" horiz-adv-x="1122" 
d="M37 260q0 74 30.5 135.5t84 98.5t122.5 37q63 0 113 -33t78 -80v312h88v-630q0 -16 6.5 -23.5t21.5 -8.5v-68q-25 -4 -39 -4q-26 0 -45.5 18t-19.5 40v44q-31 -50 -83 -79t-108 -29q-54 0 -99.5 21.5t-79 59.5t-52 86.5t-18.5 102.5zM465 183v150q-12 34 -39 61.5
t-60.5 44t-66.5 16.5q-39 0 -70.5 -16.5t-54 -44t-34.5 -62.5t-12 -73q0 -39 13.5 -74t38 -62t57 -42t70.5 -15q24 0 49.5 9t48.5 25t39 37.5t21 45.5zM659 57l329 401h-320v64h419v-57l-327 -401h328v-64h-429v57z" />
    <glyph glyph-name="Gacute" unicode="&#x1f4;" horiz-adv-x="714" 
d="M370 -5q-70 0 -130.5 30.5t-105.5 82t-70 116t-25 133.5q0 72 25 136.5t69.5 114.5t105 78.5t131.5 28.5q103 0 170 -43t101 -112l-69 -48q-31 62 -85 92t-119 30q-54 0 -98 -23t-75.5 -62.5t-48 -89.5t-16.5 -104q0 -57 18.5 -107.5t52.5 -89t79 -60.5t97 -22
q61 0 116 31t104 95v-93q-96 -114 -227 -114zM586 286h-153v68h229v-354h-76v286zM390 795l-58 20l58 101h88z" />
    <glyph glyph-name="gacute" unicode="&#x1f5;" horiz-adv-x="623" 
d="M278 -6q-53 0 -97.5 21.5t-76.5 59t-49.5 85.5t-17.5 100q0 55 17.5 104t50 86.5t76.5 59t98 21.5q65 0 113.5 -32t81.5 -81v104h78v-516q0 -74 -35.5 -125t-96 -77.5t-134.5 -26.5q-88 0 -144 31t-93 84l51 45q31 -46 80.5 -69t105.5 -23q48 0 88.5 17.5t65 53.5
t24.5 90v92q-29 -48 -79.5 -76t-106.5 -28zM305 66q28 0 54 10t48 26.5t37 37.5t20 43v150q-14 36 -40 63.5t-59 43t-68 15.5q-40 0 -71.5 -17t-53.5 -45.5t-34 -63.5t-12 -71q0 -39 14 -73.5t38 -61.5t57 -42t70 -15zM324 609l-58 20l58 101h88z" />
    <glyph glyph-name="Aringacute" unicode="&#x1fa;" horiz-adv-x="677" 
d="M368 819l-58 19l58 96h88zM301 710h76l290 -710h-96l-84 208h-298l-83 -208h-96zM467 278l-128 328l-132 -328h260zM244 770q0 40 27 64t68 24q42 0 68.5 -24t26.5 -64q0 -39 -26.5 -62.5t-68.5 -23.5q-41 0 -68 23.5t-27 62.5zM339 818q-19 0 -33 -12.5t-14 -35.5
q0 -20 13.5 -33.5t33.5 -13.5q19 0 33.5 13t14.5 34q0 23 -14 35.5t-34 12.5z" />
    <glyph glyph-name="aringacute" unicode="&#x1fb;" horiz-adv-x="554" 
d="M30 151q0 50 28.5 86.5t78.5 56.5t116 20q35 0 74 -5.5t69 -16.5v38q0 60 -36 94.5t-102 34.5q-43 0 -82.5 -15.5t-83.5 -44.5l-32 62q51 35 102 52.5t106 17.5q100 0 158 -55.5t58 -154.5v-221q0 -16 6.5 -23.5t21.5 -8.5v-68q-13 -2 -22.5 -3t-15.5 -1q-31 0 -46.5 17
t-17.5 36l-2 33q-34 -44 -89 -68t-109 -24q-52 0 -93 21.5t-64 58t-23 81.5zM370 114q12 14 19 28.5t7 24.5v65q-31 12 -65 18.5t-67 6.5q-67 0 -108.5 -26.5t-41.5 -72.5q0 -25 13.5 -48.5t40 -38.5t65.5 -15q41 0 78 16.5t59 41.5zM171 665q0 40 27 64t68 24
q42 0 68.5 -24t26.5 -64q0 -39 -26.5 -62.5t-68.5 -23.5q-41 0 -68 23.5t-27 62.5zM266 713q-19 0 -33 -12.5t-14 -35.5q0 -20 13.5 -33.5t33.5 -13.5q19 0 33.5 13t14.5 34q0 23 -14 35.5t-34 12.5zM301 795l-58 20l58 101h88z" />
    <glyph glyph-name="AEacute" unicode="&#x1fc;" horiz-adv-x="961" 
d="M428 710h488v-80h-375v-228h321v-80h-321v-242h384v-80h-473v208h-249l-130 -208h-98zM446 288v317l-203 -317h203zM633 795l-58 20l58 101h88z" />
    <glyph glyph-name="aeacute" unicode="&#x1fd;" horiz-adv-x="933" 
d="M204 -10q-49 0 -88.5 21.5t-62.5 58.5t-23 83q0 48 28 84t77.5 56.5t113.5 20.5q34 0 67.5 -5.5t61.5 -14.5q2 16 5 34t9 32q-7 50 -42 78.5t-93 28.5q-40 0 -81 -15.5t-85 -45.5l-29 57q103 68 203 68q64 0 110 -25t71 -70q33 43 83.5 69t111.5 26q79 0 138.5 -37
t93 -98t33.5 -135q0 -6 -0.5 -15.5t-1.5 -14.5h-443q4 -51 30 -90.5t67 -62t89 -22.5t90.5 24t58.5 63l76 -21q-17 -38 -50.5 -68t-79 -47t-98.5 -17q-70 0 -126.5 31t-91.5 82q-22 -40 -59.5 -65t-80.5 -36.5t-82 -11.5zM227 56q47 0 87.5 17.5t62.5 46.5q17 17 19 35
q-8 17 -12.5 42.5t-5.5 44.5q-27 9 -57 14t-59 5q-66 0 -107.5 -28t-41.5 -73q0 -29 15 -53t41 -37.5t58 -13.5zM822 288q-4 52 -28.5 92t-64 62.5t-89.5 22.5q-49 0 -89 -23t-64 -62.5t-27 -91.5h362zM496 609l-58 20l58 101h88z" />
    <glyph glyph-name="Oslashacute" unicode="&#x1fe;" horiz-adv-x="748" 
d="M373 -5q-75 0 -136 30t-105.5 81.5t-68.5 116t-24 132.5q0 71 25.5 135.5t71 115t106.5 80t133 29.5q75 0 136 -31t105 -83t68 -116t24 -131q0 -71 -25 -135.5t-70.5 -115t-106.5 -79.5t-133 -29zM130 355q0 -54 17.5 -104.5t49.5 -89.5t77 -62t100 -23q57 0 102 24
t76.5 64t48 90t16.5 101q0 54 -17.5 104t-50 89.5t-77 62t-98.5 22.5q-57 0 -102 -23.5t-76.5 -63.5t-48.5 -89.5t-17 -101.5zM663 710l-480 -710h-98l479 710h99zM406 795l-58 20l58 101h88z" />
    <glyph glyph-name="oslashacute" unicode="&#x1ff;" horiz-adv-x="599" 
d="M299 -10q-59 0 -107 21.5t-83 59t-54 86.5t-19 103q0 55 19 104t54 86.5t83.5 59t106.5 21.5q59 0 107 -21.5t83.5 -59t54.5 -86.5t19 -104q0 -54 -19 -103t-54 -86.5t-83.5 -59t-107.5 -21.5zM299 66q48 0 87.5 26t63 70.5t23.5 98.5t-23.5 98t-63 70t-87.5 26
t-87 -26.5t-62.5 -70.5t-23.5 -99q0 -54 23.5 -98t62.5 -69.5t87 -25.5zM65 -2l77 96l51 -30l-53 -66h-75zM202 71l-49 27l245 357l54 -23zM463 437l-56 24l49 63h76zM281 609l-58 20l58 101h88z" />
    <glyph glyph-name="uni0200" unicode="&#x200;" horiz-adv-x="677" 
d="M301 710h76l290 -710h-96l-84 208h-298l-83 -208h-96zM467 278l-128 328l-132 -328h260zM312 917h76l54 -101l-46 -20zM176 917h76l54 -101l-46 -20z" />
    <glyph glyph-name="uni0201" unicode="&#x201;" horiz-adv-x="554" 
d="M30 151q0 50 28.5 86.5t78.5 56.5t116 20q35 0 74 -5.5t69 -16.5v38q0 60 -36 94.5t-102 34.5q-43 0 -82.5 -15.5t-83.5 -44.5l-32 62q51 35 102 52.5t106 17.5q100 0 158 -55.5t58 -154.5v-221q0 -16 6.5 -23.5t21.5 -8.5v-68q-13 -2 -22.5 -3t-15.5 -1q-31 0 -46.5 17
t-17.5 36l-2 33q-34 -44 -89 -68t-109 -24q-52 0 -93 21.5t-64 58t-23 81.5zM370 114q12 14 19 28.5t7 24.5v65q-31 12 -65 18.5t-67 6.5q-67 0 -108.5 -26.5t-41.5 -72.5q0 -25 13.5 -48.5t40 -38.5t65.5 -15q41 0 78 16.5t59 41.5zM239 731h76l54 -101l-46 -20zM103 731
h76l54 -101l-46 -20z" />
    <glyph glyph-name="uni0202" unicode="&#x202;" horiz-adv-x="677" 
d="M301 710h76l290 -710h-96l-84 208h-298l-83 -208h-96zM467 278l-128 328l-132 -328h260zM339 873q-22 0 -39.5 -20.5t-17.5 -47.5h-51q0 47 31 79t77 32t77 -32t31 -79h-50q-3 29 -19.5 48.5t-38.5 19.5z" />
    <glyph glyph-name="uni0203" unicode="&#x203;" horiz-adv-x="554" 
d="M30 151q0 50 28.5 86.5t78.5 56.5t116 20q35 0 74 -5.5t69 -16.5v38q0 60 -36 94.5t-102 34.5q-43 0 -82.5 -15.5t-83.5 -44.5l-32 62q51 35 102 52.5t106 17.5q100 0 158 -55.5t58 -154.5v-221q0 -16 6.5 -23.5t21.5 -8.5v-68q-13 -2 -22.5 -3t-15.5 -1q-31 0 -46.5 17
t-17.5 36l-2 33q-34 -44 -89 -68t-109 -24q-52 0 -93 21.5t-64 58t-23 81.5zM370 114q12 14 19 28.5t7 24.5v65q-31 12 -65 18.5t-67 6.5q-67 0 -108.5 -26.5t-41.5 -72.5q0 -25 13.5 -48.5t40 -38.5t65.5 -15q41 0 78 16.5t59 41.5zM266 687q-22 0 -39.5 -20.5t-17.5 -47.5
h-51q0 47 31 79t77 32t77 -32t31 -79h-50q-3 29 -19.5 48.5t-38.5 19.5z" />
    <glyph glyph-name="uni0204" unicode="&#x204;" horiz-adv-x="605" 
d="M567 80v-80h-482v710h473v-80h-383v-230h333v-75h-333v-245h392zM307 917h76l54 -101l-46 -20zM171 917h76l54 -101l-46 -20z" />
    <glyph glyph-name="uni0205" unicode="&#x205;" horiz-adv-x="591" 
d="M302 -10q-59 0 -107.5 21.5t-84 59t-55 86.5t-19.5 104q0 74 34 135t94.5 98t138.5 37q79 0 137.5 -37.5t91 -98t32.5 -130.5q0 -10 -0.5 -19.5t-1.5 -14.5h-433q4 -51 28.5 -90.5t63.5 -62t84 -22.5q48 0 90.5 24t58.5 63l76 -21q-17 -38 -50.5 -68t-79 -47t-98.5 -17z
M126 292h356q-4 51 -29 90t-64 61t-86 22q-46 0 -85 -22t-63.5 -61t-28.5 -90zM272 731h76l54 -101l-46 -20zM136 731h76l54 -101l-46 -20z" />
    <glyph glyph-name="uni0206" unicode="&#x206;" horiz-adv-x="605" 
d="M567 80v-80h-482v710h473v-80h-383v-230h333v-75h-333v-245h392zM334 873q-22 0 -39.5 -20.5t-17.5 -47.5h-51q0 47 31 79t77 32t77 -32t31 -79h-50q-3 29 -19.5 48.5t-38.5 19.5z" />
    <glyph glyph-name="uni0207" unicode="&#x207;" horiz-adv-x="591" 
d="M302 -10q-59 0 -107.5 21.5t-84 59t-55 86.5t-19.5 104q0 74 34 135t94.5 98t138.5 37q79 0 137.5 -37.5t91 -98t32.5 -130.5q0 -10 -0.5 -19.5t-1.5 -14.5h-433q4 -51 28.5 -90.5t63.5 -62t84 -22.5q48 0 90.5 24t58.5 63l76 -21q-17 -38 -50.5 -68t-79 -47t-98.5 -17z
M126 292h356q-4 51 -29 90t-64 61t-86 22q-46 0 -85 -22t-63.5 -61t-28.5 -90zM299 687q-22 0 -39.5 -20.5t-17.5 -47.5h-51q0 47 31 79t77 32t77 -32t31 -79h-50q-3 29 -19.5 48.5t-38.5 19.5z" />
    <glyph glyph-name="uni0208" unicode="&#x208;" horiz-adv-x="260" 
d="M85 0v710h90v-710h-90zM103 917h76l54 -101l-46 -20zM-33 917h76l54 -101l-46 -20z" />
    <glyph glyph-name="uni0209" unicode="&#x209;" horiz-adv-x="230" 
d="M71 0v522h88v-522h-88zM88 731h76l54 -101l-46 -20zM-48 731h76l54 -101l-46 -20z" />
    <glyph glyph-name="uni020A" unicode="&#x20a;" horiz-adv-x="260" 
d="M85 0v710h90v-710h-90zM130 873q-22 0 -39.5 -20.5t-17.5 -47.5h-51q0 47 31 79t77 32t77 -32t31 -79h-50q-3 29 -19.5 48.5t-38.5 19.5z" />
    <glyph glyph-name="uni020B" unicode="&#x20b;" horiz-adv-x="230" 
d="M71 0v522h88v-522h-88zM115 687q-22 0 -39.5 -20.5t-17.5 -47.5h-51q0 47 31 79t77 32t77 -32t31 -79h-50q-3 29 -19.5 48.5t-38.5 19.5z" />
    <glyph glyph-name="uni020C" unicode="&#x20c;" horiz-adv-x="748" 
d="M373 -5q-75 0 -136 30t-105.5 81.5t-68.5 116t-24 132.5q0 71 25.5 135.5t71 115t106.5 80t133 29.5q75 0 136 -31t105 -83t68 -116t24 -131q0 -71 -25 -135.5t-70.5 -115t-106.5 -79.5t-133 -29zM130 355q0 -54 17.5 -104.5t49.5 -89.5t77 -62t100 -23q57 0 102 24
t76.5 64t48 90t16.5 101q0 54 -17.5 104t-50 89.5t-77 62t-98.5 22.5q-57 0 -102 -23.5t-76.5 -63.5t-48.5 -89.5t-17 -101.5zM348 917h76l54 -101l-46 -20zM212 917h76l54 -101l-46 -20z" />
    <glyph glyph-name="uni020D" unicode="&#x20d;" horiz-adv-x="599" 
d="M299 -10q-59 0 -107 21.5t-83 59t-54 86.5t-19 103q0 55 19 104t54 86.5t83.5 59t107.5 21.5q58 0 106 -21.5t83.5 -59t54.5 -86.5t19 -104q0 -54 -19 -103t-54 -86.5t-83.5 -59t-107.5 -21.5zM126 259q0 -54 23.5 -98t62.5 -69.5t87 -25.5t87.5 26t63 70.5t23.5 98.5
t-23.5 98t-63 70t-87.5 26t-87 -26.5t-62.5 -70.5t-23.5 -99zM272 731h76l54 -101l-46 -20zM136 731h76l54 -101l-46 -20z" />
    <glyph glyph-name="uni020E" unicode="&#x20e;" horiz-adv-x="748" 
d="M373 -5q-75 0 -136 30t-105.5 81.5t-68.5 116t-24 132.5q0 71 25.5 135.5t71 115t106.5 80t133 29.5q75 0 136 -31t105 -83t68 -116t24 -131q0 -71 -25 -135.5t-70.5 -115t-106.5 -79.5t-133 -29zM130 355q0 -54 17.5 -104.5t49.5 -89.5t77 -62t100 -23q57 0 102 24
t76.5 64t48 90t16.5 101q0 54 -17.5 104t-50 89.5t-77 62t-98.5 22.5q-57 0 -102 -23.5t-76.5 -63.5t-48.5 -89.5t-17 -101.5zM375 873q-22 0 -39.5 -20.5t-17.5 -47.5h-51q0 47 31 79t77 32t77 -32t31 -79h-50q-3 29 -19.5 48.5t-38.5 19.5z" />
    <glyph glyph-name="uni020F" unicode="&#x20f;" horiz-adv-x="599" 
d="M299 -10q-59 0 -107 21.5t-83 59t-54 86.5t-19 103q0 55 19 104t54 86.5t83.5 59t107.5 21.5q58 0 106 -21.5t83.5 -59t54.5 -86.5t19 -104q0 -54 -19 -103t-54 -86.5t-83.5 -59t-107.5 -21.5zM126 259q0 -54 23.5 -98t62.5 -69.5t87 -25.5t87.5 26t63 70.5t23.5 98.5
t-23.5 98t-63 70t-87.5 26t-87 -26.5t-62.5 -70.5t-23.5 -99zM299 687q-22 0 -39.5 -20.5t-17.5 -47.5h-51q0 47 31 79t77 32t77 -32t31 -79h-50q-3 29 -19.5 48.5t-38.5 19.5z" />
    <glyph glyph-name="uni0210" unicode="&#x210;" horiz-adv-x="657" 
d="M85 0v710h304q47 0 86 -19.5t68 -52t45 -73t16 -82.5q0 -49 -18.5 -93t-52 -75t-78.5 -43l172 -272h-102l-162 255h-188v-255h-90zM175 335h215q37 0 64.5 20.5t43 54.5t15.5 73q0 40 -18 73.5t-47 53.5t-64 20h-209v-295zM281 919h76l54 -101l-46 -20zM145 919h76
l54 -101l-46 -20z" />
    <glyph glyph-name="uni0211" unicode="&#x211;" horiz-adv-x="363" 
d="M347 445q-66 -1 -116.5 -33.5t-71.5 -89.5v-322h-88v522h82v-121q27 54 71.5 87.5t93.5 37.5h17t12 -1v-80zM184 731h76l54 -101l-46 -20zM48 731h76l54 -101l-46 -20z" />
    <glyph glyph-name="uni0212" unicode="&#x212;" horiz-adv-x="657" 
d="M85 0v710h304q47 0 86 -19.5t68 -52t45 -73t16 -82.5q0 -49 -18.5 -93t-52 -75t-78.5 -43l172 -272h-102l-162 255h-188v-255h-90zM175 335h215q37 0 64.5 20.5t43 54.5t15.5 73q0 40 -18 73.5t-47 53.5t-64 20h-209v-295zM308 875q-22 0 -39.5 -20.5t-17.5 -47.5h-51
q0 47 31 79t77 32t77 -32t31 -79h-50q-3 29 -19.5 48.5t-38.5 19.5z" />
    <glyph glyph-name="uni0213" unicode="&#x213;" horiz-adv-x="363" 
d="M347 445q-66 -1 -116.5 -33.5t-71.5 -89.5v-322h-88v522h82v-121q27 54 71.5 87.5t93.5 37.5h17t12 -1v-80zM211 687q-22 0 -39.5 -20.5t-17.5 -47.5h-51q0 47 31 79t77 32t77 -32t31 -79h-50q-3 29 -19.5 48.5t-38.5 19.5z" />
    <glyph glyph-name="uni0214" unicode="&#x214;" horiz-adv-x="755" 
d="M378 -5q-85 0 -143 29.5t-93 80t-51 114.5t-16 132v359h90v-359q0 -52 10.5 -101.5t34.5 -88.5t65 -62t102 -23q62 0 103 23.5t65 63t34.5 88.5t10.5 100v359h90v-359q0 -72 -16.5 -136.5t-52.5 -113.5t-93.5 -77.5t-139.5 -28.5zM351 917h76l54 -101l-46 -20zM215 917
h76l54 -101l-46 -20z" />
    <glyph glyph-name="uni0215" unicode="&#x215;" horiz-adv-x="601" 
d="M66 209v313h88v-296q0 -80 28 -120t83 -40q36 0 69.5 15.5t60.5 44.5t42 69v327h88v-422q0 -16 6.5 -23.5t21.5 -8.5v-68q-15 -2 -23.5 -2.5t-16.5 -0.5q-25 0 -43 15.5t-19 38.5l-2 61q-34 -58 -91.5 -90t-125.5 -32q-82 0 -124 55.5t-42 163.5zM267 731h76l54 -101
l-46 -20zM131 731h76l54 -101l-46 -20z" />
    <glyph glyph-name="uni0216" unicode="&#x216;" horiz-adv-x="755" 
d="M378 -5q-85 0 -143 29.5t-93 80t-51 114.5t-16 132v359h90v-359q0 -52 10.5 -101.5t34.5 -88.5t65 -62t102 -23q62 0 103 23.5t65 63t34.5 88.5t10.5 100v359h90v-359q0 -72 -16.5 -136.5t-52.5 -113.5t-93.5 -77.5t-139.5 -28.5zM378 873q-22 0 -39.5 -20.5t-17.5 -47.5
h-51q0 47 31 79t77 32t77 -32t31 -79h-50q-3 29 -19.5 48.5t-38.5 19.5z" />
    <glyph glyph-name="uni0217" unicode="&#x217;" horiz-adv-x="601" 
d="M66 209v313h88v-296q0 -80 28 -120t83 -40q36 0 69.5 15.5t60.5 44.5t42 69v327h88v-422q0 -16 6.5 -23.5t21.5 -8.5v-68q-15 -2 -23.5 -2.5t-16.5 -0.5q-25 0 -43 15.5t-19 38.5l-2 61q-34 -58 -91.5 -90t-125.5 -32q-82 0 -124 55.5t-42 163.5zM294 687
q-22 0 -39.5 -20.5t-17.5 -47.5h-51q0 47 31 79t77 32t77 -32t31 -79h-50q-3 29 -19.5 48.5t-38.5 19.5z" />
    <glyph glyph-name="uni0218" unicode="&#x218;" horiz-adv-x="609" 
d="M502 561q-12 14 -32 27t-45 23.5t-54.5 17t-61.5 6.5q-82 0 -121 -31t-39 -85q0 -38 20 -60t61.5 -36t105.5 -29q74 -16 128 -39t83 -61.5t29 -102.5q0 -51 -19.5 -88.5t-54.5 -62t-82 -36t-102 -11.5q-54 0 -105.5 11.5t-97.5 33.5t-86 55l43 76q16 -17 41.5 -33.5
t58 -30.5t70.5 -22.5t78 -8.5q76 0 118 27.5t42 80.5q0 40 -23.5 64t-69.5 40t-112 32q-72 18 -121 39.5t-73.5 56.5t-24.5 91q0 68 33 115t91 71t131 24q48 0 89.5 -10t77.5 -28t66 -43zM280 -213l20 81h-25v84h78v-84l-30 -81h-43z" />
    <glyph glyph-name="uni0219" unicode="&#x219;" horiz-adv-x="488" 
d="M250 -10q-65 0 -122 21.5t-98 64.5l34 62q45 -42 90 -60t92 -18q54 0 88 20.5t34 60.5q0 29 -17.5 43t-49.5 23.5t-76 21.5q-54 16 -91 34t-56 45t-19 68q0 50 26 84.5t71.5 52.5t103.5 18t105 -18t81 -53l-40 -61q-31 32 -68 47.5t-83 15.5q-27 0 -53 -6.5t-43 -23
t-17 -46.5q0 -25 13.5 -39.5t40 -24.5t64.5 -22q59 -17 102.5 -34t67.5 -44t24 -75q0 -74 -56 -115.5t-148 -41.5zM212 -213l20 81h-25v84h78v-84l-30 -81h-43z" />
    <glyph glyph-name="uni021A" unicode="&#x21a;" horiz-adv-x="614" 
d="M597 630h-245v-630h-90v630h-245v80h580v-80zM273 -213l20 81h-25v84h78v-84l-30 -81h-43z" />
    <glyph glyph-name="uni021B" unicode="&#x21b;" horiz-adv-x="352" 
d="M341 26q-11 -5 -30 -13t-44 -14t-53 -6q-32 0 -59 11.5t-43 36t-16 61.5v351h-71v69h71v174h88v-174h117v-69h-117v-324q2 -28 19 -41.5t40 -13.5q26 0 48 9t29 13zM177 -213l20 81h-25v84h78v-84l-30 -81h-43z" />
    <glyph glyph-name="uni022A" unicode="&#x22a;" horiz-adv-x="748" 
d="M373 -5q-75 0 -136 30t-105.5 81.5t-68.5 116t-24 132.5q0 71 25.5 135.5t71 115t106.5 80t133 29.5q75 0 136 -31t105 -83t68 -116t24 -131q0 -71 -25 -135.5t-70.5 -115t-106.5 -79.5t-133 -29zM130 355q0 -54 17.5 -104.5t49.5 -89.5t77 -62t100 -23q57 0 102 24
t76.5 64t48 90t16.5 101q0 54 -17.5 104t-50 89.5t-77 62t-98.5 22.5q-57 0 -102 -23.5t-76.5 -63.5t-48.5 -89.5t-17 -101.5zM257 811v102h74v-102h-74zM419 811v102h74v-102h-74zM230 1039v58h292v-58h-292z" />
    <glyph glyph-name="uni022B" unicode="&#x22b;" horiz-adv-x="599" 
d="M299 -10q-59 0 -107 21.5t-83 59t-54 86.5t-19 103q0 55 19 104t54 86.5t83.5 59t107.5 21.5q58 0 106 -21.5t83.5 -59t54.5 -86.5t19 -104q0 -54 -19 -103t-54 -86.5t-83.5 -59t-107.5 -21.5zM126 259q0 -54 23.5 -98t62.5 -69.5t87 -25.5t87.5 26t63 70.5t23.5 98.5
t-23.5 98t-63 70t-87.5 26t-87 -26.5t-62.5 -70.5t-23.5 -99zM181 625v102h74v-102h-74zM343 625v102h74v-102h-74zM154 853v58h292v-58h-292z" />
    <glyph glyph-name="uni022C" unicode="&#x22c;" horiz-adv-x="748" 
d="M373 -5q-75 0 -136 30t-105.5 81.5t-68.5 116t-24 132.5q0 71 25.5 135.5t71 115t106.5 80t133 29.5q75 0 136 -31t105 -83t68 -116t24 -131q0 -71 -25 -135.5t-70.5 -115t-106.5 -79.5t-133 -29zM130 355q0 -54 17.5 -104.5t49.5 -89.5t77 -62t100 -23q57 0 102 24
t76.5 64t48 90t16.5 101q0 54 -17.5 104t-50 89.5t-77 62t-98.5 22.5q-57 0 -102 -23.5t-76.5 -63.5t-48.5 -89.5t-17 -101.5zM437 813q-30 0 -51 10.5t-38.5 21t-39.5 10.5t-32.5 -11t-13.5 -23t-3 -14h-52q0 6 4.5 22.5t15.5 35t30 32t49 13.5q29 0 48.5 -10.5t38 -21.5
t42.5 -11q26 0 37.5 11.5t15 23.5t3.5 14h52q0 -6 -4.5 -22t-16.5 -35t-32.5 -32.5t-52.5 -13.5zM230 1048v58h292v-58h-292z" />
    <glyph glyph-name="uni022D" unicode="&#x22d;" horiz-adv-x="599" 
d="M299 -10q-59 0 -107 21.5t-83 59t-54 86.5t-19 103q0 55 19 104t54 86.5t83.5 59t107.5 21.5q58 0 106 -21.5t83.5 -59t54.5 -86.5t19 -104q0 -54 -19 -103t-54 -86.5t-83.5 -59t-107.5 -21.5zM126 259q0 -54 23.5 -98t62.5 -69.5t87 -25.5t87.5 26t63 70.5t23.5 98.5
t-23.5 98t-63 70t-87.5 26t-87 -26.5t-62.5 -70.5t-23.5 -99zM361 627q-30 0 -51 10.5t-38.5 21t-39.5 10.5t-32.5 -11t-13.5 -23t-3 -14h-52q0 6 4.5 22.5t15.5 35t30 32t49 13.5q29 0 48.5 -10.5t38 -21.5t42.5 -11q26 0 37.5 11.5t15 23.5t3.5 14h52q0 -6 -4.5 -22
t-16.5 -35t-32.5 -32.5t-52.5 -13.5zM154 862v58h292v-58h-292z" />
    <glyph glyph-name="uni0230" unicode="&#x230;" horiz-adv-x="748" 
d="M373 -5q-75 0 -136 30t-105.5 81.5t-68.5 116t-24 132.5q0 71 25.5 135.5t71 115t106.5 80t133 29.5q75 0 136 -31t105 -83t68 -116t24 -131q0 -71 -25 -135.5t-70.5 -115t-106.5 -79.5t-133 -29zM130 355q0 -54 17.5 -104.5t49.5 -89.5t77 -62t100 -23q57 0 102 24
t76.5 64t48 90t16.5 101q0 54 -17.5 104t-50 89.5t-77 62t-98.5 22.5q-57 0 -102 -23.5t-76.5 -63.5t-48.5 -89.5t-17 -101.5zM335 810v106h80v-106h-80zM230 1048v58h292v-58h-292z" />
    <glyph glyph-name="uni0231" unicode="&#x231;" horiz-adv-x="599" 
d="M299 -10q-59 0 -107 21.5t-83 59t-54 86.5t-19 103q0 55 19 104t54 86.5t83.5 59t107.5 21.5q58 0 106 -21.5t83.5 -59t54.5 -86.5t19 -104q0 -54 -19 -103t-54 -86.5t-83.5 -59t-107.5 -21.5zM126 259q0 -54 23.5 -98t62.5 -69.5t87 -25.5t87.5 26t63 70.5t23.5 98.5
t-23.5 98t-63 70t-87.5 26t-87 -26.5t-62.5 -70.5t-23.5 -99zM259 624v106h80v-106h-80zM154 862v58h292v-58h-292z" />
    <glyph glyph-name="uni0232" unicode="&#x232;" horiz-adv-x="655" 
d="M112 710l215 -370l217 370h98l-270 -451v-259h-90v261l-269 449h99zM182 840v58h292v-58h-292z" />
    <glyph glyph-name="uni0233" unicode="&#x233;" horiz-adv-x="545" 
d="M95 -142q13 -1 26 -2.5t20 -1.5q16 0 28 11t26.5 42.5t37.5 92.5l-221 522h93l176 -433l159 433h87l-254 -659q-9 -23 -26.5 -43.5t-44.5 -32.5t-65 -12q-9 0 -18.5 1t-23.5 4v78zM136 654v58h292v-58h-292z" />
    <glyph glyph-name="uni0237" unicode="&#x237;" horiz-adv-x="230" 
d="M-3 -186q-34 0 -65 10t-55 32l41 59q14 -13 32.5 -18t36.5 -5q22 0 41 11t31 30.5t12 43.5v545h88v-539q0 -49 -23 -87.5t-59.5 -60t-79.5 -21.5z" />
    <glyph glyph-name="uni0259" unicode="&#x259;" horiz-adv-x="591" 
d="M292 -10q-78 0 -138 37t-93 98.5t-34 134.5q0 6 0.5 15.5t1.5 14.5h433q-4 52 -28.5 91t-63 61t-84.5 22q-48 0 -90 -24t-59 -62l-76 21q17 38 51 68t79.5 47t98.5 17q59 0 107.5 -21.5t83.5 -59t54.5 -87t19.5 -105.5q0 -73 -33 -134t-92 -97.5t-138 -36.5zM293 56
q47 0 84 23t60.5 62.5t26.5 90.5h-352q4 -52 29.5 -91.5t65.5 -62t86 -22.5z" />
    <glyph glyph-name="uni02B9" unicode="&#x2b9;" horiz-adv-x="210" 
d="M67 501v217h76l-30 -217h-46z" />
    <glyph glyph-name="uni02BA" unicode="&#x2ba;" horiz-adv-x="420" 
d="M67 501v217h76l-30 -217h-46zM277 501v217h76l-30 -217h-46z" />
    <glyph glyph-name="uni02BB" unicode="&#x2bb;" horiz-adv-x="168" 
d="M105 730l-20 -66h25v-75h-78v75l30 66h43z" />
    <glyph glyph-name="uni02BC" unicode="&#x2bc;" horiz-adv-x="232" 
d="M106 609l-58 20l58 101h88z" />
    <glyph glyph-name="uni02BE" unicode="&#x2be;" horiz-adv-x="157" 
d="M31 579v39q19 0 33.5 13t14.5 34q0 23 -14 35.5t-34 12.5v40q42 0 68.5 -24t26.5 -64q0 -39 -26.5 -62.5t-68.5 -23.5z" />
    <glyph glyph-name="uni02BF" unicode="&#x2bf;" horiz-adv-x="157" 
d="M126 579q-41 0 -68 23.5t-27 62.5q0 40 27 64t68 24v-40q-19 0 -33 -12.5t-14 -35.5q0 -20 13.5 -33.5t33.5 -13.5v-39z" />
    <glyph glyph-name="circumflex" unicode="&#x2c6;" horiz-adv-x="342" 
d="M38 640l101 90h64l101 -90l-48 -24l-85 63l-85 -63z" />
    <glyph glyph-name="caron" unicode="&#x2c7;" horiz-adv-x="342" 
d="M86 730l85 -63l85 63l48 -24l-101 -90h-64l-101 90z" />
    <glyph glyph-name="uni02C8" unicode="&#x2c8;" horiz-adv-x="242" 
d="M159 775v-403h-76v403h76z" />
    <glyph glyph-name="uni02C9" unicode="&#x2c9;" horiz-adv-x="403" 
d="M56 654v58h292v-58h-292z" />
    <glyph glyph-name="uni02CA" unicode="&#x2ca;" horiz-adv-x="210" 
d="M67 501v217h76l-30 -217h-46z" />
    <glyph glyph-name="uni02CB" unicode="&#x2cb;" horiz-adv-x="210" 
d="M97 501l-30 217h76v-217h-46z" />
    <glyph glyph-name="uni02CC" unicode="&#x2cc;" horiz-adv-x="242" 
d="M159 273v-403h-76v403h76z" />
    <glyph glyph-name="breve" unicode="&#x2d8;" horiz-adv-x="296" 
d="M148 662q22 0 38.5 19.5t19.5 48.5h50q0 -47 -31 -79t-77 -32t-77 32t-31 79h51q0 -27 17.5 -47.5t39.5 -20.5z" />
    <glyph glyph-name="dotaccent" unicode="&#x2d9;" horiz-adv-x="180" 
d="M50 624v106h80v-106h-80z" />
    <glyph glyph-name="ring" unicode="&#x2da;" horiz-adv-x="252" 
d="M31 665q0 40 27 64t68 24q42 0 68.5 -24t26.5 -64q0 -39 -26.5 -62.5t-68.5 -23.5q-41 0 -68 23.5t-27 62.5zM126 713q-19 0 -33 -12.5t-14 -35.5q0 -20 13.5 -33.5t33.5 -13.5q19 0 33.5 13t14.5 34q0 23 -14 35.5t-34 12.5z" />
    <glyph glyph-name="ogonek" unicode="&#x2db;" horiz-adv-x="255" 
d="M54 -107q0 33 22.5 63.5t70.5 61.5h24l20 -18q-41 -31 -59.5 -53.5t-18.5 -41.5q0 -20 21 -28t57 -10l-20 -56q-49 4 -74.5 17t-34 30.5t-8.5 34.5z" />
    <glyph glyph-name="tilde" unicode="&#x2dc;" horiz-adv-x="415" 
d="M270 627q-30 0 -51 10.5t-38.5 21t-39.5 10.5t-32.5 -11t-13.5 -23t-3 -14h-52q0 6 4.5 22.5t15.5 35t30 32t49 13.5q29 0 48.5 -10.5t38 -21.5t42.5 -11q26 0 37.5 11.5t15 23.5t3.5 14h52q0 -6 -4.5 -22t-16.5 -35t-32.5 -32.5t-52.5 -13.5z" />
    <glyph glyph-name="hungarumlaut" unicode="&#x2dd;" horiz-adv-x="338" 
d="M86 609l-46 20l54 101h76zM222 609l-46 20l54 101h76z" />
    <glyph glyph-name="gravecomb" unicode="&#x300;" 
d="M48 730h87l59 -101l-57 -20z" />
    <glyph glyph-name="acutecomb" unicode="&#x301;" 
d="M106 609l-58 20l58 101h88z" />
    <glyph glyph-name="uni0302" unicode="&#x302;" 
d="M38 640l101 90h64l101 -90l-48 -24l-85 63l-85 -63z" />
    <glyph glyph-name="tildecomb" unicode="&#x303;" 
d="M270 627q-30 0 -51 10.5t-38.5 21t-39.5 10.5t-32.5 -11t-13.5 -23t-3 -14h-52q0 6 4.5 22.5t15.5 35t30 32t49 13.5q29 0 48.5 -10.5t38 -21.5t42.5 -11q26 0 37.5 11.5t15 23.5t3.5 14h52q0 -6 -4.5 -22t-16.5 -35t-32.5 -32.5t-52.5 -13.5z" />
    <glyph glyph-name="uni0304" unicode="&#x304;" 
d="M56 654v58h292v-58h-292z" />
    <glyph glyph-name="uni0306" unicode="&#x306;" 
d="M148 662q22 0 38.5 19.5t19.5 48.5h50q0 -47 -31 -79t-77 -32t-77 32t-31 79h51q0 -27 17.5 -47.5t39.5 -20.5z" />
    <glyph glyph-name="uni0307" unicode="&#x307;" 
d="M50 624v106h80v-106h-80z" />
    <glyph glyph-name="uni0308" unicode="&#x308;" 
d="M66 624v102h74v-102h-74zM228 624v102h74v-102h-74z" />
    <glyph glyph-name="hookabovecomb" unicode="&#x309;" 
d="M258 696l-33 33q19 17 40 26.5t47 9.5q36 0 53.5 -20.5t17.5 -45.5q0 -20 -13.5 -42t-42.5 -46l-25 29q17 16 23 27.5t6 23.5q0 11 -7.5 19t-19.5 8q-13 0 -22.5 -4.5t-23.5 -17.5z" />
    <glyph glyph-name="uni030A" unicode="&#x30a;" 
d="M31 665q0 40 27 64t68 24q42 0 68.5 -24t26.5 -64q0 -39 -26.5 -62.5t-68.5 -23.5q-41 0 -68 23.5t-27 62.5zM126 713q-19 0 -33 -12.5t-14 -35.5q0 -20 13.5 -33.5t33.5 -13.5q19 0 33.5 13t14.5 34q0 23 -14 35.5t-34 12.5z" />
    <glyph glyph-name="uni030B" unicode="&#x30b;" 
d="M86 609l-46 20l54 101h76zM222 609l-46 20l54 101h76z" />
    <glyph glyph-name="uni030C" unicode="&#x30c;" 
d="M86 730l85 -63l85 63l48 -24l-101 -90h-64l-101 90z" />
    <glyph glyph-name="uni030F" unicode="&#x30f;" 
d="M168 730h76l54 -101l-46 -20zM32 730h76l54 -101l-46 -20z" />
    <glyph glyph-name="uni0311" unicode="&#x311;" 
d="M148 687q-22 0 -39.5 -20.5t-17.5 -47.5h-51q0 47 31 79t77 32t77 -32t31 -79h-50q-3 29 -19.5 48.5t-38.5 19.5z" />
    <glyph glyph-name="uni0312" unicode="&#x312;" 
d="M105 730l-20 -66h25v-75h-78v75l30 66h43z" />
    <glyph glyph-name="uni031B" unicode="&#x31b;" 
d="M50 493l2 64q35 0 52.5 6t27.5 17q10 13 13 27.5t4 33.5h72q-1 -18 -4.5 -36t-10.5 -34.5t-20 -31.5t-33.5 -25.5t-46.5 -15.5t-56 -5z" />
    <glyph glyph-name="dotbelowcomb" unicode="&#x323;" 
d="M50 -187v106h80v-106h-80z" />
    <glyph glyph-name="uni0324" unicode="&#x324;" 
d="M66 -187v102h74v-102h-74zM228 -187v102h74v-102h-74z" />
    <glyph glyph-name="uni0326" unicode="&#x326;" 
d="M63 -213l20 81h-25v84h78v-84l-30 -81h-43z" />
    <glyph glyph-name="uni0327" unicode="&#x327;" 
d="M149 -186q-26 0 -56.5 7t-59.5 21l24 49q20 -10 37.5 -16t39.5 -6q31 0 48 12.5t17 36.5q0 25 -17.5 44t-49.5 38l32 23q41 -25 66 -52t25 -68t-28 -65t-78 -24z" />
    <glyph glyph-name="uni0328" unicode="&#x328;" 
d="M54 -107q0 33 22.5 63.5t70.5 61.5h24l20 -18q-41 -31 -59.5 -53.5t-18.5 -41.5q0 -20 21 -28t57 -10l-20 -56q-49 4 -74.5 17t-34 30.5t-8.5 34.5z" />
    <glyph glyph-name="uni032E" unicode="&#x32e;" 
d="M148 -123q22 0 38.5 19.5t19.5 48.5h50q0 -47 -31 -79t-77 -32t-77 32t-31 79h51q0 -27 17.5 -47.5t39.5 -20.5z" />
    <glyph glyph-name="uni0331" unicode="&#x331;" 
d="M56 -143v58h292v-58h-292z" />
    <glyph glyph-name="uni0335" unicode="&#x335;" 
d="M50 272v56h253v-56h-253z" />
    <glyph glyph-name="uni0394" unicode="&#x394;" horiz-adv-x="647" 
d="M361 710l263 -643v-67h-602v67l265 643h74zM122 80h403l-201 526z" />
    <glyph glyph-name="uni03A9" unicode="&#x3a9;" horiz-adv-x="760" 
d="M44 0v79h179q-52 29 -90 72.5t-58.5 98t-20.5 115.5q0 69 24.5 132t68.5 112t103.5 77.5t129.5 28.5t129.5 -28.5t103.5 -77.5t68.5 -112t24.5 -132q0 -61 -20.5 -115.5t-58.5 -98t-90 -72.5h179v-79h-289v79q43 14 77.5 43.5t59.5 69t38 84t13 89.5q0 50 -16 97.5
t-47 86t-74.5 61.5t-97.5 23t-97.5 -23t-74.5 -61.5t-47 -86t-16 -97.5q0 -45 13 -89.5t38 -84t59.5 -69t77.5 -43.5v-79h-289z" />
    <glyph glyph-name="uni03BC" unicode="&#x3bc;" horiz-adv-x="607" 
d="M71 -212v734h88v-296q0 -80 28 -120t85 -40q35 0 68.5 15.5t60.5 44.5t42 69v327h88v-414q0 -16 6.5 -23.5t21.5 -8.5v-76q-15 -2 -24 -2.5t-17 -0.5q-28 0 -45.5 18.5t-17.5 41.5v55q-16 -32 -45 -60t-66 -45t-77 -17q-30 0 -53 10.5t-37.5 28t-22.5 38.5v-279h-83z" />
    <glyph glyph-name="pi" unicode="&#x3c0;" horiz-adv-x="609" 
d="M190 442v-442h-85v442h-80v80h541v-80h-110v-307q0 -29 15.5 -45.5t43.5 -16.5q11 0 26 3.5t28 8.5l14 -71q-22 -9 -52 -15t-53 -6q-49 0 -78 29t-29 81v339h-181z" />
    <glyph glyph-name="uni0400" unicode="&#x400;" horiz-adv-x="605" 
d="M567 80v-80h-482v710h473v-80h-383v-230h333v-75h-333v-245h392zM230 917h87l59 -101l-57 -20z" />
    <glyph glyph-name="uni0401" unicode="&#x401;" horiz-adv-x="605" 
d="M567 80v-80h-482v710h473v-80h-383v-230h333v-75h-333v-245h392zM216 811v102h74v-102h-74zM378 811v102h74v-102h-74z" />
    <glyph glyph-name="uni0402" unicode="&#x402;" horiz-adv-x="740" 
d="M471 -8q-22 0 -46 3t-47 10l20 74q16 -4 32.5 -7.5t32.5 -3.5q66 0 105 36t39 112q0 51 -20.5 85.5t-56 52t-80.5 17.5t-91 -15.5t-91 -46.5v-309h-88v632h-163v78h527v-78h-276v-243q46 29 95 43.5t98 14.5q69 0 122 -28t82.5 -79.5t29.5 -123.5q0 -112 -60.5 -168
t-163.5 -56z" />
    <glyph glyph-name="uni0403" unicode="&#x403;" horiz-adv-x="523" 
d="M85 0v710h413v-80h-323v-630h-90zM352 797l-58 20l58 101h88z" />
    <glyph glyph-name="uni0404" unicode="&#x404;" horiz-adv-x="715" 
d="M379 -6q-76 0 -138.5 31t-107.5 83.5t-69.5 118t-24.5 133.5q0 65 22.5 128t66.5 114t108.5 81.5t148.5 30.5q98 0 168 -43.5t104 -111.5l-71 -46q-22 45 -55.5 71.5t-72.5 37.5t-77 11q-55 0 -98.5 -19.5t-74.5 -52t-49 -74.5t-23 -87h312v-74h-314q3 -51 23 -96.5
t53.5 -80t77.5 -54.5t95 -20q39 0 80 13t76 40.5t56 71.5l75 -41q-23 -53 -70.5 -90t-105.5 -56t-115 -19z" />
    <glyph glyph-name="uni0405" unicode="&#x405;" horiz-adv-x="609" 
d="M502 561q-12 14 -32 27t-45 23.5t-54.5 17t-61.5 6.5q-82 0 -121 -31t-39 -85q0 -38 20 -60t61.5 -36t105.5 -29q74 -16 128 -39t83 -61.5t29 -102.5q0 -51 -19.5 -88.5t-54.5 -62t-82 -36t-102 -11.5q-54 0 -105.5 11.5t-97.5 33.5t-86 55l43 76q16 -17 41.5 -33.5
t58 -30.5t70.5 -22.5t78 -8.5q76 0 118 27.5t42 80.5q0 40 -23.5 64t-69.5 40t-112 32q-72 18 -121 39.5t-73.5 56.5t-24.5 91q0 68 33 115t91 71t131 24q48 0 89.5 -10t77.5 -28t66 -43z" />
    <glyph glyph-name="uni0406" unicode="&#x406;" horiz-adv-x="260" 
d="M85 0v710h90v-710h-90z" />
    <glyph glyph-name="uni0407" unicode="&#x407;" horiz-adv-x="260" 
d="M85 0v710h90v-710h-90zM12 811v102h74v-102h-74zM174 811v102h74v-102h-74z" />
    <glyph glyph-name="uni0408" unicode="&#x408;" horiz-adv-x="485" 
d="M35 106q19 -13 52.5 -24.5t79.5 -11.5q47 0 77 15.5t46 47t22 80.5t6 116v381h90v-361q0 -79 -8 -145t-32 -114.5t-71.5 -74.5t-126.5 -26q-50 0 -88 11t-70 33z" />
    <glyph glyph-name="uni0409" unicode="&#x409;" horiz-adv-x="1013" 
d="M35 -3v79q38 2 66 24t47 72.5t29 138t12 219.5l3 180h417v-276h138q76 0 127.5 -27.5t77.5 -76t26 -113.5q0 -61 -25.5 -110t-75.5 -78t-124 -29h-234v630h-245l-1 -151q-1 -121 -12.5 -205.5t-31.5 -138.5t-49 -84t-65.5 -42t-79.5 -12zM609 75h133q51 0 83 20
t46.5 52.5t14.5 69.5t-13.5 69t-45 52t-87.5 20h-131v-283z" />
    <glyph glyph-name="uni040A" unicode="&#x40a;" horiz-adv-x="1014" 
d="M85 0v710h90v-298h345v298h90v-294h138q114 0 172.5 -56.5t58.5 -148.5q0 -59 -25.5 -107t-75.5 -76t-124 -28h-234v332h-345v-332h-90zM610 75h133q51 0 83 19t46.5 50t14.5 67q0 34 -13.5 63t-45 47.5t-87.5 18.5h-131v-265z" />
    <glyph glyph-name="uni040B" unicode="&#x40b;" horiz-adv-x="723" 
d="M180 0v632h-163v78h519v-78h-268v-227q40 17 85.5 27t94.5 10q114 0 172 -55t58 -174v-213h-88v203q0 80 -36 117.5t-119 37.5q-46 0 -92 -11.5t-75 -28.5v-318h-88z" />
    <glyph glyph-name="uni040C" unicode="&#x40c;" horiz-adv-x="651" 
d="M85 0v710h90v-307h95l234 307h104l-264 -344l282 -366h-110l-244 321h-97v-321h-90zM354 797l-58 20l58 101h88z" />
    <glyph glyph-name="uni040D" unicode="&#x40d;" horiz-adv-x="765" 
d="M90 0v710h90v-585l411 585h84v-710h-90v574l-406 -574h-89zM279 919h87l59 -101l-57 -20z" />
    <glyph glyph-name="uni040E" unicode="&#x40e;" horiz-adv-x="622" 
d="M161 -3v76h45q25 0 37.5 12.5t26.5 37.5l26 56l-296 531h99l238 -439l200 439h95l-293 -630q-22 -45 -46.5 -64t-67.5 -19h-64zM323 769q-72 0 -109 34.5t-37 85.5h62q0 -28 19.5 -46.5t64.5 -18.5q44 0 62 17.5t22 47.5h62q0 -51 -37 -85.5t-109 -34.5z" />
    <glyph glyph-name="uni040F" unicode="&#x40f;" horiz-adv-x="703" 
d="M313 -136v136h-228v710h90v-630h353v630h90v-710h-227v-136h-78z" />
    <glyph glyph-name="uni0410" unicode="&#x410;" horiz-adv-x="677" 
d="M301 710h76l290 -710h-96l-84 208h-298l-83 -208h-96zM467 278l-128 328l-132 -328h260z" />
    <glyph glyph-name="uni0411" unicode="&#x411;" horiz-adv-x="657" 
d="M85 0v710h487v-79h-397v-224h222q117 0 174.5 -55t57.5 -144q0 -59 -25 -106t-75 -74.5t-126 -27.5h-318zM175 79h217q52 0 84 19t46.5 49.5t14.5 63.5q0 32 -13 60.5t-45 46t-90 17.5h-214v-256z" />
    <glyph glyph-name="uni0412" unicode="&#x412;" horiz-adv-x="671" 
d="M630 183q0 -55 -28 -96t-75.5 -64t-104.5 -23h-337v710h353q50 0 86.5 -26.5t56 -68t19.5 -86.5q0 -52 -26.5 -97.5t-75.5 -67.5q61 -18 96.5 -66.5t35.5 -114.5zM539 199q0 33 -14.5 61t-39 45t-56.5 17h-254v-244h247q33 0 59.5 17t42 44.5t15.5 59.5zM175 632v-237
h226q32 0 56.5 16t39 43t14.5 59q0 34 -13.5 60.5t-37 42.5t-53.5 16h-232z" />
    <glyph glyph-name="uni0413" unicode="&#x413;" horiz-adv-x="523" 
d="M85 0v710h413v-80h-323v-630h-90z" />
    <glyph glyph-name="uni0414" unicode="&#x414;" horiz-adv-x="757" 
d="M35 -136v216h32q28 0 49 22.5t36 72t24 132.5t13 205l5 198h440v-630h88v-216h-80v136h-527v-136h-80zM187 80h357v550h-267l-3 -129q-3 -126 -13 -211t-28 -136t-46 -74z" />
    <glyph glyph-name="uni0415" unicode="&#x415;" horiz-adv-x="605" 
d="M567 80v-80h-482v710h473v-80h-383v-230h333v-75h-333v-245h392z" />
    <glyph glyph-name="uni0416" unicode="&#x416;" horiz-adv-x="1012" 
d="M25 0l275 367l-258 343h106l227 -307h86v307h90v-307h85l228 307h105l-258 -343l276 -367h-105l-244 321h-87v-321h-90v321h-88l-244 -321h-104z" />
    <glyph glyph-name="uni0417" unicode="&#x417;" horiz-adv-x="564" 
d="M280 -8q-77 0 -138.5 32.5t-96.5 90.5l69 42q25 -42 67 -65.5t97 -23.5q73 0 113.5 36t40.5 96q0 38 -17 67.5t-49 46t-78 16.5h-73v71h74q36 0 62.5 15.5t41 42t14.5 59.5q0 35 -16 61.5t-45.5 41.5t-70.5 15q-52 0 -91 -22.5t-61 -61.5l-66 45q34 56 89 88.5t133 32.5
q65 0 113 -23t75 -65t27 -100q0 -52 -25.5 -95.5t-75.5 -65.5q62 -17 96 -65t34 -112q0 -63 -31.5 -108t-86 -68.5t-125.5 -23.5z" />
    <glyph glyph-name="uni0418" unicode="&#x418;" horiz-adv-x="765" 
d="M90 0v710h90v-585l411 585h84v-710h-90v574l-406 -574h-89z" />
    <glyph glyph-name="uni0419" unicode="&#x419;" horiz-adv-x="765" 
d="M90 0v710h90v-585l411 585h84v-710h-90v574l-406 -574h-89zM383 763q-52 0 -88 16t-54 44t-18 62h69q0 -26 19.5 -47.5t71.5 -21.5q50 0 70 19.5t20 49.5h69q0 -34 -18 -62t-53 -44t-88 -16z" />
    <glyph glyph-name="uni041A" unicode="&#x41a;" horiz-adv-x="651" 
d="M85 0v710h90v-307h95l234 307h104l-264 -344l282 -366h-110l-244 321h-97v-321h-90z" />
    <glyph glyph-name="uni041B" unicode="&#x41b;" horiz-adv-x="730" 
d="M555 0v630h-265l-4 -141q-5 -145 -21.5 -240.5t-47 -150t-75.5 -77.5t-107 -23v79q38 0 67 19t49.5 66.5t32.5 132.5t16 217l6 198h439v-710h-90z" />
    <glyph glyph-name="uni041C" unicode="&#x41c;" horiz-adv-x="874" 
d="M699 0v542l-234 -417h-55l-235 417v-542h-90v710h95l257 -461l258 461h94v-710h-90z" />
    <glyph glyph-name="uni041D" unicode="&#x41d;" horiz-adv-x="741" 
d="M656 710v-710h-90v323h-391v-323h-90v710h90v-307h391v307h90z" />
    <glyph glyph-name="uni041E" unicode="&#x41e;" horiz-adv-x="748" 
d="M373 -5q-75 0 -136 30t-105.5 81.5t-68.5 116t-24 132.5q0 71 25.5 135.5t71 115t106.5 80t133 29.5q75 0 136 -31t105 -83t68 -116t24 -131q0 -71 -25 -135.5t-70.5 -115t-106.5 -79.5t-133 -29zM130 355q0 -54 17.5 -104.5t49.5 -89.5t77 -62t100 -23q57 0 102 24
t76.5 64t48 90t16.5 101q0 54 -17.5 104t-50 89.5t-77 62t-98.5 22.5q-57 0 -102 -23.5t-76.5 -63.5t-48.5 -89.5t-17 -101.5z" />
    <glyph glyph-name="uni041F" unicode="&#x41f;" horiz-adv-x="718" 
d="M85 0v710h548v-710h-90v630h-368v-630h-90z" />
    <glyph glyph-name="uni0420" unicode="&#x420;" horiz-adv-x="623" 
d="M85 0v710h296q47 0 86 -19.5t68 -52t45 -73t16 -82.5q0 -58 -26 -110.5t-73 -85t-110 -32.5h-212v-255h-90zM175 335h207q37 0 64.5 20t43 54t15.5 74q0 42 -18 75.5t-47 52.5t-64 19h-201v-295z" />
    <glyph glyph-name="uni0421" unicode="&#x421;" horiz-adv-x="682" 
d="M39 360q0 65 22.5 127.5t66 114t106.5 82t143 30.5q95 0 163 -43.5t101 -111.5l-71 -46q-21 45 -53.5 71.5t-70 37.5t-73.5 11q-59 0 -104.5 -24t-76.5 -64t-46.5 -89.5t-15.5 -99.5q0 -55 18.5 -106t51.5 -90t78 -62t98 -23q37 0 76 13t73 40.5t54 71.5l75 -41
q-22 -53 -68 -90t-102.5 -56t-111.5 -19q-73 0 -134 31.5t-105.5 84t-69 118t-24.5 132.5z" />
    <glyph glyph-name="uni0422" unicode="&#x422;" horiz-adv-x="614" 
d="M597 630h-245v-630h-90v630h-245v80h580v-80z" />
    <glyph glyph-name="uni0423" unicode="&#x423;" horiz-adv-x="622" 
d="M161 -3v76h45q25 0 37.5 12.5t26.5 37.5l26 56l-296 531h99l238 -439l200 439h95l-293 -630q-22 -45 -46.5 -64t-67.5 -19h-64z" />
    <glyph glyph-name="uni0424" unicode="&#x424;" horiz-adv-x="817" 
d="M365 0v65q-67 3 -126 26t-104 64t-70.5 97.5t-25.5 124.5q0 72 27 128.5t72.5 97t104 62.5t122.5 25v53h86v-53q65 -3 124 -26t104.5 -63.5t71.5 -97t26 -126.5t-26.5 -126.5t-72.5 -97t-104.5 -63t-122.5 -25.5v-65h-86zM367 139v477q-65 -3 -119.5 -32.5t-86.5 -81.5
t-32 -125q0 -55 19.5 -98.5t53 -73.5t76.5 -47t89 -19zM449 139q65 3 119 32.5t86.5 82t32.5 123.5q0 55 -19 98t-52.5 74t-76.5 48t-90 19v-477z" />
    <glyph glyph-name="uni0425" unicode="&#x425;" horiz-adv-x="637" 
d="M105 710l214 -294l214 294h101l-265 -360l257 -350h-101l-206 284l-206 -284h-102l257 350l-265 360h102z" />
    <glyph glyph-name="uni0426" unicode="&#x426;" horiz-adv-x="737" 
d="M622 -135v135h-537v710h90v-630h349v630h90v-630h88v-215h-80z" />
    <glyph glyph-name="uni0427" unicode="&#x427;" horiz-adv-x="648" 
d="M475 0v297q-19 -8 -45 -17t-59.5 -14.5t-73.5 -5.5q-118 0 -175 52.5t-57 167.5v230h87v-220q0 -77 37.5 -112.5t122.5 -35.5q44 0 89.5 10t73.5 25v333h88v-710h-88z" />
    <glyph glyph-name="uni0428" unicode="&#x428;" horiz-adv-x="972" 
d="M85 0v710h90v-630h266v630h90v-630h266v630h90v-710h-802z" />
    <glyph glyph-name="uni0429" unicode="&#x429;" horiz-adv-x="1010" 
d="M895 -135v135h-810v710h90v-630h266v630h90v-630h266v630h90v-630h88v-215h-80z" />
    <glyph glyph-name="uni042A" unicode="&#x42a;" horiz-adv-x="721" 
d="M202 0v634h-182v76h272v-269h159q78 0 130 -27.5t78.5 -77t26.5 -115.5q0 -62 -26 -112.5t-77 -79.5t-126 -29h-255zM292 75h154q53 0 85.5 20.5t48 54t15.5 71.5t-14 71t-47 53.5t-90 20.5h-152v-291z" />
    <glyph glyph-name="uni042B" unicode="&#x42b;" horiz-adv-x="873" 
d="M85 0v710h90v-269h170q78 0 130 -27.5t78.5 -77t26.5 -115.5q0 -62 -26 -112.5t-77 -79.5t-126 -29h-266zM175 75h164q53 0 86 20.5t48 54t15 71.5t-13.5 71t-46.5 53.5t-90 20.5h-163v-291zM698 0v709h90v-709h-90z" />
    <glyph glyph-name="uni042C" unicode="&#x42c;" horiz-adv-x="615" 
d="M85 0v710h90v-269h170q78 0 130 -27.5t78.5 -77t26.5 -115.5q0 -62 -26 -112.5t-77 -79.5t-126 -29h-266zM175 75h164q53 0 86 20.5t48 54t15 71.5t-13.5 71t-46.5 53.5t-90 20.5h-163v-291z" />
    <glyph glyph-name="uni042D" unicode="&#x42d;" horiz-adv-x="716" 
d="M333 -6q-63 0 -118.5 20t-99 57t-70.5 88l76 41q22 -41 55 -69t73.5 -42t82.5 -14q55 0 101.5 22.5t80.5 61.5t51.5 89.5t15.5 105.5l40 -28h-354v74h352l-38 -26q-1 48 -18 94.5t-48.5 83.5t-77 59t-104.5 22q-41 0 -79.5 -13t-70 -39.5t-53.5 -68.5l-73 47
q39 68 106.5 111.5t168.5 43.5q82 0 146 -30.5t108 -81.5t67 -114.5t23 -130.5q0 -70 -24.5 -135t-70 -116.5t-108.5 -81.5t-140 -30z" />
    <glyph glyph-name="uni042E" unicode="&#x42e;" horiz-adv-x="989" 
d="M622 -5q-89 0 -158 40t-111 112.5t-49 169.5h-129v-317h-90v710h90v-313h130q8 99 51 170t112.5 109.5t154.5 38.5q98 0 171 -46t114 -127.5t41 -187.5q0 -114 -43 -194t-116.5 -122.5t-167.5 -42.5zM623 76q73 0 125 36t80.5 99t28.5 144q0 86 -30 148t-82.5 96
t-122.5 34q-71 0 -122.5 -35.5t-79 -98t-27.5 -144.5q0 -85 28.5 -148t80.5 -97t121 -34z" />
    <glyph glyph-name="uni042F" unicode="&#x42f;" horiz-adv-x="653" 
d="M65 0l185 296q-73 19 -113.5 74t-40.5 131q0 59 29 106t81.5 75t123.5 28h238v-710h-90v285h-110h-12.5h-12.5l-174 -285h-104zM337 363h141v269h-137q-44 0 -79 -16t-54.5 -45t-19.5 -70t17.5 -72t51 -48.5t80.5 -17.5z" />
    <glyph glyph-name="uni0430" unicode="&#x430;" horiz-adv-x="554" 
d="M30 151q0 50 28.5 86.5t78.5 56.5t116 20q35 0 74 -5.5t69 -16.5v38q0 60 -36 94.5t-102 34.5q-43 0 -82.5 -15.5t-83.5 -44.5l-32 62q51 35 102 52.5t106 17.5q100 0 158 -55.5t58 -154.5v-221q0 -16 6.5 -23.5t21.5 -8.5v-68q-13 -2 -22.5 -3t-15.5 -1q-31 0 -46.5 17
t-17.5 36l-2 33q-34 -44 -89 -68t-109 -24q-52 0 -93 21.5t-64 58t-23 81.5zM370 114q12 14 19 28.5t7 24.5v65q-31 12 -65 18.5t-67 6.5q-67 0 -108.5 -26.5t-41.5 -72.5q0 -25 13.5 -48.5t40 -38.5t65.5 -15q41 0 78 16.5t59 41.5z" />
    <glyph glyph-name="uni0431" unicode="&#x431;" horiz-adv-x="613" 
d="M317 -10q-129 0 -195 78t-66 220q0 97 16 163.5t48 110t79 71t108 45.5l221 67l5 -76l-215 -65q-55 -18 -92 -46t-58 -72t-28 -113q26 53 78 82.5t121 29.5q74 0 127.5 -30.5t82 -85t28.5 -125.5q0 -76 -30 -133t-88 -89t-142 -32zM317 66q81 0 125.5 47.5t44.5 126.5
q0 77 -44 125t-126 48q-48 0 -86.5 -20t-61 -58.5t-22.5 -94.5q0 -50 19.5 -89.5t57.5 -62t93 -22.5z" />
    <glyph glyph-name="uni0432" unicode="&#x432;" horiz-adv-x="544" 
d="M70 0v522h270q47 0 78 -18.5t46.5 -47.5t15.5 -62q0 -42 -20 -75.5t-58 -50.5q45 -13 73 -46.5t28 -82.5q0 -44 -21 -75t-59 -47.5t-88 -16.5h-265zM154 62h179q24 0 43.5 12t30.5 32t11 42q0 24 -10.5 43.5t-29 31t-42.5 11.5h-182v-172zM154 292h163q24 0 42 12.5
t28 32.5t10 42q0 33 -21.5 57t-55.5 24h-166v-168z" />
    <glyph glyph-name="uni0433" unicode="&#x433;" horiz-adv-x="411" 
d="M70 0v522h322v-78h-234v-444h-88z" />
    <glyph glyph-name="uni0434" unicode="&#x434;" horiz-adv-x="591" 
d="M13 -123v201h11q22 0 40.5 13t33 45.5t23.5 89.5t12 145l5 151h355v-444h71v-201h-78v123h-395v-123h-78zM147 78h258v366h-189l-3 -81q-3 -85 -11.5 -142.5t-22 -91.5t-32.5 -51z" />
    <glyph glyph-name="uni0435" unicode="&#x435;" horiz-adv-x="591" 
d="M302 -10q-59 0 -107.5 21.5t-84 59t-55 86.5t-19.5 104q0 74 34 135t94.5 98t138.5 37q79 0 137.5 -37.5t91 -98t32.5 -130.5q0 -10 -0.5 -19.5t-1.5 -14.5h-433q4 -51 28.5 -90.5t63.5 -62t84 -22.5q48 0 90.5 24t58.5 63l76 -21q-17 -38 -50.5 -68t-79 -47t-98.5 -17z
M126 292h356q-4 51 -29 90t-64 61t-86 22q-46 0 -85 -22t-63.5 -61t-28.5 -90z" />
    <glyph glyph-name="uni0436" unicode="&#x436;" horiz-adv-x="805" 
d="M35 0l192 269l-175 253h99l150 -217h56v217h90v-217h58l147 217h100l-175 -253l193 -269h-101l-164 228h-58v-228h-90v228h-56l-165 -228h-101z" />
    <glyph glyph-name="uni0437" unicode="&#x437;" horiz-adv-x="470" 
d="M234 -7q-76 0 -128.5 28.5t-80.5 79.5l72 32q18 -32 51.5 -50t81.5 -18q57 0 90 25t33 67q0 38 -26.5 61.5t-74.5 24.5h-53v58h56q21 0 37.5 10.5t26 28.5t9.5 40q0 35 -25 56.5t-75 21.5q-41 0 -68.5 -16t-44.5 -48l-67 36q25 47 72.5 73.5t111.5 26.5q51 0 90.5 -16.5
t62 -47.5t22.5 -75q0 -37 -17.5 -68.5t-51.5 -47.5q47 -14 72 -48.5t25 -81.5q0 -48 -26 -82t-71 -52t-104 -18z" />
    <glyph glyph-name="uni0438" unicode="&#x438;" horiz-adv-x="600" 
d="M70 0v521h88v-403l292 404h80v-522h-88v395l-288 -395h-84z" />
    <glyph glyph-name="uni0439" unicode="&#x439;" horiz-adv-x="600" 
d="M70 0v521h88v-403l292 404h80v-522h-88v395l-288 -395h-84zM301 581q-72 0 -109 34.5t-37 85.5h62q0 -28 19.5 -46.5t64.5 -18.5q44 0 62 17.5t22 47.5h62q0 -51 -37 -85.5t-109 -34.5z" />
    <glyph glyph-name="uni043A" unicode="&#x43a;" horiz-adv-x="519" 
d="M70 0v522h88v-215h58l164 215h100l-195 -253l218 -269h-102l-185 226h-58v-226h-88z" />
    <glyph glyph-name="uni043B" unicode="&#x43b;" horiz-adv-x="578" 
d="M25 -4v79q26 0 46.5 13.5t36.5 46t25.5 90t12.5 146.5l6 151h355v-522h-88v444h-189l-2 -81q-4 -107 -18 -178t-39 -112t-61.5 -59t-84.5 -18z" />
    <glyph glyph-name="uni043C" unicode="&#x43c;" horiz-adv-x="710" 
d="M70 0v522h91l194 -342l195 342h89v-522h-84v395l-172 -302h-56l-173 302v-395h-84z" />
    <glyph glyph-name="uni043D" unicode="&#x43d;" horiz-adv-x="589" 
d="M70 0v522h88v-216h272v216h88v-522h-88v228h-272v-228h-88z" />
    <glyph glyph-name="uni043E" unicode="&#x43e;" horiz-adv-x="599" 
d="M299 -10q-59 0 -107 21.5t-83 59t-54 86.5t-19 103q0 55 19 104t54 86.5t83.5 59t107.5 21.5q58 0 106 -21.5t83.5 -59t54.5 -86.5t19 -104q0 -54 -19 -103t-54 -86.5t-83.5 -59t-107.5 -21.5zM126 259q0 -54 23.5 -98t62.5 -69.5t87 -25.5t87.5 26t63 70.5t23.5 98.5
t-23.5 98t-63 70t-87.5 26t-87 -26.5t-62.5 -70.5t-23.5 -99z" />
    <glyph glyph-name="uni043F" unicode="&#x43f;" horiz-adv-x="574" 
d="M70 0v522h433v-522h-88v444h-257v-444h-88z" />
    <glyph glyph-name="uni0440" unicode="&#x440;" horiz-adv-x="623" 
d="M352 -10q-64 0 -114 32t-79 81v-316h-88v735h78v-98q31 48 81 77.5t109 29.5q54 0 99 -22t78 -60t51.5 -86.5t18.5 -101.5q0 -74 -29.5 -136t-82.5 -98.5t-122 -36.5zM325 66q39 0 70.5 16.5t54 44t34.5 62.5t12 72q0 39 -13.5 74t-38 62t-57 42.5t-70.5 15.5
q-24 0 -49.5 -9t-48.5 -25.5t-39 -37.5t-21 -45v-149q15 -34 40 -62t58 -44.5t68 -16.5z" />
    <glyph glyph-name="uni0441" unicode="&#x441;" horiz-adv-x="554" 
d="M302 -10q-59 0 -107.5 21.5t-84 59.5t-55 87t-19.5 104q0 74 33 135t93 97.5t139 36.5q77 0 134.5 -34.5t85.5 -92.5l-86 -27q-20 37 -56 57.5t-80 20.5q-48 0 -87.5 -25t-62.5 -68.5t-23 -99.5q0 -55 23.5 -99.5t63 -70.5t87.5 -26q31 0 59.5 11t50 29.5t29.5 40.5
l86 -26q-16 -38 -48.5 -67.5t-77 -46.5t-97.5 -17z" />
    <glyph glyph-name="uni0442" unicode="&#x442;" horiz-adv-x="483" 
d="M198 0v444h-180v78h448v-78h-180v-444h-88z" />
    <glyph glyph-name="uni0443" unicode="&#x443;" horiz-adv-x="545" 
d="M136 -219q-17 0 -34.5 5t-35.5 15l30 60q9 -5 17.5 -7.5t16.5 -2.5q24 0 45.5 22.5t40.5 68.5l25 63l-229 517h93l176 -433l159 433h87l-244 -607q-18 -45 -41 -74.5t-50 -44.5t-56 -15z" />
    <glyph glyph-name="uni0444" unicode="&#x444;" horiz-adv-x="713" 
d="M312 -213v213h-20q-79 0 -136.5 36t-88.5 95t-31 129q0 71 31.5 130t89 95t135.5 36h20v209h88v-209h21q78 0 135.5 -36t89 -95t31.5 -130q0 -70 -31 -129t-88.5 -95t-136.5 -36h-21v-213h-88zM292 72h24v377h-24q-49 0 -87.5 -25.5t-60.5 -68.5t-22 -96t21.5 -95.5
t59.5 -67t89 -24.5zM396 72h25q50 0 88.5 24.5t60 67t21.5 95.5t-22 96t-60 68.5t-88 25.5h-25v-377z" />
    <glyph glyph-name="uni0445" unicode="&#x445;" horiz-adv-x="513" 
d="M110 522l138 -192l8 -16l9 16l137 192h98l-193 -262l194 -260h-98l-138 191l-9 15l-8 -15l-138 -191h-98l194 260l-193 262h97z" />
    <glyph glyph-name="uni0446" unicode="&#x446;" horiz-adv-x="587" 
d="M482 -123v123h-412v522h88v-445h242v445h88v-445h72v-200h-78z" />
    <glyph glyph-name="uni0447" unicode="&#x447;" horiz-adv-x="527" 
d="M367 0v209q-31 -15 -64.5 -22t-73.5 -7q-85 0 -129.5 44.5t-44.5 133.5v164h88v-152q0 -63 26 -92t83 -29q32 0 63.5 7t51.5 19v247h89v-522h-89z" />
    <glyph glyph-name="uni0448" unicode="&#x448;" horiz-adv-x="817" 
d="M70 0v522h88v-445h206v445h89v-445h205v445h88v-522h-676z" />
    <glyph glyph-name="uni0449" unicode="&#x449;" horiz-adv-x="845" 
d="M740 -123v123h-670v522h88v-444h206v444h89v-444h205v444h88v-444h72v-201h-78z" />
    <glyph glyph-name="uni044A" unicode="&#x44a;" horiz-adv-x="597" 
d="M167 0v449h-151v73h239v-178h131q92 0 139 -46.5t47 -121.5q0 -50 -20.5 -90t-60.5 -63t-100 -23h-224zM255 69h124q37 0 59.5 14.5t33.5 38.5t11 52q0 27 -10 50t-33 37t-63 14h-122v-206z" />
    <glyph glyph-name="uni044B" unicode="&#x44b;" horiz-adv-x="700" 
d="M70 0v522h88v-178h106q92 0 139.5 -46.5t47.5 -121.5q0 -50 -20.5 -90t-60.5 -63t-100 -23h-200zM158 69h100q37 0 59.5 14.5t33.5 38.5t11 52q0 27 -10 50t-33 37t-63 14h-98v-206zM541 0v521h88v-521h-88z" />
    <glyph glyph-name="uni044C" unicode="&#x44c;" horiz-adv-x="500" 
d="M70 0v522h88v-178h130q92 0 139.5 -46.5t47.5 -121.5q0 -50 -20.5 -90t-60.5 -63t-100 -23h-224zM158 69h124q37 0 59.5 14.5t33.5 38.5t11 52q0 27 -10 50t-33 37t-63 14h-122v-206z" />
    <glyph glyph-name="uni044D" unicode="&#x44d;" horiz-adv-x="561" 
d="M262 -9q-48 0 -92.5 15t-79.5 43t-55 68l71 33q24 -45 64.5 -66.5t85.5 -21.5q48 0 86.5 23.5t63.5 63t29 86.5h-225v60h224q-5 42 -27.5 79.5t-60 61t-89.5 23.5q-43 0 -81.5 -19t-63.5 -64l-68 35q29 54 84 87t132 33q64 0 113.5 -22.5t83 -61t51 -86.5t17.5 -98
q0 -52 -18 -100.5t-52.5 -87t-83 -61.5t-109.5 -23z" />
    <glyph glyph-name="uni044E" unicode="&#x44e;" horiz-adv-x="793" 
d="M502 -10q-69 0 -122 30t-85 82.5t-39 119.5h-97v-222h-88v522h88v-223h97q8 69 40.5 121.5t85.5 81.5t120 29q79 0 136 -36.5t88 -97.5t31 -137q0 -78 -31.5 -139t-89 -96t-134.5 -35zM502 66q49 0 86 25t58 68.5t21 100.5q0 60 -21.5 103.5t-59 67.5t-84.5 24
t-83.5 -24.5t-56.5 -68.5t-20 -102q0 -59 20.5 -103t57 -67.5t82.5 -23.5z" />
    <glyph glyph-name="uni044F" unicode="&#x44f;" horiz-adv-x="528" 
d="M32 0l148 210q-51 10 -82 48.5t-31 103.5q0 47 22 83t61.5 57t92.5 21h214v-523h-88v196h-102l-138 -196h-97zM249 261h120v193h-110q-47 0 -75 -26.5t-28 -67.5t23.5 -70t69.5 -29z" />
    <glyph glyph-name="uni0450" unicode="&#x450;" horiz-adv-x="591" 
d="M302 -10q-59 0 -107.5 21.5t-84 59t-55 86.5t-19.5 104q0 74 34 135t94.5 98t138.5 37q79 0 137.5 -37.5t91 -98t32.5 -130.5q0 -10 -0.5 -19.5t-1.5 -14.5h-433q4 -51 28.5 -90.5t63.5 -62t84 -22.5q48 0 90.5 24t58.5 63l76 -21q-17 -38 -50.5 -68t-79 -47t-98.5 -17z
M126 292h356q-4 51 -29 90t-64 61t-86 22q-46 0 -85 -22t-63.5 -61t-28.5 -90zM195 731h87l59 -101l-57 -20z" />
    <glyph glyph-name="uni0451" unicode="&#x451;" horiz-adv-x="591" 
d="M302 -10q-59 0 -107.5 21.5t-84 59t-55 86.5t-19.5 104q0 74 34 135t94.5 98t138.5 37q79 0 137.5 -37.5t91 -98t32.5 -130.5q0 -10 -0.5 -19.5t-1.5 -14.5h-433q4 -51 28.5 -90.5t63.5 -62t84 -22.5q48 0 90.5 24t58.5 63l76 -21q-17 -38 -50.5 -68t-79 -47t-98.5 -17z
M126 292h356q-4 51 -29 90t-64 61t-86 22q-46 0 -85 -22t-63.5 -61t-28.5 -90zM181 625v102h74v-102h-74zM343 625v102h74v-102h-74z" />
    <glyph glyph-name="uni0452" unicode="&#x452;" horiz-adv-x="570" 
d="M323 -191q-27 0 -49 6t-38.5 14.5t-27.5 17.5t-17 15l61 45q11 -9 29.5 -17t36.5 -8q38 0 64 19t42.5 53.5t24 80t7.5 99.5q0 71 -13.5 119t-45 73t-84.5 25q-59 0 -97 -30t-58 -82v-239h-88v522h-76v56h76v152h88v-152h229v-56h-229v-190q32 47 76 72.5t101 25.5
q64 0 111 -31.5t72.5 -93.5t25.5 -154q0 -67 -13 -128.5t-40.5 -109.5t-69 -76t-98.5 -28z" />
    <glyph glyph-name="uni0453" unicode="&#x453;" horiz-adv-x="411" 
d="M70 0v522h322v-78h-234v-444h-88zM289 609l-58 20l58 101h88z" />
    <glyph glyph-name="uni0454" unicode="&#x454;" horiz-adv-x="562" 
d="M300 -9q-61 0 -109.5 23t-83 61.5t-53 87t-18.5 100.5q0 50 17.5 98t51.5 86.5t83.5 61t113.5 22.5q77 0 132 -33t83 -87l-67 -35q-25 45 -63.5 64t-82.5 19q-51 0 -89 -23.5t-60 -61t-28 -79.5h225v-60h-225q5 -47 29 -86.5t63 -63t87 -23.5q44 0 84.5 21.5t65.5 66.5
l71 -33q-30 -60 -92.5 -93t-134.5 -33z" />
    <glyph glyph-name="uni0455" unicode="&#x455;" horiz-adv-x="488" 
d="M250 -10q-65 0 -122 21.5t-98 64.5l34 62q45 -42 90 -60t92 -18q54 0 88 20.5t34 60.5q0 29 -17.5 43t-49.5 23.5t-76 21.5q-54 16 -91 34t-56 45t-19 68q0 50 26 84.5t71.5 52.5t103.5 18t105 -18t81 -53l-40 -61q-31 32 -68 47.5t-83 15.5q-27 0 -53 -6.5t-43 -23
t-17 -46.5q0 -25 13.5 -39.5t40 -24.5t64.5 -22q59 -17 102.5 -34t67.5 -44t24 -75q0 -74 -56 -115.5t-148 -41.5z" />
    <glyph glyph-name="uni0456" unicode="&#x456;" horiz-adv-x="230" 
d="M71 0v522h88v-522h-88zM71 620v110h88v-110h-88z" />
    <glyph glyph-name="uni0457" unicode="&#x457;" horiz-adv-x="230" 
d="M71 0v522h88v-522h-88zM-3 625v102h74v-102h-74zM159 625v102h74v-102h-74z" />
    <glyph glyph-name="uni0458" unicode="&#x458;" horiz-adv-x="237" 
d="M4 -186q-34 0 -65 10t-55 32l41 59q14 -13 32.5 -18t36.5 -5q22 0 41 11t31 30.5t12 43.5v545h88v-539q0 -49 -23 -87.5t-59.5 -60t-79.5 -21.5zM78 620v110h88v-110h-88z" />
    <glyph glyph-name="uni0459" unicode="&#x459;" horiz-adv-x="813" 
d="M25 -4v79q26 0 46.5 13.5t36.5 46t25.5 90t12.5 146.5l6 151h341v-198h108q92 0 139.5 -43.5t47.5 -114.5q0 -47 -20.5 -85t-61 -59.5t-99.5 -21.5h-202v444h-175l-2 -81q-4 -107 -18 -178t-39 -112t-61.5 -59t-84.5 -18zM493 69h101q37 0 59.5 13t33.5 35t11 47
t-10 45.5t-32.5 33.5t-62.5 13h-100v-187z" />
    <glyph glyph-name="uni045A" unicode="&#x45a;" horiz-adv-x="821" 
d="M70 0v522h88v-209h249v209h88v-198h114q92 0 139.5 -43.5t47.5 -114.5q0 -47 -20.5 -85t-60.5 -59.5t-100 -21.5h-208v236h-249v-236h-88zM495 69h107q37 0 60 13t33.5 35t10.5 47t-10 45.5t-32.5 33.5t-62.5 13h-106v-187z" />
    <glyph glyph-name="uni045B" unicode="&#x45b;" horiz-adv-x="589" 
d="M70 0v557h-76v56h76v117h88v-117h229v-56h-229v-190q31 47 78 72.5t109 25.5q97 0 138 -51.5t41 -149.5v-264h-88v244q0 71 -28 106.5t-92 35.5q-58 0 -98 -29t-60 -83v-274h-88z" />
    <glyph glyph-name="uni045C" unicode="&#x45c;" horiz-adv-x="519" 
d="M70 0v522h88v-215h58l164 215h100l-195 -253l218 -269h-102l-185 226h-58v-226h-88zM288 609l-58 20l58 101h88z" />
    <glyph glyph-name="uni045D" unicode="&#x45d;" horiz-adv-x="600" 
d="M70 0v521h88v-403l292 404h80v-522h-88v395l-288 -395h-84zM197 731h87l59 -101l-57 -20z" />
    <glyph glyph-name="uni045E" unicode="&#x45e;" horiz-adv-x="545" 
d="M136 -219q-17 0 -34.5 5t-35.5 15l30 60q9 -5 17.5 -7.5t16.5 -2.5q24 0 45.5 22.5t40.5 68.5l25 63l-229 517h93l176 -433l159 433h87l-244 -607q-18 -45 -41 -74.5t-50 -44.5t-56 -15zM272 581q-72 0 -109 34.5t-37 85.5h62q0 -28 19.5 -46.5t64.5 -18.5q44 0 62 17.5
t22 47.5h62q0 -51 -37 -85.5t-109 -34.5z" />
    <glyph glyph-name="uni045F" unicode="&#x45f;" horiz-adv-x="573" 
d="M248 -123v123h-178v522h88v-445h256v445h88v-522h-178v-123h-76z" />
    <glyph glyph-name="uni0462" unicode="&#x462;" horiz-adv-x="648" 
d="M10 553v70h380v-70h-380zM118 0v710h90v-269h170q78 0 130 -27.5t78.5 -77t26.5 -115.5q0 -62 -26 -112.5t-77 -79.5t-126 -29h-266zM208 75h164q53 0 86 20.5t48 54t15 71.5t-13.5 71t-46.5 53.5t-90 20.5h-163v-291z" />
    <glyph glyph-name="uni0463" unicode="&#x463;" horiz-adv-x="520" 
d="M90 0v514h-120v58h120v158h88v-158h186v-58h-186v-170h130q92 0 139.5 -46.5t47.5 -121.5q0 -50 -20.5 -90t-60.5 -63t-100 -23h-224zM178 69h124q37 0 59.5 14.5t33.5 38.5t11 52q0 27 -10 50t-33 37t-63 14h-122v-206z" />
    <glyph glyph-name="uni046A" unicode="&#x46a;" horiz-adv-x="1007" 
d="M25 0l275 363l-258 347h922l-258 -347l276 -363h-102l-244 317h-88v-317h-90v317h-87l-244 -317h-102zM373 399h261l188 254h-637z" />
    <glyph glyph-name="uni046B" unicode="&#x46b;" horiz-adv-x="820" 
d="M35 0l204 269l-183 253h708l-184 -253l205 -269h-106l-171 228h-53v-228h-90v228h-52l-171 -228h-107zM319 297h183l124 176h-433z" />
    <glyph glyph-name="uni0472" unicode="&#x472;" horiz-adv-x="760" 
d="M98 328v66h576v-66h-576zM373 -5q-75 0 -136 30t-105.5 81.5t-68.5 116t-24 132.5q0 71 25.5 135.5t71 115t106.5 80t133 29.5q75 0 136 -31t105 -83t68 -116t24 -131q0 -71 -25 -135.5t-70.5 -115t-106.5 -79.5t-133 -29zM130 355q0 -54 17.5 -104.5t49.5 -89.5t77 -62
t100 -23q57 0 102 24t76.5 64t48 90t16.5 101q0 54 -17.5 104t-50 89.5t-77 62t-98.5 22.5q-57 0 -102 -23.5t-76.5 -63.5t-48.5 -89.5t-17 -101.5z" />
    <glyph glyph-name="uni0473" unicode="&#x473;" horiz-adv-x="597" 
d="M90 244v42h438v-42h-438zM299 -10q-59 0 -107 21.5t-83 59t-54 86.5t-19 103q0 55 19 104t54 86.5t83.5 59t107.5 21.5q58 0 106 -21.5t83.5 -59t54.5 -86.5t19 -104q0 -54 -19 -103t-54 -86.5t-83.5 -59t-107.5 -21.5zM126 259q0 -54 23.5 -98t62.5 -69.5t87 -25.5
t87.5 26t63 70.5t23.5 98.5t-23.5 98t-63 70t-87.5 26t-87 -26.5t-62.5 -70.5t-23.5 -99z" />
    <glyph glyph-name="uni0474" unicode="&#x474;" horiz-adv-x="728" 
d="M301 0l-291 710h95l235 -593l194 481q22 59 52.5 85.5t89.5 26.5h47v-76h-35q-32 0 -49 -16t-31 -51l-234 -567h-73z" />
    <glyph glyph-name="uni0475" unicode="&#x475;" horiz-adv-x="568" 
d="M222 0l-206 522h89l165 -441l130 336q17 55 47 80t85 25h44v-69h-29q-31 0 -47 -14.5t-28 -50.5l-156 -388h-94z" />
    <glyph glyph-name="uni048A" unicode="&#x48a;" horiz-adv-x="765" 
d="M90 0v710h90v-585l411 585h84v-710h-90v574l-406 -574h-89zM383 763q-52 0 -88 16t-54 44t-18 62h69q0 -26 19.5 -47.5t71.5 -21.5q50 0 70 19.5t20 49.5h69q0 -34 -18 -62t-53 -44t-88 -16zM598 -143l60 183l53 -40h-126v80h165l-74 -223h-78z" />
    <glyph glyph-name="uni048B" unicode="&#x48b;" horiz-adv-x="600" 
d="M70 0v521h88v-403l292 404h80v-522h-88v395l-288 -395h-84zM301 581q-72 0 -109 34.5t-37 85.5h62q0 -28 19.5 -46.5t64.5 -18.5q44 0 62 17.5t22 47.5h62q0 -51 -37 -85.5t-109 -34.5zM455 -143l60 183l53 -40h-126v77h164l-73 -220h-78z" />
    <glyph glyph-name="uni048C" unicode="&#x48c;" horiz-adv-x="648" 
d="M19 572v56h343v-56h-343zM118 0v710h90v-269h170q78 0 130 -27.5t78.5 -77t26.5 -115.5q0 -62 -26 -112.5t-77 -79.5t-126 -29h-266zM208 75h164q53 0 86 20.5t48 54t15 71.5t-13.5 71t-46.5 53.5t-90 20.5h-163v-291z" />
    <glyph glyph-name="uni048D" unicode="&#x48d;" horiz-adv-x="561" 
d="M131 0v730h88v-386h130q92 0 139.5 -46.5t47.5 -121.5q0 -50 -20.5 -90t-60.5 -63t-100 -23h-224zM219 69h124q37 0 59.5 14.5t33.5 38.5t11 52q0 27 -10 50t-33 37t-63 14h-122v-206zM25 453v69h359v-69h-359z" />
    <glyph glyph-name="uni048E" unicode="&#x48e;" horiz-adv-x="621" 
d="M83 0v710h296q47 0 86 -19.5t68 -52t45 -73t16 -82.5q0 -58 -26 -110.5t-73 -85t-110 -32.5h-212v-255h-90zM173 335h207q37 0 64.5 20t43 54t15.5 74q0 42 -18 75.5t-47 52.5t-64 19h-201v-295zM356 426l44 35l181 -231l-44 -35z" />
    <glyph glyph-name="uni048F" unicode="&#x48f;" horiz-adv-x="619" 
d="M348 -10q-64 0 -114 32t-79 81v-316h-88v735h78v-98q31 48 81 77.5t109 29.5q54 0 99 -22t78 -60t51.5 -86.5t18.5 -101.5q0 -56 -17 -105t-48 -86.5t-74 -58.5t-95 -21zM321 66q39 0 70.5 16.5t54 44t34.5 62.5t12 72q0 39 -13.5 74t-38 62t-57 42.5t-70.5 15.5
q-24 0 -49.5 -9t-48.5 -25.5t-39 -37.5t-21 -45v-149q15 -34 40 -62t58 -44.5t68 -16.5zM355 155l42 38l169 -188l-42 -38z" />
    <glyph glyph-name="uni0490" unicode="&#x490;" horiz-adv-x="523" 
d="M85 0v710h333v147h80v-227h-323v-630h-90z" />
    <glyph glyph-name="uni0491" unicode="&#x491;" horiz-adv-x="411" 
d="M70 0v522h243v123h79v-201h-234v-444h-88z" />
    <glyph glyph-name="uni0492" unicode="&#x492;" horiz-adv-x="537" 
d="M1 303v61h372v-61h-372zM99 0v710h413v-80h-323v-630h-90z" />
    <glyph glyph-name="uni0493" unicode="&#x493;" horiz-adv-x="433" 
d="M2 236v57h330v-57h-330zM92 0v522h322v-78h-234v-444h-88z" />
    <glyph glyph-name="uni0494" unicode="&#x494;" horiz-adv-x="647" 
d="M378 -124q-47 0 -93 13l21 74q16 -4 32.5 -7.5t32.5 -3.5q65 0 104 43.5t39 134.5q0 89 -41 137t-124 48q-45 0 -87 -13t-87 -39v80q44 24 92.5 36t95.5 12q116 0 177.5 -69t61.5 -192q0 -127 -60 -190.5t-164 -63.5zM85 0v710h413v-80h-323v-630h-90z" />
    <glyph glyph-name="uni0495" unicode="&#x495;" horiz-adv-x="512" 
d="M287 -190q-32 0 -61 8.5t-52 27.5l40 59q13 -10 29.5 -14t32.5 -4q69 0 98.5 46t29.5 125q0 62 -16.5 100.5t-45 56t-66.5 17.5q-37 0 -66 -9.5t-64 -26.5v73q41 20 75.5 30t76.5 10q57 0 100.5 -26.5t68.5 -78.5t25 -128q0 -83 -24 -143t-70 -91.5t-111 -31.5zM70 0v522
h322v-78h-234v-444h-88z" />
    <glyph glyph-name="uni0496" unicode="&#x496;" horiz-adv-x="998" 
d="M908 -135v135h-45v80h125v-215h-80zM25 0l275 367l-258 343h106l227 -307h86v307h90v-307h85l228 307h105l-258 -343l276 -367h-105l-244 321h-87v-321h-90v321h-88l-244 -321h-104z" />
    <glyph glyph-name="uni0497" unicode="&#x497;" horiz-adv-x="807" 
d="M719 -123v123h-46v77h124v-200h-78zM35 0l192 269l-175 253h99l150 -217h56v217h90v-217h58l147 217h100l-175 -253l193 -269h-101l-164 228h-58v-228h-90v228h-56l-165 -228h-101z" />
    <glyph glyph-name="uni0498" unicode="&#x498;" horiz-adv-x="564" 
d="M241 -138v191l76 7v-198h-76zM280 -8q-77 0 -138.5 32.5t-96.5 90.5l69 42q25 -42 67 -65.5t97 -23.5q73 0 113.5 36t40.5 96q0 38 -17 67.5t-49 46t-78 16.5h-73v71h74q36 0 62.5 15.5t41 42t14.5 59.5q0 35 -16 61.5t-45.5 41.5t-70.5 15q-52 0 -91 -22.5t-61 -61.5
l-66 45q34 56 89 88.5t133 32.5q65 0 113 -23t75 -65t27 -100q0 -52 -25.5 -95.5t-75.5 -65.5q62 -17 96 -65t34 -112q0 -63 -31.5 -108t-86 -68.5t-125.5 -23.5z" />
    <glyph glyph-name="uni0499" unicode="&#x499;" horiz-adv-x="470" 
d="M234 -7q-76 0 -128.5 28.5t-80.5 79.5l72 32q18 -32 51.5 -50t81.5 -18q57 0 90 25t33 67q0 38 -26.5 61.5t-74.5 24.5h-53v58h56q21 0 37.5 10.5t26 28.5t9.5 40q0 35 -25 56.5t-75 21.5q-41 0 -68.5 -16t-44.5 -48l-67 36q25 47 72.5 73.5t111.5 26.5q51 0 90.5 -16.5
t62 -47.5t22.5 -75q0 -37 -17.5 -68.5t-51.5 -47.5q47 -14 72 -48.5t25 -81.5q0 -48 -26 -82t-71 -52t-104 -18zM223 -186q-26 0 -56.5 7t-59.5 21l24 49q20 -10 37.5 -16t39.5 -6q31 0 48 12.5t17 36.5q0 25 -17.5 44t-49.5 38l32 23q41 -25 66 -52t25 -68t-28 -65t-78 -24
z" />
    <glyph glyph-name="uni049A" unicode="&#x49a;" horiz-adv-x="656" 
d="M566 -135v135h-45v80h125v-215h-80zM85 0v710h90v-307h95l234 307h104l-264 -344l282 -366h-110l-244 321h-97v-321h-90z" />
    <glyph glyph-name="uni049B" unicode="&#x49b;" horiz-adv-x="534" 
d="M446 -123v123h-46v77h124v-200h-78zM70 0v522h88v-215h58l164 215h100l-195 -253l218 -269h-102l-185 226h-58v-226h-88z" />
    <glyph glyph-name="uni049C" unicode="&#x49c;" horiz-adv-x="639" 
d="M85 0v710h89v-311h155l200 311h95l-219 -344l236 -366h-100l-210 325h-157v-325h-89zM302 198h-43v318h43v-318z" />
    <glyph glyph-name="uni049D" unicode="&#x49d;" horiz-adv-x="565" 
d="M71 0v522h87v-218h128l144 218h95l-166 -253l190 -269h-98l-165 229h-128v-229h-87zM262 131h-43v272h43v-272z" />
    <glyph glyph-name="uni049E" unicode="&#x49e;" horiz-adv-x="664" 
d="M19 572v56h253v-56h-253zM98 0v710h90v-307h95l234 307h104l-264 -344l282 -366h-110l-244 321h-97v-321h-90z" />
    <glyph glyph-name="uni049F" unicode="&#x49f;" horiz-adv-x="502" 
d="M67 0v730h88v-423h58l164 215h100l-195 -253l218 -269h-102l-185 226h-58v-226h-88zM-3 572v56h303v-56h-303z" />
    <glyph glyph-name="uni04A0" unicode="&#x4a0;" horiz-adv-x="724" 
d="M4 634v76h181v-76h-181zM185 0v710h90v-307h95l234 307h104l-264 -344l282 -366h-110l-244 321h-97v-321h-90z" />
    <glyph glyph-name="uni04A1" unicode="&#x4a1;" horiz-adv-x="593" 
d="M4 449v73h151v-73h-151zM155 0v522h88v-215h58l164 215h100l-195 -253l218 -269h-102l-185 226h-58v-226h-88z" />
    <glyph glyph-name="uni04A2" unicode="&#x4a2;" horiz-adv-x="802" 
d="M656 710v-710h-90v323h-391v-323h-90v710h90v-307h391v307h90zM687 -135v135h-98v80h178v-215h-80z" />
    <glyph glyph-name="uni04A3" unicode="&#x4a3;" horiz-adv-x="621" 
d="M70 0v522h88v-216h272v216h88v-522h-88v228h-272v-228h-88zM516 -123v123h-86v77h164v-200h-78z" />
    <glyph glyph-name="uni04A4" unicode="&#x4a4;" horiz-adv-x="1002" 
d="M655 630l-90 80h412v-80h-322zM656 710v-710h-90v323h-391v-323h-90v710h90v-307h391v307h90z" />
    <glyph glyph-name="uni04A5" unicode="&#x4a5;" horiz-adv-x="771" 
d="M518 444l-88 78h322v-78h-234zM70 0v522h88v-216h272v216h88v-522h-88v228h-272v-228h-88z" />
    <glyph glyph-name="uni04A6" unicode="&#x4a6;" horiz-adv-x="1085" 
d="M85 0v710h528v-710h-90v630h-348v-630h-90zM816 -124q-47 0 -93 13l21 74q16 -4 32.5 -7.5t32.5 -3.5q65 0 104 43.5t39 134.5q0 89 -41 137t-124 48q-45 0 -87 -13t-87 -39v80q44 24 92.5 36t95.5 12q78 0 131 -31t80.5 -89.5t27.5 -140.5q0 -127 -60 -190.5t-164 -63.5
z" />
    <glyph glyph-name="uni04A7" unicode="&#x4a7;" horiz-adv-x="869" 
d="M644 -190q-32 0 -61 8.5t-52 27.5l40 59q13 -10 29.5 -14t32.5 -4q69 0 98.5 51.5t29.5 139.5q0 63 -16.5 101t-45 55.5t-66.5 17.5q-29 0 -62 -9.5t-68 -26.5v-216h-88v444h-257v-444h-88v522h433v-233q41 20 79.5 30t72.5 10q57 0 101 -26.5t68.5 -78t24.5 -127.5
q0 -90 -24 -154t-70 -98.5t-111 -34.5z" />
    <glyph glyph-name="uni04A8" unicode="&#x4a8;" horiz-adv-x="1130" 
d="M1090 85q-52 -43 -110.5 -66.5t-132.5 -23.5q-56 0 -109 9t-94 27q-52 -20 -103.5 -30t-101.5 -10q-81 0 -151.5 25.5t-124.5 74.5t-84 120t-30 162q0 71 25 134t69.5 111.5t104.5 74t129 21.5l-16 -79q-64 3 -114.5 -30t-79 -92.5t-28.5 -137.5q0 -96 39 -165
t109.5 -106t163.5 -37q26 0 47 3.5t42 10.5q-48 28 -83 72.5t-53.5 102t-18.5 123.5q0 96 40.5 171t112 117.5t165.5 42.5q72 0 130.5 -25.5t99.5 -70.5t63 -104.5t22 -128.5q0 -66 -25.5 -126.5t-77.5 -108.5t-133 -79q18 -2 34 -3t31 -1q77 0 124 22t84 48zM473 381
q0 -74 23 -132.5t66 -96.5t102 -54q72 10 133 46t98.5 96.5t37.5 141.5q0 89 -33 144.5t-85.5 81t-111.5 25.5q-69 0 -120.5 -33t-80.5 -89.5t-29 -129.5z" />
    <glyph glyph-name="uni04A9" unicode="&#x4a9;" horiz-adv-x="836" 
d="M809 34q-31 -21 -78 -32t-95 -11q-37 0 -70 7t-58 20q-35 -15 -70 -20.5t-70 -5.5q-94 -1 -164 36t-109 101.5t-39 144.5q0 54 20 102.5t54.5 85t78 56t90.5 14.5l-11 -67q-40 4 -72 -20.5t-51 -68.5t-19 -100q0 -57 26 -106.5t74 -80t114 -30.5q8 0 16.5 0.5t17.5 1.5
q-55 35 -85 91.5t-30 126.5q0 73 33 130t91.5 89.5t135.5 32.5q76 0 132 -31.5t87 -85t31 -119.5q0 -81 -44 -145.5t-134 -101.5q9 -1 17.5 -1.5t16.5 -0.5q48 0 80.5 13.5t62.5 31.5zM539 455q-52 0 -91 -22.5t-60 -62t-21 -90.5q0 -43 17.5 -85t51.5 -74t82 -45
q50 11 91.5 41t66.5 74.5t25 96.5q0 60 -23.5 96.5t-60.5 53.5t-78 17z" />
    <glyph glyph-name="uni04AA" unicode="&#x4aa;" horiz-adv-x="682" 
d="M340 -138v134q-67 7 -122 40.5t-95 85t-62 113t-22 125.5q0 65 22.5 127.5t66 114t106.5 82t143 30.5q95 0 163 -43.5t101 -111.5l-71 -46q-21 45 -53.5 71.5t-70 37.5t-73.5 11q-59 0 -104.5 -24t-76.5 -64t-46.5 -89.5t-15.5 -99.5q0 -55 18.5 -106t51.5 -90t78 -62
t98 -23q37 0 76 13t73 40.5t54 71.5l75 -41q-19 -46 -56.5 -80t-85 -54.5t-96.5 -27.5v-135h-76z" />
    <glyph glyph-name="uni04AB" unicode="&#x4ab;" horiz-adv-x="554" 
d="M261 -123v116q-67 10 -118 48.5t-79 96t-28 124.5q0 74 33 135t93 97.5t139 36.5q77 0 134.5 -34.5t85.5 -92.5l-86 -27q-20 37 -56 57.5t-80 20.5q-48 0 -87.5 -25t-62.5 -68.5t-23 -99.5q0 -55 23.5 -99.5t63 -70.5t87.5 -26q31 0 59.5 11t50 29.5t29.5 40.5l86 -26
q-13 -33 -40.5 -60.5t-65 -45t-82.5 -23.5v-115h-76z" />
    <glyph glyph-name="uni04AC" unicode="&#x4ac;" horiz-adv-x="614" 
d="M597 630h-245v-630h-90v630h-245v80h580v-80zM386 -135v135h-98v80h178v-215h-80z" />
    <glyph glyph-name="uni04AD" unicode="&#x4ad;" horiz-adv-x="483" 
d="M198 0v444h-180v78h448v-78h-180v-444h-88zM284 -123v123h-86v77h164v-200h-78z" />
    <glyph glyph-name="Ustraitcy" unicode="&#x4ae;" horiz-adv-x="655" 
d="M112 710l215 -370l217 370h98l-270 -451v-259h-90v261l-269 449h99z" />
    <glyph glyph-name="ustraitcy" unicode="&#x4af;" horiz-adv-x="540" 
d="M226 -213v214l-210 521h92l165 -445l166 445h84l-209 -521v-214h-88z" />
    <glyph glyph-name="Ustraitstrokecy" unicode="&#x4b0;" horiz-adv-x="640" 
d="M275 0v182h-150v60h150v19l-269 449h98l215 -370l217 370h99l-271 -451v-17h150v-60h-150v-182h-89z" />
    <glyph glyph-name="ustraitstrokecy" unicode="&#x4b1;" horiz-adv-x="552" 
d="M237 -213v169h-120v44h120v1l-210 521h89l166 -452l167 452h85l-209 -521v-1h117v-44h-117v-169h-88z" />
    <glyph glyph-name="uni04B2" unicode="&#x4b2;" horiz-adv-x="700" 
d="M585 -135v135h-45v80h125v-215h-80zM120 710l214 -294l214 294h101l-265 -360l257 -350h-101l-206 284l-206 -284h-102l257 350l-265 360h102z" />
    <glyph glyph-name="uni04B3" unicode="&#x4b3;" horiz-adv-x="542" 
d="M437 -123v123h-26v77h104v-200h-78zM106 522l138 -192l8 -16l9 16l137 192h98l-193 -262l194 -260h-98l-138 191l-9 15l-8 -15l-138 -191h-98l194 260l-193 262h97z" />
    <glyph glyph-name="uni04B4" unicode="&#x4b4;" horiz-adv-x="894" 
d="M577 630h-235h-90h-235v80h560v-80zM779 -135v135h-527v710h90v-630h339v630h90v-630h88v-215h-80z" />
    <glyph glyph-name="uni04B5" unicode="&#x4b5;" horiz-adv-x="695" 
d="M198 444h-180v78h408v-78h-140h-88zM590 -123v123h-392v522h88v-445h222v445h88v-445h72v-200h-78z" />
    <glyph glyph-name="uni04B6" unicode="&#x4b6;" horiz-adv-x="722" 
d="M475 0v297q-19 -8 -45 -17t-59.5 -14.5t-73.5 -5.5q-118 0 -175 52.5t-57 167.5v230h87v-220q0 -77 37.5 -112.5t122.5 -35.5q44 0 89.5 10t73.5 25v333h88v-710h-88zM607 -135v135h-98v80h178v-215h-80z" />
    <glyph glyph-name="uni04B7" unicode="&#x4b7;" horiz-adv-x="545" 
d="M367 0v209q-31 -15 -64.5 -22t-73.5 -7q-85 0 -129.5 44.5t-44.5 133.5v164h88v-152q0 -63 26 -92t83 -29q32 0 63.5 7t51.5 19v247h89v-522h-89zM440 -123v123h-86v77h164v-200h-78z" />
    <glyph glyph-name="uni04B8" unicode="&#x4b8;" horiz-adv-x="648" 
d="M475 0v297q-19 -8 -45 -17t-59.5 -14.5t-73.5 -5.5q-118 0 -175 52.5t-57 167.5v230h87v-220q0 -77 37.5 -112.5t122.5 -35.5q44 0 89.5 10t73.5 25v333h88v-710h-88zM321 153h-43v318h43v-318z" />
    <glyph glyph-name="uni04B9" unicode="&#x4b9;" horiz-adv-x="527" 
d="M367 0v209q-31 -15 -64.5 -22t-73.5 -7q-85 0 -129.5 44.5t-44.5 133.5v164h88v-152q0 -63 26 -92t83 -29q32 0 63.5 7t51.5 19v247h89v-522h-89zM276 91h-43v272h43v-272z" />
    <glyph glyph-name="uni04BA" unicode="&#x4ba;" horiz-adv-x="648" 
d="M173 710v-297q19 9 45 17.5t59.5 14t73.5 5.5q119 0 175.5 -52.5t56.5 -167.5v-230h-87v220q0 77 -37.5 112.5t-122.5 35.5q-44 0 -89 -10t-74 -25v-333h-88v710h88z" />
    <glyph glyph-name="uni04BB" unicode="&#x4bb;" horiz-adv-x="590" 
d="M524 0h-88v292q0 80 -28.5 120t-81.5 40q-34 0 -68.5 -18t-60.5 -48.5t-38 -70.5v-315h-88v730h88v-320q31 56 84.5 88.5t115.5 32.5q47 0 78.5 -16.5t50.5 -46.5t27.5 -69.5t8.5 -86.5v-312z" />
    <glyph glyph-name="uni04BC" unicode="&#x4bc;" horiz-adv-x="866" 
d="M24 443q0 22 10.5 49t32.5 57l56 -19q-16 -21 -22.5 -40t-6.5 -34q0 -30 22.5 -45t59.5 -15h124v-78h-97q-84 0 -131.5 32t-47.5 93zM489 715q70 0 131 -27.5t107.5 -76.5t72.5 -113t26 -137q0 -13 -0.5 -25t-2.5 -18h-567q5 -51 25.5 -95t53 -76.5t73 -50.5t86.5 -18
t87 17t71.5 47.5t42.5 68.5l85 -39q-26 -52 -72 -92t-103.5 -62.5t-118.5 -22.5q-69 0 -128.5 28t-104.5 77.5t-70.5 115t-25.5 141.5q0 75 25.5 140.5t71 114t105.5 76t130 27.5zM487 634q-62 0 -113.5 -31t-83 -84.5t-36.5 -122.5h475q-4 67 -37.5 121t-87 85.5
t-117.5 31.5z" />
    <glyph glyph-name="uni04BD" unicode="&#x4bd;" horiz-adv-x="672" 
d="M11 339q0 20 9 42.5t28 46.5l41 -23q-10 -16 -15 -29.5t-5 -25.5q0 -27 21 -42.5t55 -15.5h113v-61h-88q-74 0 -116.5 30t-42.5 78zM383 -10q-52 0 -97.5 21.5t-80.5 59t-54.5 86.5t-19.5 104t20 104t54.5 86t80.5 58.5t98 21.5q79 0 137.5 -37.5t91 -98t32.5 -130.5
q0 -10 -0.5 -19.5t-1.5 -14.5h-432q4 -51 29.5 -90.5t64 -62t81.5 -22.5q48 0 90.5 24t58.5 63l76 -21q-17 -38 -50.5 -68t-79 -47t-98.5 -17zM208 292h355q-4 51 -29.5 90t-64 61t-85.5 22q-44 0 -83 -22t-64 -61t-29 -90z" />
    <glyph glyph-name="uni04BE" unicode="&#x4be;" horiz-adv-x="878" 
d="M431 -135v135l80 20v-155h-80zM36 443q0 22 10.5 49t32.5 57l56 -19q-16 -21 -22.5 -40t-6.5 -34q0 -30 22.5 -45t59.5 -15h124v-78h-97q-84 0 -131.5 32t-47.5 93zM501 715q70 0 131 -27.5t107.5 -76.5t72.5 -113t26 -137q0 -13 -0.5 -25t-2.5 -18h-567q5 -51 25.5 -95
t53 -76.5t73 -50.5t86.5 -18t87 17t71.5 47.5t42.5 68.5l85 -39q-26 -52 -72 -92t-103.5 -62.5t-118.5 -22.5q-69 0 -128.5 28t-104.5 77.5t-70.5 115t-25.5 141.5q0 75 25.5 140.5t71 114t105.5 76t130 27.5zM499 634q-62 0 -113.5 -31t-83 -84.5t-36.5 -122.5h475
q-4 67 -37.5 121t-87 85.5t-117.5 31.5z" />
    <glyph glyph-name="uni04BF" unicode="&#x4bf;" horiz-adv-x="681" 
d="M343 -123v123l78 37v-160h-78zM20 339q0 20 9 42.5t28 46.5l41 -23q-10 -16 -15 -29.5t-5 -25.5q0 -27 21 -42.5t55 -15.5h113v-61h-88q-74 0 -116.5 30t-42.5 78zM392 -10q-52 0 -97.5 21.5t-80.5 59t-54.5 86.5t-19.5 104t20 104t54.5 86t80.5 58.5t98 21.5
q79 0 137.5 -37.5t91 -98t32.5 -130.5q0 -10 -0.5 -19.5t-1.5 -14.5h-432q4 -51 29.5 -90.5t64 -62t81.5 -22.5q48 0 90.5 24t58.5 63l76 -21q-17 -38 -50.5 -68t-79 -47t-98.5 -17zM217 292h355q-4 51 -29 90t-64 61t-86 22q-44 0 -83 -22t-64 -61t-29 -90z" />
    <glyph glyph-name="uni04C0" unicode="&#x4c0;" horiz-adv-x="260" 
d="M85 0v710h90v-710h-90z" />
    <glyph glyph-name="uni04C1" unicode="&#x4c1;" horiz-adv-x="1012" 
d="M25 0l275 367l-258 343h106l227 -307h86v307h90v-307h85l228 307h105l-258 -343l276 -367h-105l-244 321h-87v-321h-90v321h-88l-244 -321h-104zM506 769q-72 0 -109 34.5t-37 85.5h62q0 -28 19.5 -46.5t64.5 -18.5q44 0 62 17.5t22 47.5h62q0 -51 -37 -85.5t-109 -34.5z
" />
    <glyph glyph-name="uni04C2" unicode="&#x4c2;" horiz-adv-x="805" 
d="M35 0l192 269l-175 253h99l150 -217h56v217h90v-217h58l147 217h100l-175 -253l193 -269h-101l-164 228h-58v-228h-90v228h-56l-165 -228h-101zM402 581q-72 0 -109 34.5t-37 85.5h62q0 -28 19.5 -46.5t64.5 -18.5q44 0 62 17.5t22 47.5h62q0 -51 -37 -85.5t-109 -34.5z
" />
    <glyph glyph-name="uni04C3" unicode="&#x4c3;" horiz-adv-x="635" 
d="M398 -220q-21 0 -43.5 4t-45.5 13l23 77q17 -6 32 -9t28 -3q33 0 57.5 19.5t38 58t13.5 95.5q0 56 -20 107.5t-54.5 91.5t-78 63.5t-89.5 23.5h-86v-321h-90v710h90v-307h63h16h16l234 307h104l-251 -326q67 -24 120.5 -76.5t85 -123t31.5 -149.5q0 -80 -26 -137
t-69.5 -87.5t-98.5 -30.5z" />
    <glyph glyph-name="uni04C4" unicode="&#x4c4;" horiz-adv-x="500" 
d="M299 287q52 -18 90.5 -59.5t60 -97.5t21.5 -121t-21 -113.5t-57 -75t-83 -26.5q-14 0 -29 3t-30 9l22 76q17 -5 28 -5q41 0 61.5 33.5t20.5 91.5q0 64 -22 114.5t-60 80t-85 29.5h-58v-226h-88v522h88v-215h45h10h9l158 215h100z" />
    <glyph glyph-name="uni04C5" unicode="&#x4c5;" horiz-adv-x="730" 
d="M555 0v630h-265l-4 -141q-5 -145 -21.5 -240.5t-47 -150t-75.5 -77.5t-107 -23v79q38 0 67 19t49.5 66.5t32.5 132.5t16 217l6 198h439v-710h-90zM568 -143l60 183l53 -40h-126v80h165l-74 -223h-78z" />
    <glyph glyph-name="uni04C6" unicode="&#x4c6;" horiz-adv-x="578" 
d="M25 -4v79q26 0 46.5 13.5t36.5 46t25.5 90t12.5 146.5l6 151h355v-522h-88v444h-189l-2 -81q-4 -107 -18 -178t-39 -112t-61.5 -59t-84.5 -18zM432 -143l60 183l53 -40h-126v77h164l-73 -220h-78z" />
    <glyph glyph-name="uni04C7" unicode="&#x4c7;" horiz-adv-x="737" 
d="M656 710v-710h-90v323h-391v-323h-90v710h90v-307h391v307h90zM465 -220q-21 0 -43.5 4t-47.5 13l23 77q17 -5 32 -8t28 -3q36 0 56.5 20t28.5 59t8 94v44h90v-80q0 -68 -21.5 -117.5t-60.5 -76t-93 -26.5z" />
    <glyph glyph-name="uni04C8" unicode="&#x4c8;" horiz-adv-x="589" 
d="M70 0v522h88v-216h272v216h88v-522h-88v228h-272v-228h-88zM351 -207q-16 0 -34 3t-37 10l22 76q10 -2 19 -3.5t17 -1.5q45 0 68.5 37t23.5 110v53h88v-77q0 -106 -48 -156.5t-119 -50.5z" />
    <glyph glyph-name="uni04C9" unicode="&#x4c9;" horiz-adv-x="741" 
d="M656 710v-710h-90v323h-391v-323h-90v710h90v-307h391v307h90zM602 -143l60 183l53 -40h-126v80h165l-74 -223h-78z" />
    <glyph glyph-name="uni04CA" unicode="&#x4ca;" horiz-adv-x="589" 
d="M70 0v522h88v-216h272v216h88v-522h-88v228h-272v-228h-88zM443 -143l60 183l53 -40h-126v77h164l-73 -220h-78z" />
    <glyph glyph-name="uni04CB" unicode="&#x4cb;" horiz-adv-x="648" 
d="M475 0v297q-19 -8 -45 -17t-59.5 -14.5t-73.5 -5.5q-118 0 -175 52.5t-57 167.5v230h87v-220q0 -77 37.5 -112.5t122.5 -35.5q44 0 89.5 10t73.5 25v333h88v-710h-88zM451 -135h-80v215h155v-80h-75v-135z" />
    <glyph glyph-name="uni04CC" unicode="&#x4cc;" horiz-adv-x="520" 
d="M289 -123v168h74v175q-31 -13 -63 -20.5t-67 -7.5q-57 0 -97 21t-60.5 62t-20.5 99v148h84v-136q0 -65 26.5 -95t85.5 -30q31 0 61.5 7.5t50.5 19.5v234h86v-522h-84v-123h-76z" />
    <glyph glyph-name="uni04CD" unicode="&#x4cd;" horiz-adv-x="874" 
d="M699 0v542l-234 -417h-55l-235 417v-542h-90v710h95l257 -461l258 461h94v-710h-90zM712 -143l60 183l53 -40h-126v80h165l-74 -223h-78z" />
    <glyph glyph-name="uni04CE" unicode="&#x4ce;" horiz-adv-x="710" 
d="M70 0v522h91l194 -342l195 342h89v-522h-84v395l-172 -302h-56l-173 302v-395h-84zM568 -143l60 183l53 -40h-126v77h164l-73 -220h-78z" />
    <glyph glyph-name="uni04CF" unicode="&#x4cf;" horiz-adv-x="230" 
d="M71 0v522h88v-522h-88z" />
    <glyph glyph-name="uni04D0" unicode="&#x4d0;" horiz-adv-x="677" 
d="M301 710h76l290 -710h-96l-84 208h-298l-83 -208h-96zM467 278l-128 328l-132 -328h260zM339 769q-72 0 -109 34.5t-37 85.5h62q0 -28 19.5 -46.5t64.5 -18.5q44 0 62 17.5t22 47.5h62q0 -51 -37 -85.5t-109 -34.5z" />
    <glyph glyph-name="uni04D1" unicode="&#x4d1;" horiz-adv-x="554" 
d="M30 151q0 50 28.5 86.5t78.5 56.5t116 20q35 0 74 -5.5t69 -16.5v38q0 60 -36 94.5t-102 34.5q-43 0 -82.5 -15.5t-83.5 -44.5l-32 62q51 35 102 52.5t106 17.5q100 0 158 -55.5t58 -154.5v-221q0 -16 6.5 -23.5t21.5 -8.5v-68q-13 -2 -22.5 -3t-15.5 -1q-31 0 -46.5 17
t-17.5 36l-2 33q-34 -44 -89 -68t-109 -24q-52 0 -93 21.5t-64 58t-23 81.5zM370 114q12 14 19 28.5t7 24.5v65q-31 12 -65 18.5t-67 6.5q-67 0 -108.5 -26.5t-41.5 -72.5q0 -25 13.5 -48.5t40 -38.5t65.5 -15q41 0 78 16.5t59 41.5zM277 581q-72 0 -109 34.5t-37 85.5h62
q0 -28 19.5 -46.5t64.5 -18.5q44 0 62 17.5t22 47.5h62q0 -51 -37 -85.5t-109 -34.5z" />
    <glyph glyph-name="uni04D2" unicode="&#x4d2;" horiz-adv-x="677" 
d="M301 710h76l290 -710h-96l-84 208h-298l-83 -208h-96zM467 278l-128 328l-132 -328h260zM221 813v102h74v-102h-74zM383 813v102h74v-102h-74z" />
    <glyph glyph-name="uni04D3" unicode="&#x4d3;" horiz-adv-x="554" 
d="M30 151q0 50 28.5 86.5t78.5 56.5t116 20q35 0 74 -5.5t69 -16.5v38q0 60 -36 94.5t-102 34.5q-43 0 -82.5 -15.5t-83.5 -44.5l-32 62q51 35 102 52.5t106 17.5q100 0 158 -55.5t58 -154.5v-221q0 -16 6.5 -23.5t21.5 -8.5v-68q-13 -2 -22.5 -3t-15.5 -1q-31 0 -46.5 17
t-17.5 36l-2 33q-34 -44 -89 -68t-109 -24q-52 0 -93 21.5t-64 58t-23 81.5zM370 114q12 14 19 28.5t7 24.5v65q-31 12 -65 18.5t-67 6.5q-67 0 -108.5 -26.5t-41.5 -72.5q0 -25 13.5 -48.5t40 -38.5t65.5 -15q41 0 78 16.5t59 41.5zM159 625v102h74v-102h-74zM321 625v102
h74v-102h-74z" />
    <glyph glyph-name="uni04D4" unicode="&#x4d4;" horiz-adv-x="961" 
d="M428 710h488v-80h-375v-228h321v-80h-321v-242h384v-80h-473v208h-249l-130 -208h-98zM446 288v317l-203 -317h203z" />
    <glyph glyph-name="uni04D5" unicode="&#x4d5;" horiz-adv-x="933" 
d="M204 -10q-49 0 -88.5 21.5t-62.5 58.5t-23 83q0 48 28 84t77.5 56.5t113.5 20.5q34 0 67.5 -5.5t61.5 -14.5q2 16 5 34t9 32q-7 50 -42 78.5t-93 28.5q-40 0 -81 -15.5t-85 -45.5l-29 57q103 68 203 68q64 0 110 -25t71 -70q33 43 83.5 69t111.5 26q79 0 138.5 -37
t93 -98t33.5 -135q0 -6 -0.5 -15.5t-1.5 -14.5h-443q4 -51 30 -90.5t67 -62t89 -22.5t90.5 24t58.5 63l76 -21q-17 -38 -50.5 -68t-79 -47t-98.5 -17q-70 0 -126.5 31t-91.5 82q-22 -40 -59.5 -65t-80.5 -36.5t-82 -11.5zM227 56q47 0 87.5 17.5t62.5 46.5q17 17 19 35
q-8 17 -12.5 42.5t-5.5 44.5q-27 9 -57 14t-59 5q-66 0 -107.5 -28t-41.5 -73q0 -29 15 -53t41 -37.5t58 -13.5zM822 288q-4 52 -28.5 92t-64 62.5t-89.5 22.5q-49 0 -89 -23t-64 -62.5t-27 -91.5h362z" />
    <glyph glyph-name="uni04D6" unicode="&#x4d6;" horiz-adv-x="605" 
d="M567 80v-80h-482v710h473v-80h-383v-230h333v-75h-333v-245h392zM334 767q-72 0 -109 34.5t-37 85.5h62q0 -28 19.5 -46.5t64.5 -18.5q44 0 62 17.5t22 47.5h62q0 -51 -37 -85.5t-109 -34.5z" />
    <glyph glyph-name="uni04D7" unicode="&#x4d7;" horiz-adv-x="591" 
d="M302 -10q-59 0 -107.5 21.5t-84 59t-55 86.5t-19.5 104q0 74 34 135t94.5 98t138.5 37q79 0 137.5 -37.5t91 -98t32.5 -130.5q0 -10 -0.5 -19.5t-1.5 -14.5h-433q4 -51 28.5 -90.5t63.5 -62t84 -22.5q48 0 90.5 24t58.5 63l76 -21q-17 -38 -50.5 -68t-79 -47t-98.5 -17z
M126 292h356q-4 51 -29 90t-64 61t-86 22q-46 0 -85 -22t-63.5 -61t-28.5 -90zM299 581q-72 0 -109 34.5t-37 85.5h62q0 -28 19.5 -46.5t64.5 -18.5q44 0 62 17.5t22 47.5h62q0 -51 -37 -85.5t-109 -34.5z" />
    <glyph glyph-name="uni04D8" unicode="&#x4d8;" horiz-adv-x="736" 
d="M364 -5q-70 0 -131 27.5t-107.5 76.5t-72.5 113t-26 137q0 13 1 25t2 18h567q-5 51 -25.5 95t-53 76.5t-73 50.5t-86.5 18t-87 -17t-71 -47t-43 -69l-85 39q26 53 72 92.5t103.5 62t118.5 22.5q69 0 128.5 -28t104.5 -77.5t70.5 -115t25.5 -141.5q0 -75 -25.5 -140.5
t-71 -114t-105.5 -76t-130 -27.5zM366 76q63 0 114 31t83 84.5t36 122.5h-475q4 -67 37.5 -121t87 -85.5t117.5 -31.5z" />
    <glyph glyph-name="uni04D9" unicode="&#x4d9;" horiz-adv-x="591" 
d="M292 -10q-78 0 -138 37t-93 98.5t-34 134.5q0 6 0.5 15.5t1.5 14.5h433q-4 52 -28.5 91t-63 61t-84.5 22q-48 0 -90 -24t-59 -62l-76 21q17 38 51 68t79.5 47t98.5 17q59 0 107.5 -21.5t83.5 -59t54.5 -87t19.5 -105.5q0 -73 -33 -134t-92 -97.5t-138 -36.5zM293 56
q47 0 84 23t60.5 62.5t26.5 90.5h-352q4 -52 29.5 -91.5t65.5 -62t86 -22.5z" />
    <glyph glyph-name="uni04DA" unicode="&#x4da;" horiz-adv-x="736" 
d="M364 -5q-70 0 -131 27.5t-107.5 76.5t-72.5 113t-26 137q0 13 1 25t2 18h567q-5 51 -25.5 95t-53 76.5t-73 50.5t-86.5 18t-87 -17t-71 -47t-43 -69l-85 39q26 53 72 92.5t103.5 62t118.5 22.5q69 0 128.5 -28t104.5 -77.5t70.5 -115t25.5 -141.5q0 -75 -25.5 -140.5
t-71 -114t-105.5 -76t-130 -27.5zM366 76q63 0 114 31t83 84.5t36 122.5h-475q4 -67 37.5 -121t87 -85.5t117.5 -31.5zM250 813v102h74v-102h-74zM412 813v102h74v-102h-74z" />
    <glyph glyph-name="uni04DB" unicode="&#x4db;" horiz-adv-x="591" 
d="M292 -10q-78 0 -138 37t-93 98.5t-34 134.5q0 6 0.5 15.5t1.5 14.5h433q-4 52 -28.5 91t-63 61t-84.5 22q-48 0 -90 -24t-59 -62l-76 21q17 38 51 68t79.5 47t98.5 17q59 0 107.5 -21.5t83.5 -59t54.5 -87t19.5 -105.5q0 -73 -33 -134t-92 -97.5t-138 -36.5zM293 56
q47 0 84 23t60.5 62.5t26.5 90.5h-352q4 -52 29.5 -91.5t65.5 -62t86 -22.5zM178 625v102h74v-102h-74zM340 625v102h74v-102h-74z" />
    <glyph glyph-name="uni04DC" unicode="&#x4dc;" horiz-adv-x="1012" 
d="M25 0l275 367l-258 343h106l227 -307h86v307h90v-307h85l228 307h105l-258 -343l276 -367h-105l-244 321h-87v-321h-90v321h-88l-244 -321h-104zM388 813v102h74v-102h-74zM550 813v102h74v-102h-74z" />
    <glyph glyph-name="uni04DD" unicode="&#x4dd;" horiz-adv-x="805" 
d="M35 0l192 269l-175 253h99l150 -217h56v217h90v-217h58l147 217h100l-175 -253l193 -269h-101l-164 228h-58v-228h-90v228h-56l-165 -228h-101zM284 625v102h74v-102h-74zM446 625v102h74v-102h-74z" />
    <glyph glyph-name="uni04DE" unicode="&#x4de;" horiz-adv-x="564" 
d="M280 -8q-77 0 -138.5 32.5t-96.5 90.5l69 42q25 -42 67 -65.5t97 -23.5q73 0 113.5 36t40.5 96q0 38 -17 67.5t-49 46t-78 16.5h-73v71h74q36 0 62.5 15.5t41 42t14.5 59.5q0 35 -16 61.5t-45.5 41.5t-70.5 15q-52 0 -91 -22.5t-61 -61.5l-66 45q34 56 89 88.5t133 32.5
q65 0 113 -23t75 -65t27 -100q0 -52 -25.5 -95.5t-75.5 -65.5q62 -17 96 -65t34 -112q0 -63 -31.5 -108t-86 -68.5t-125.5 -23.5zM173 813v102h74v-102h-74zM335 813v102h74v-102h-74z" />
    <glyph glyph-name="uni04DF" unicode="&#x4df;" horiz-adv-x="470" 
d="M234 -7q-76 0 -128.5 28.5t-80.5 79.5l72 32q18 -32 51.5 -50t81.5 -18q57 0 90 25t33 67q0 38 -26.5 61.5t-74.5 24.5h-53v58h56q21 0 37.5 10.5t26 28.5t9.5 40q0 35 -25 56.5t-75 21.5q-41 0 -68.5 -16t-44.5 -48l-67 36q25 47 72.5 73.5t111.5 26.5q51 0 90.5 -16.5
t62 -47.5t22.5 -75q0 -37 -17.5 -68.5t-51.5 -47.5q47 -14 72 -48.5t25 -81.5q0 -48 -26 -82t-71 -52t-104 -18zM112 625v102h74v-102h-74zM274 625v102h74v-102h-74z" />
    <glyph glyph-name="uni04E0" unicode="&#x4e0;" horiz-adv-x="574" 
d="M278 431q71 0 120 -19t78.5 -50t43 -68.5t13.5 -75.5q0 -71 -31.5 -121.5t-85.5 -77.5t-124 -27q-82 0 -146.5 32.5t-100.5 90.5l69 42q26 -42 71 -65.5t105 -23.5q48 0 82.5 18.5t53.5 51.5t19 78q0 63 -44 103.5t-133 40.5h-73v71h83zM195 431l197 199h-307v80h412v-70
l-247 -247z" />
    <glyph glyph-name="uni04E1" unicode="&#x4e1;" horiz-adv-x="470" 
d="M208 -220q-77 0 -140.5 33.5t-92.5 93.5l71 32q25 -43 67.5 -65t97.5 -22t90.5 20t53 56t17.5 82q0 77 -50 117.5t-143 40.5h-53v62l207 214h-326v78h417v-78l-208 -215h10q111 -7 167 -67.5t56 -149.5q0 -53 -18 -96t-50 -73.5t-76 -46.5t-97 -16z" />
    <glyph glyph-name="uni04E2" unicode="&#x4e2;" horiz-adv-x="765" 
d="M90 0v710h90v-585l411 585h84v-710h-90v574l-406 -574h-89zM238 842v58h292v-58h-292z" />
    <glyph glyph-name="uni04E3" unicode="&#x4e3;" horiz-adv-x="600" 
d="M70 0v521h88v-403l292 404h80v-522h-88v395l-288 -395h-84zM156 654v58h292v-58h-292z" />
    <glyph glyph-name="uni04E4" unicode="&#x4e4;" horiz-adv-x="765" 
d="M90 0v710h90v-585l411 585h84v-710h-90v574l-406 -574h-89zM265 813v102h74v-102h-74zM427 813v102h74v-102h-74z" />
    <glyph glyph-name="uni04E5" unicode="&#x4e5;" horiz-adv-x="600" 
d="M70 0v521h88v-403l292 404h80v-522h-88v395l-288 -395h-84zM183 625v102h74v-102h-74zM345 625v102h74v-102h-74z" />
    <glyph glyph-name="uni04E6" unicode="&#x4e6;" horiz-adv-x="748" 
d="M373 -5q-75 0 -136 30t-105.5 81.5t-68.5 116t-24 132.5q0 71 25.5 135.5t71 115t106.5 80t133 29.5q75 0 136 -31t105 -83t68 -116t24 -131q0 -71 -25 -135.5t-70.5 -115t-106.5 -79.5t-133 -29zM130 355q0 -54 17.5 -104.5t49.5 -89.5t77 -62t100 -23q57 0 102 24
t76.5 64t48 90t16.5 101q0 54 -17.5 104t-50 89.5t-77 62t-98.5 22.5q-57 0 -102 -23.5t-76.5 -63.5t-48.5 -89.5t-17 -101.5zM257 811v102h74v-102h-74zM419 811v102h74v-102h-74z" />
    <glyph glyph-name="uni04E7" unicode="&#x4e7;" horiz-adv-x="599" 
d="M299 -10q-59 0 -107 21.5t-83 59t-54 86.5t-19 103q0 55 19 104t54 86.5t83.5 59t107.5 21.5q58 0 106 -21.5t83.5 -59t54.5 -86.5t19 -104q0 -54 -19 -103t-54 -86.5t-83.5 -59t-107.5 -21.5zM126 259q0 -54 23.5 -98t62.5 -69.5t87 -25.5t87.5 26t63 70.5t23.5 98.5
t-23.5 98t-63 70t-87.5 26t-87 -26.5t-62.5 -70.5t-23.5 -99zM181 625v102h74v-102h-74zM343 625v102h74v-102h-74z" />
    <glyph glyph-name="uni04E8" unicode="&#x4e8;" horiz-adv-x="760" 
d="M98 328v66h576v-66h-576zM373 -5q-75 0 -136 30t-105.5 81.5t-68.5 116t-24 132.5q0 71 25.5 135.5t71 115t106.5 80t133 29.5q75 0 136 -31t105 -83t68 -116t24 -131q0 -71 -25 -135.5t-70.5 -115t-106.5 -79.5t-133 -29zM130 355q0 -54 17.5 -104.5t49.5 -89.5t77 -62
t100 -23q57 0 102 24t76.5 64t48 90t16.5 101q0 54 -17.5 104t-50 89.5t-77 62t-98.5 22.5q-57 0 -102 -23.5t-76.5 -63.5t-48.5 -89.5t-17 -101.5z" />
    <glyph glyph-name="uni04E9" unicode="&#x4e9;" horiz-adv-x="597" 
d="M90 244v42h438v-42h-438zM299 -10q-59 0 -107 21.5t-83 59t-54 86.5t-19 103q0 55 19 104t54 86.5t83.5 59t107.5 21.5q58 0 106 -21.5t83.5 -59t54.5 -86.5t19 -104q0 -54 -19 -103t-54 -86.5t-83.5 -59t-107.5 -21.5zM126 259q0 -54 23.5 -98t62.5 -69.5t87 -25.5
t87.5 26t63 70.5t23.5 98.5t-23.5 98t-63 70t-87.5 26t-87 -26.5t-62.5 -70.5t-23.5 -99z" />
    <glyph glyph-name="uni04EA" unicode="&#x4ea;" horiz-adv-x="760" 
d="M98 328v66h576v-66h-576zM373 -5q-75 0 -136 30t-105.5 81.5t-68.5 116t-24 132.5q0 71 25.5 135.5t71 115t106.5 80t133 29.5q75 0 136 -31t105 -83t68 -116t24 -131q0 -71 -25 -135.5t-70.5 -115t-106.5 -79.5t-133 -29zM130 355q0 -54 17.5 -104.5t49.5 -89.5t77 -62
t100 -23q57 0 102 24t76.5 64t48 90t16.5 101q0 54 -17.5 104t-50 89.5t-77 62t-98.5 22.5q-57 0 -102 -23.5t-76.5 -63.5t-48.5 -89.5t-17 -101.5zM257 811v102h74v-102h-74zM419 811v102h74v-102h-74z" />
    <glyph glyph-name="uni04EB" unicode="&#x4eb;" horiz-adv-x="597" 
d="M90 244v42h438v-42h-438zM299 -10q-59 0 -107 21.5t-83 59t-54 86.5t-19 103q0 55 19 104t54 86.5t83.5 59t107.5 21.5q58 0 106 -21.5t83.5 -59t54.5 -86.5t19 -104q0 -54 -19 -103t-54 -86.5t-83.5 -59t-107.5 -21.5zM126 259q0 -54 23.5 -98t62.5 -69.5t87 -25.5
t87.5 26t63 70.5t23.5 98.5t-23.5 98t-63 70t-87.5 26t-87 -26.5t-62.5 -70.5t-23.5 -99zM181 625v102h74v-102h-74zM343 625v102h74v-102h-74z" />
    <glyph glyph-name="uni04EC" unicode="&#x4ec;" horiz-adv-x="716" 
d="M333 -6q-63 0 -118.5 20t-99 57t-70.5 88l76 41q22 -41 55 -69t73.5 -42t82.5 -14q55 0 101.5 22.5t80.5 61.5t51.5 89.5t15.5 105.5l40 -28h-354v74h352l-38 -26q-1 48 -18 94.5t-48.5 83.5t-77 59t-104.5 22q-41 0 -79.5 -13t-70 -39.5t-53.5 -68.5l-73 47
q39 68 106.5 111.5t168.5 43.5q82 0 146 -30.5t108 -81.5t67 -114.5t23 -130.5q0 -70 -24.5 -135t-70 -116.5t-108.5 -81.5t-140 -30zM242 813v102h74v-102h-74zM404 813v102h74v-102h-74z" />
    <glyph glyph-name="uni04ED" unicode="&#x4ed;" horiz-adv-x="561" 
d="M262 -9q-48 0 -92.5 15t-79.5 43t-55 68l71 33q24 -45 64.5 -66.5t85.5 -21.5q48 0 86.5 23.5t63.5 63t29 86.5h-225v60h224q-5 42 -27.5 79.5t-60 61t-89.5 23.5q-43 0 -81.5 -19t-63.5 -64l-68 35q29 54 84 87t132 33q64 0 113.5 -22.5t83 -61t51 -86.5t17.5 -98
q0 -52 -18 -100.5t-52.5 -87t-83 -61.5t-109.5 -23zM159 625v102h74v-102h-74zM321 625v102h74v-102h-74z" />
    <glyph glyph-name="uni04EE" unicode="&#x4ee;" horiz-adv-x="622" 
d="M161 -3v76h45q25 0 37.5 12.5t26.5 37.5l26 56l-296 531h99l238 -439l200 439h95l-293 -630q-22 -45 -46.5 -64t-67.5 -19h-64zM178 842v58h292v-58h-292z" />
    <glyph glyph-name="uni04EF" unicode="&#x4ef;" horiz-adv-x="545" 
d="M136 -219q-17 0 -34.5 5t-35.5 15l30 60q9 -5 17.5 -7.5t16.5 -2.5q24 0 45.5 22.5t40.5 68.5l25 63l-229 517h93l176 -433l159 433h87l-244 -607q-18 -45 -41 -74.5t-50 -44.5t-56 -15zM127 654v58h292v-58h-292z" />
    <glyph glyph-name="uni04F0" unicode="&#x4f0;" horiz-adv-x="622" 
d="M161 -3v76h45q25 0 37.5 12.5t26.5 37.5l26 56l-296 531h99l238 -439l200 439h95l-293 -630q-22 -45 -46.5 -64t-67.5 -19h-64zM205 813v102h74v-102h-74zM367 813v102h74v-102h-74z" />
    <glyph glyph-name="uni04F1" unicode="&#x4f1;" horiz-adv-x="545" 
d="M136 -219q-17 0 -34.5 5t-35.5 15l30 60q9 -5 17.5 -7.5t16.5 -2.5q24 0 45.5 22.5t40.5 68.5l25 63l-229 517h93l176 -433l159 433h87l-244 -607q-18 -45 -41 -74.5t-50 -44.5t-56 -15zM154 625v102h74v-102h-74zM316 625v102h74v-102h-74z" />
    <glyph glyph-name="uni04F2" unicode="&#x4f2;" horiz-adv-x="622" 
d="M161 -3v76h45q25 0 37.5 12.5t26.5 37.5l26 56l-296 531h99l238 -439l200 439h95l-293 -630q-22 -45 -46.5 -64t-67.5 -19h-64zM260 798l-46 20l54 101h76zM396 798l-46 20l54 101h76z" />
    <glyph glyph-name="uni04F3" unicode="&#x4f3;" horiz-adv-x="545" 
d="M136 -219q-17 0 -34.5 5t-35.5 15l30 60q9 -5 17.5 -7.5t16.5 -2.5q24 0 45.5 22.5t40.5 68.5l25 63l-229 517h93l176 -433l159 433h87l-244 -607q-18 -45 -41 -74.5t-50 -44.5t-56 -15zM209 610l-46 20l54 101h76zM345 610l-46 20l54 101h76z" />
    <glyph glyph-name="uni04F4" unicode="&#x4f4;" horiz-adv-x="648" 
d="M475 0v297q-19 -8 -45 -17t-59.5 -14.5t-73.5 -5.5q-118 0 -175 52.5t-57 167.5v230h87v-220q0 -77 37.5 -112.5t122.5 -35.5q44 0 89.5 10t73.5 25v333h88v-710h-88zM205 813v102h74v-102h-74zM367 813v102h74v-102h-74z" />
    <glyph glyph-name="uni04F5" unicode="&#x4f5;" horiz-adv-x="527" 
d="M367 0v209q-31 -15 -64.5 -22t-73.5 -7q-85 0 -129.5 44.5t-44.5 133.5v164h88v-152q0 -63 26 -92t83 -29q32 0 63.5 7t51.5 19v247h89v-522h-89zM145 625v102h74v-102h-74zM307 625v102h74v-102h-74z" />
    <glyph glyph-name="uni04F6" unicode="&#x4f6;" horiz-adv-x="523" 
d="M85 0v710h413v-80h-323v-630h-90zM214 -135v135h-98v80h178v-215h-80z" />
    <glyph glyph-name="uni04F7" unicode="&#x4f7;" horiz-adv-x="411" 
d="M70 0v522h322v-78h-234v-444h-88zM168 -123v123h-86v77h164v-200h-78z" />
    <glyph glyph-name="uni04F8" unicode="&#x4f8;" horiz-adv-x="873" 
d="M85 0v710h90v-269h170q78 0 130 -27.5t78.5 -77t26.5 -115.5q0 -62 -26 -112.5t-77 -79.5t-126 -29h-266zM175 75h164q53 0 86 20.5t48 54t15 71.5t-13.5 71t-46.5 53.5t-90 20.5h-163v-291zM698 0v709h90v-709h-90zM319 813v102h74v-102h-74zM481 813v102h74v-102h-74z
" />
    <glyph glyph-name="uni04F9" unicode="&#x4f9;" horiz-adv-x="700" 
d="M70 0v522h88v-178h106q92 0 139.5 -46.5t47.5 -121.5q0 -50 -20.5 -90t-60.5 -63t-100 -23h-200zM158 69h100q37 0 59.5 14.5t33.5 38.5t11 52q0 27 -10 50t-33 37t-63 14h-98v-206zM541 0v521h88v-521h-88zM231 625v102h74v-102h-74zM393 625v102h74v-102h-74z" />
    <glyph glyph-name="uni04FA" unicode="&#x4fa;" horiz-adv-x="549" 
d="M142 -220q-21 0 -43.5 4t-47.5 13l23 77q17 -5 32 -8t28 -3q53 0 77.5 36.5t24.5 100.5h-118v80h199v-80q0 -68 -21.5 -117.5t-60.5 -76t-93 -26.5zM117 0v710h413v-80h-323v-630h-90zM19 303v61h372v-61h-372z" />
    <glyph glyph-name="uni04FB" unicode="&#x4fb;" horiz-adv-x="427" 
d="M99 -207q-21 0 -43.5 4t-47.5 13l21 71q17 -5 33 -8t29 -3q53 0 77.5 35.5t24.5 94.5h-68v77h149v-77q0 -65 -21.5 -111.5t-60.5 -71t-93 -24.5zM98 0v522h322v-78h-234v-444h-88zM8 236v57h330v-57h-330z" />
    <glyph glyph-name="uni04FC" unicode="&#x4fc;" horiz-adv-x="666" 
d="M461 -220q-22 0 -46.5 4t-49.5 13l23 78q30 -13 59 -13q27 0 48.5 11.5t33.5 31.5t12 47q0 21 -8.5 45.5t-28.5 51.5l-170 235l-206 -284h-102l257 350l-265 360h102l214 -294l214 294h101l-265 -360l194 -265q29 -39 40 -74.5t11 -64.5q0 -48 -23.5 -85.5t-61.5 -59
t-83 -21.5z" />
    <glyph glyph-name="uni04FD" unicode="&#x4fd;" horiz-adv-x="509" 
d="M322 -205q-14 0 -28 3t-28 8l22 76q8 -3 16.5 -5t16.5 -2q32 0 54.5 25t22.5 64t-16 73t-51 75l-67 81l-9 12l-7 -14l-138 -191h-98l194 260l-193 262h97l138 -192l8 -16l9 16l137 192h98l-190 -258l86 -103q41 -50 64.5 -98t23.5 -98t-23 -88.5t-60 -60t-79 -21.5z" />
    <glyph glyph-name="uni04FE" unicode="&#x4fe;" horiz-adv-x="667" 
d="M152 321v56h363v-56h-363zM120 710l214 -294l214 294h101l-265 -360l257 -350h-101l-206 284l-206 -284h-102l257 350l-265 360h102z" />
    </font>
</defs>
</svg>
