<?xml version="1.0" standalone="no"?>
<!DOCTYPE svg PUBLIC "-//W3C//DTD SVG 1.1//EN" "http://www.w3.org/Graphics/SVG/1.1/DTD/svg11.dtd" >
<svg xmlns="http://www.w3.org/2000/svg" xmlns:xlink="http://www.w3.org/1999/xlink" version="1.1">
<metadata>
Created by FontForge 20201107 at Wed Jul  8 16:02:46 2020
 By 
Copyright 2010 The Raleway Project Authors (impallari@gmail.com), with Reserved Font Name "Raleway".
</metadata>
<defs>
<font id="Raleway-SemiBold" horiz-adv-x="0" >
  <font-face 
    font-family="Raleway SemiBold"
    font-weight="600"
    font-stretch="normal"
    units-per-em="1000"
    panose-1="0 0 0 0 0 0 0 0 0 0"
    ascent="800"
    descent="-200"
    x-height="523"
    cap-height="710"
    bbox="-207 -227 1310 1107"
    underline-thickness="50"
    underline-position="-125"
    unicode-range="U+000D-2215"
  />
<missing-glyph horiz-adv-x="608" 
d="M558 29q0 -29 -33 -29h-448q-16 0 -21.5 6t-5.5 19v662q0 23 19 23h471q18 0 18 -21v-660zM506 74v568q0 18 -15 18h-373q-16 0 -16 -19v-570q0 -10 5 -15.5t18 -5.5h353q28 0 28 24zM478 28l-407 641l52 27l415 -663z" />
    <glyph glyph-name="f_f" unicode="ff" horiz-adv-x="620" 
d="M96 0v425h-70v85h70v8q0 50 21 92t60.5 67.5t93.5 25.5q37 0 68 -9t61 -23l-26 -85q-22 13 -41.5 18t-39.5 5q-22 0 -38 -7.5t-27 -20t-16.5 -28t-5.5 -31.5v-12h134v-85h-134v-425h-110zM347 0v425h-70v85h70v21q0 64 20 111t58 72.5t89 25.5q31 0 62.5 -8.5t58.5 -23.5
l-24 -82q-14 10 -34.5 15.5t-39.5 5.5q-39 0 -59.5 -29t-20.5 -84v-24h133v-85h-133v-425h-110z" />
    <glyph glyph-name="fi" unicode="fi" horiz-adv-x="546" 
d="M96 425h-70v85h70v21q0 41 13 78.5t39 67t63.5 46.5t87.5 17q37 0 69.5 -8t60 -21.5t48.5 -28.5l-45 -82q-22 20 -56 33t-70 13q-34 0 -56.5 -16t-33 -42t-10.5 -54v-24h274v-510h-110v425h-164v-425h-110v425z" />
    <glyph glyph-name="fl" unicode="fl" horiz-adv-x="630" 
d="M518 -7q-57 0 -89 30.5t-32 82.5v430q0 28 -8 53t-28 41t-58 16q-34 0 -55 -16t-31 -43.5t-11 -63.5v-13h96v-85h-96v-425h-110v425h-70v85h70v30q0 63 24 107.5t70 68.5t111 24q105 0 155.5 -50.5t50.5 -130.5v-406q0 -38 11.5 -50t29.5 -12q20 0 39.5 5t29.5 9l16 -89
q-11 -5 -31 -10t-42 -9t-42 -4z" />
    <glyph glyph-name="f_f_i" unicode="ffi" horiz-adv-x="796" 
d="M96 0v425h-70v85h70v8q0 50 21 92t60.5 67.5t93.5 25.5q37 0 68 -9t61 -23l-26 -85q-22 13 -41.5 18t-39.5 5q-22 0 -38 -7.5t-27 -20t-16.5 -28t-5.5 -31.5v-12h134v-85h-134v-425h-110zM347 425h-70v85h70v21q0 41 13 78.5t39 67t63.5 46.5t87.5 17q37 0 69 -8
t59.5 -21.5t49.5 -28.5l-45 -82q-23 20 -56.5 33t-70.5 13q-33 0 -55.5 -16t-33 -42t-10.5 -54v-24h274v-510h-110v425h-164v-425h-110v425z" />
    <glyph glyph-name="f_f_l" unicode="ffl" horiz-adv-x="883" 
d="M96 0v425h-70v85h70v8q0 50 21 92t60.5 67.5t93.5 25.5q37 0 68 -9t61 -23l-26 -85q-22 13 -41.5 18t-39.5 5q-22 0 -38 -7.5t-27 -20t-16.5 -28t-5.5 -31.5v-12h134v-85h-134v-425h-110zM770 -7q-56 0 -88 30.5t-32 82.5v430q0 28 -8 53t-28.5 41t-57.5 16
q-34 0 -55 -16t-31.5 -43.5t-10.5 -63.5v-13h95v-85h-95v-425h-110v425h-70v85h70v30q0 63 24 107.5t69.5 68.5t111.5 24q104 0 155 -50.5t51 -130.5v-406q0 -38 11 -50t30 -12q20 0 39 5t30 9l16 -89q-12 -5 -31.5 -10t-41.5 -9t-43 -4z" />
    <glyph glyph-name=".notdef" horiz-adv-x="608" 
d="M558 29q0 -29 -33 -29h-448q-16 0 -21.5 6t-5.5 19v662q0 23 19 23h471q18 0 18 -21v-660zM506 74v568q0 18 -15 18h-373q-16 0 -16 -19v-570q0 -10 5 -15.5t18 -5.5h353q28 0 28 24zM478 28l-407 641l52 27l415 -663z" />
    <glyph glyph-name=".null" 
 />
    <glyph glyph-name="nonmarkingreturn" horiz-adv-x="333" 
 />
    <glyph glyph-name="NULL" 
 />
    <glyph glyph-name="NULL" 
 />
    <glyph glyph-name="CR" unicode="&#xd;" 
 />
    <glyph glyph-name="space" unicode=" " horiz-adv-x="247" 
 />
    <glyph glyph-name="exclam" unicode="!" horiz-adv-x="284" 
d="M87 253v464h110v-464h-110zM87 0v137h110v-137h-110z" />
    <glyph glyph-name="quotedbl" unicode="&#x22;" horiz-adv-x="357" 
d="M64 501v220h94v-220h-94zM199 501v220h94v-220h-94z" />
    <glyph glyph-name="numbersign" unicode="#" horiz-adv-x="706" 
d="M669 436h-139l-38 -158h132v-84h-152l-47 -194h-90l48 194h-145l-47 -194h-90l49 194h-113v84h132l38 158h-125v78h145l47 196h90l-48 -196h144l48 196h90l-49 -196h120v-78zM403 278l38 158h-145l-38 -158h145z" />
    <glyph glyph-name="dollar" unicode="$" horiz-adv-x="628" 
d="M286 51l61 -1v-162h-61v163zM293 64v580l47 8v-590zM286 815h61v-154l-61 -8v162zM508 543q-9 11 -28.5 23.5t-45 23.5t-55.5 18t-62 7q-70 0 -104 -26t-34 -72q0 -34 19 -53.5t58 -32.5t98 -28q72 -17 125 -40.5t81 -62.5t28 -103q0 -54 -20 -93t-56 -63.5t-83 -36
t-101 -11.5t-106 11t-99.5 32.5t-88.5 52.5l52 96q13 -13 37 -28.5t57 -29.5t71.5 -23.5t78.5 -9.5q66 0 102 23.5t36 67.5q0 36 -23.5 57.5t-67 36.5t-104.5 30q-70 19 -117 41.5t-70.5 58t-23.5 90.5q0 70 34 118.5t92.5 73t130.5 24.5q49 0 92 -10.5t80.5 -28.5t67.5 -41
z" />
    <glyph glyph-name="percent" unicode="%" horiz-adv-x="758" 
d="M196 423q-44 0 -80.5 20t-58 53.5t-21.5 74.5q0 42 21.5 75.5t58 53.5t80.5 20t80 -20t57 -53.5t21 -74.5t-21 -75t-57 -54t-80 -20zM195 480q23 0 41.5 12.5t29 33.5t10.5 45q0 26 -11 47t-29.5 33t-39.5 12q-23 0 -41.5 -12.5t-29.5 -33.5t-11 -45q0 -26 11.5 -46.5
t30 -33t39.5 -12.5zM563 -10q-44 0 -80 20t-57.5 54t-21.5 75t21.5 74.5t57.5 53.5t80 20q45 0 81 -19.5t57 -53.5t21 -75t-21 -75t-57 -54t-81 -20zM563 47q23 0 41.5 13t29 33.5t10.5 44.5q0 26 -11 47t-29.5 33t-40.5 12t-40.5 -12.5t-29.5 -33.5t-11 -45q0 -25 11.5 -46
t29.5 -33.5t40 -12.5zM81 40l281 333l264 343l52 -45l-276 -329l-270 -348z" />
    <glyph glyph-name="ampersand" unicode="&#x26;" horiz-adv-x="696" 
d="M548 0l-341 361q-43 46 -68 78t-36 59t-11 56q0 49 24.5 86t67.5 58t96 21q49 0 90 -17.5t66 -51t25 -82.5q0 -46 -24 -83t-64 -68t-89 -61q-38 -25 -69 -49.5t-48.5 -52t-17.5 -61.5t19 -60.5t51 -41t70 -14.5q47 0 89 22t75 62.5t51.5 95.5t18.5 120h90
q0 -88 -27.5 -159t-74 -122t-107 -78.5t-127.5 -27.5q-69 0 -122 27.5t-82.5 73.5t-29.5 103q0 56 25.5 97.5t66 74t81.5 58.5q44 28 76 49.5t50 44t18 48.5q0 32 -22.5 51.5t-57.5 19.5q-26 0 -45.5 -11t-30.5 -29t-11 -40q0 -15 8 -30.5t30 -40t61 -66.5l401 -420h-145z
" />
    <glyph glyph-name="quotesingle" unicode="'" horiz-adv-x="222" 
d="M64 500v221h94v-221h-94z" />
    <glyph glyph-name="parenleft" unicode="(" horiz-adv-x="296" 
d="M38 346q0 102 42.5 201.5t102.5 202.5l85 -36q-18 -26 -39.5 -68t-41.5 -93.5t-33 -105t-13 -104.5q0 -79 34 -168t90 -181l-80 -41q-42 63 -75.5 128t-52.5 132.5t-19 132.5z" />
    <glyph glyph-name="parenright" unicode=")" horiz-adv-x="296" 
d="M257 346q0 -65 -19 -132.5t-52 -132.5t-75 -128l-81 41q56 92 90.5 181t34.5 168q0 51 -13 104.5t-33.5 105t-42 93.5t-38.5 68l84 36q61 -103 103 -202.5t42 -201.5z" />
    <glyph glyph-name="asterisk" unicode="*" horiz-adv-x="337" 
d="M80 530l45 67l-70 22l16 50l71 -29l-4 76h61l-4 -76l71 29l15 -50l-69 -22l45 -67l-44 -30l-44 71l-45 -71z" />
    <glyph glyph-name="plus" unicode="+" horiz-adv-x="419" 
d="M370 399v-88h-111v-121h-99v121h-111v88h111v121h99v-121h111z" />
    <glyph glyph-name="comma" unicode="," horiz-adv-x="221" 
d="M73 -97l24 103h-36v122h99v-122l-35 -103h-52z" />
    <glyph glyph-name="hyphen" unicode="-" horiz-adv-x="421" 
d="M61 224v99h299v-99h-299z" />
    <glyph glyph-name="period" unicode="." horiz-adv-x="213" 
d="M61 0v128h91v-128h-91z" />
    <glyph glyph-name="slash" unicode="/" horiz-adv-x="664" 
d="M636 710l-487 -710h-122l487 710h122z" />
    <glyph glyph-name="zero" unicode="0" horiz-adv-x="614" 
d="M563 293q0 -88 -33.5 -156.5t-91 -107.5t-131.5 -39q-73 0 -131 39t-91.5 107.5t-33.5 156.5t33.5 156.5t91.5 108t131 39.5q74 0 131.5 -39.5t91 -108t33.5 -156.5zM451 293q0 60 -18 105.5t-51 71t-75 25.5q-43 0 -76 -25.5t-51.5 -71t-18.5 -105.5t18.5 -105
t51.5 -70.5t76 -25.5q42 0 74.5 25.5t51 70.5t18.5 105z" />
    <glyph glyph-name="one" unicode="1" horiz-adv-x="471" 
d="M447 99v-99h-382v99h142v349q-9 -12 -28 -25t-42.5 -24.5t-47.5 -18.5t-44 -7v103q20 0 46 12t51.5 28.5t43.5 32t21 22.5h113v-472h127z" />
    <glyph glyph-name="two" unicode="2" horiz-adv-x="549" 
d="M40 0q0 42 7 77.5t24.5 67.5t49 60.5t80.5 54.5q35 20 66 35.5t55 31t37.5 33.5t13.5 41q0 22 -12 41t-36 30.5t-58 11.5q-27 0 -49.5 -7t-41 -18.5t-33.5 -25t-26 -26.5l-69 79q10 12 31.5 27.5t52 31t69.5 26t85 10.5q65 0 111 -21.5t70.5 -59t24.5 -84.5
q0 -37 -14.5 -65t-37.5 -49.5t-48.5 -37t-47.5 -27.5q-39 -19 -67.5 -35t-48.5 -31.5t-33 -32t-22 -39.5h330v-99h-463z" />
    <glyph glyph-name="three" unicode="3" horiz-adv-x="549" 
d="M369 236q42 -7 73.5 -31.5t48.5 -62t17 -84.5q0 -62 -30.5 -108t-86.5 -71.5t-132 -25.5t-134 26.5t-93 76.5l67 76q24 -36 62 -57.5t96 -21.5q65 0 101 28t36 84q0 58 -39.5 91t-118.5 33h-27v86h30q67 0 103 31.5t36 79.5q0 32 -14.5 52.5t-40.5 30.5t-60 10
q-51 0 -90 -22t-62 -63l-69 75q20 32 55 56t80.5 37.5t96.5 13.5q66 0 116 -22t77.5 -62t27.5 -94q0 -39 -15 -73.5t-44 -58t-67 -30.5z" />
    <glyph glyph-name="four" unicode="4" horiz-adv-x="564" 
d="M329 -127v159h-307v98l342 441h75v-439h88v-100h-88v-159h-110zM134 132h207v271z" />
    <glyph glyph-name="five" unicode="5" horiz-adv-x="551" 
d="M262 -149q-77 0 -138 34.5t-93 93.5l66 63q28 -43 72 -68.5t94 -25.5q41 0 73 17.5t50.5 49t18.5 72.5q0 40 -18 70.5t-48 47t-69 16.5q-38 0 -71 -17t-54 -48h-97l81 415h347v-101h-267l-36 -194q17 18 46 29.5t66 11.5q67 0 119.5 -29.5t83 -80.5t30.5 -118
q0 -71 -34 -124.5t-92 -83.5t-130 -30z" />
    <glyph glyph-name="six" unicode="6" horiz-adv-x="607" 
d="M564 236q0 67 -32.5 120.5t-88 85.5t-125.5 32q-37 0 -70 -12t-57.5 -33.5t-39.5 -51.5q1 77 21.5 131t58 82.5t86.5 28.5t89.5 -24.5t63.5 -66.5l65 68q-35 56 -91.5 87.5t-124.5 31.5q-82 0 -143 -46t-94.5 -137t-33.5 -227q0 -98 32.5 -169t91 -108.5t136.5 -37.5
q72 0 130.5 33t92 89t33.5 124zM308 84q-40 0 -74.5 21t-55.5 55.5t-21 75.5t20.5 75t55.5 54.5t75 20.5q42 0 76 -20.5t54.5 -54.5t20.5 -75t-20.5 -76t-55 -55.5t-75.5 -20.5z" />
    <glyph glyph-name="seven" unicode="7" horiz-adv-x="548" 
d="M372 482h-344v101h518l-355 -710h-125z" />
    <glyph glyph-name="eight" unicode="8" horiz-adv-x="601" 
d="M554 205q0 -64 -34.5 -112t-93 -74.5t-127.5 -26.5q-71 0 -128 28.5t-91 77.5t-34 112q0 42 19 75.5t47 57.5t57 37q-27 13 -49.5 33.5t-36 47.5t-13.5 58q0 46 20.5 81.5t54.5 60t74.5 37t80.5 12.5q41 0 81.5 -12.5t75 -36.5t55 -59.5t20.5 -81.5q0 -31 -13.5 -58.5
t-37 -48.5t-50.5 -33q32 -14 60.5 -39t45.5 -59t17 -77zM443 212q0 29 -12.5 52t-33.5 38.5t-46 23.5t-51 8q-37 0 -69 -15t-52 -42.5t-20 -64.5q0 -28 12 -50.5t32.5 -38.5t46 -24t51.5 -8q36 0 68.5 15.5t53 43t20.5 62.5zM181 515q0 -31 18 -53t46 -33t55 -11
q28 0 55.5 11.5t46 33.5t18.5 54q0 29 -17 50.5t-44.5 33t-58.5 11.5t-58.5 -12t-44 -33.5t-16.5 -51.5z" />
    <glyph glyph-name="nine" unicode="9" horiz-adv-x="589" 
d="M34 325q0 -67 32.5 -120.5t88.5 -85.5t125 -32q38 0 70.5 12t57.5 34t39 51q-1 -77 -21.5 -131t-57.5 -82.5t-87 -28.5q-48 0 -89 25t-64 66l-65 -68q35 -56 92 -87.5t124 -31.5q82 0 143 46t94.5 137t33.5 227q0 99 -32.5 169.5t-90.5 108t-136 37.5q-72 0 -130.5 -33
t-92.5 -89t-34 -124zM290 477q41 0 75 -20.5t55 -55.5t21 -76t-20.5 -75t-54.5 -54.5t-76 -20.5q-41 0 -75.5 20.5t-55 54.5t-20.5 75q0 42 20.5 76.5t55 55t75.5 20.5z" />
    <glyph glyph-name="colon" unicode=":" horiz-adv-x="223" 
d="M66 391v127h91v-127h-91zM66 0v128h91v-128h-91z" />
    <glyph glyph-name="semicolon" unicode=";" horiz-adv-x="239" 
d="M71 391v127h90v-127h-90zM82 -97l24 103h-36v122h99v-122l-35 -103h-52z" />
    <glyph glyph-name="less" unicode="&#x3c;" horiz-adv-x="512" 
d="M33 284l420 254v-117l-261 -162l261 -158v-122l-420 250v55z" />
    <glyph glyph-name="equal" unicode="=" horiz-adv-x="438" 
d="M64 162v73h309v-73h-309zM64 317v73h309v-73h-309z" />
    <glyph glyph-name="greater" unicode="&#x3e;" horiz-adv-x="512" 
d="M480 229l-421 -250v122l261 158l-261 162v117l421 -254v-55z" />
    <glyph glyph-name="question" unicode="?" horiz-adv-x="482" 
d="M133 221q0 35 8 64t26 53.5t49 43.5q17 10 40 22.5t44 29.5t35.5 40t14.5 54q0 33 -16 55.5t-40.5 34t-53.5 11.5q-31 0 -57 -13t-45 -33t-32 -42l-72 49q18 41 50 70t73 44t86 15q37 0 73.5 -11.5t65.5 -35.5t46.5 -60.5t17.5 -87.5q0 -35 -8.5 -60.5t-24.5 -45.5
t-37 -35.5t-46 -29.5q-25 -15 -49 -30.5t-40 -38.5t-16 -63h-92zM136 0v126h91v-126h-91z" />
    <glyph glyph-name="at" unicode="@" horiz-adv-x="843" 
d="M420 603q74 0 140.5 -25.5t118.5 -75t82 -120t30 -160.5q0 -17 -2.5 -46t-10.5 -62t-24.5 -62.5t-44.5 -48.5t-70 -19q-35 0 -54 13t-26.5 32.5t-10.5 40.5q-29 -31 -73.5 -50.5t-96.5 -19.5q-73 0 -112.5 39t-39.5 99q0 54 27.5 85t71 44t87.5 13q42 0 73 -8t46 -14
q0 40 -10 71t-35.5 48t-72.5 17q-40 0 -74.5 -12t-61.5 -33l-22 60q36 24 79 37t89 13q62 0 97.5 -18.5t52 -50t21.5 -68t5 -70.5v-108q0 -29 2.5 -54t13.5 -39.5t34 -14.5q29 0 47 20t28 50.5t14 62.5t4 55q0 71 -24 131.5t-67.5 105.5t-102.5 70.5t-131 25.5
q-69 0 -128.5 -24.5t-103 -68.5t-68 -104t-24.5 -130q0 -69 23 -128.5t65 -104.5t99.5 -71t127.5 -26q46 0 82 11t73 27l16 -44q-41 -20 -85 -30t-87 -10q-75 0 -140.5 27.5t-115.5 77.5t-78.5 119t-28.5 152q0 88 30.5 157t83.5 117t120.5 73.5t141.5 25.5zM474 81
q22 11 34 24.5t17 29t5 31.5v38q-14 3 -45 12t-73 9q-32 0 -59 -8t-43 -26.5t-16 -49.5q0 -23 11 -41.5t31 -29t48 -10.5q22 0 46.5 6t43.5 15z" />
    <glyph glyph-name="A" unicode="A" horiz-adv-x="675" 
d="M285 710h106l276 -710h-118l-75 193h-274l-74 -193h-119zM452 276l-114 311l-118 -311h232z" />
    <glyph glyph-name="B" unicode="B" horiz-adv-x="675" 
d="M638 183q0 -57 -29.5 -98t-79.5 -63t-110 -22h-339v710h366q50 0 86.5 -26.5t56 -68t19.5 -86.5q0 -52 -26.5 -97.5t-75.5 -67.5q61 -18 96.5 -65.5t35.5 -115.5zM523 204q0 30 -12.5 54.5t-34 40t-50.5 15.5h-234v-217h227q30 0 53.5 14.5t37 39t13.5 53.5zM192 613
v-209h206q28 0 50 13.5t35 37t13 53.5q0 31 -12 54.5t-32.5 37t-47.5 13.5h-212z" />
    <glyph glyph-name="C" unicode="C" horiz-adv-x="684" 
d="M35 360q0 65 23 127.5t67.5 114t108.5 82t145 30.5q96 0 166 -43.5t104 -111.5l-88 -59q-20 43 -50.5 68t-66 35t-69.5 10q-56 0 -98 -22.5t-70.5 -59.5t-43 -83t-14.5 -92q0 -51 17 -98.5t47.5 -84t72.5 -57.5t92 -21q34 0 71 12t68.5 37.5t49.5 67.5l93 -53
q-22 -53 -68.5 -90t-104 -56t-113.5 -19q-75 0 -137 31.5t-107 84t-70 118t-25 132.5z" />
    <glyph glyph-name="D" unicode="D" horiz-adv-x="716" 
d="M80 0v710h252q115 0 192 -47.5t115.5 -128t38.5 -178.5q0 -108 -42.5 -188t-120.5 -124t-183 -44h-252zM564 356q0 75 -27.5 132.5t-79 90t-125.5 32.5h-140v-512h140q75 0 126.5 34t78.5 92t27 131z" />
    <glyph glyph-name="E" unicode="E" horiz-adv-x="603" 
d="M567 99v-99h-487v710h478v-99h-366v-202h317v-93h-317v-217h375z" />
    <glyph glyph-name="F" unicode="F" horiz-adv-x="579" 
d="M80 0v710h473v-99h-361v-212h302v-93h-302v-306h-112z" />
    <glyph glyph-name="G" unicode="G" horiz-adv-x="719" 
d="M370 -5q-70 0 -131 29t-106.5 80t-71 116t-25.5 138t25.5 137t71 114t107 78t134.5 28q101 0 170.5 -42.5t104.5 -112.5l-86 -62q-28 58 -79.5 87t-112.5 29q-50 0 -91 -21t-70.5 -57.5t-44.5 -83t-15 -97.5q0 -54 17 -101t48 -82.5t73 -55.5t91 -20q58 0 110.5 29.5
t98.5 88.5v-114q-93 -105 -218 -105zM577 276h-149v83h243v-359h-94v276z" />
    <glyph glyph-name="H" unicode="H" horiz-adv-x="743" 
d="M663 710v-710h-113v313h-358v-313h-112v710h112v-297h358v297h113z" />
    <glyph glyph-name="I" unicode="I" horiz-adv-x="272" 
d="M80 0v710h112v-710h-112z" />
    <glyph glyph-name="J" unicode="J" horiz-adv-x="488" 
d="M37 125q16 -12 49 -23.5t78 -11.5q44 0 71.5 14.5t42 44t20 75.5t5.5 109v377h113v-361q0 -79 -8.5 -145t-33.5 -114.5t-74.5 -74.5t-132.5 -26q-49 0 -87 11t-70 33z" />
    <glyph glyph-name="K" unicode="K" horiz-adv-x="660" 
d="M80 0v709h112v-365l334 366h124l-280 -314l296 -396h-127l-240 325l-107 -111v-214h-112z" />
    <glyph glyph-name="L" unicode="L" horiz-adv-x="584" 
d="M80 0v710h112v-611h381v-99h-493z" />
    <glyph glyph-name="M" unicode="M" horiz-adv-x="870" 
d="M677 0v506l-209 -384h-66l-210 384v-506h-112v710h120l235 -434l235 434h120v-710h-113z" />
    <glyph glyph-name="N" unicode="N" horiz-adv-x="767" 
d="M192 502v-502h-112v710h92l402 -513v512h113v-709h-98z" />
    <glyph glyph-name="O" unicode="O" horiz-adv-x="752" 
d="M375 -5q-77 0 -139 30t-107 81.5t-69.5 116t-24.5 132.5q0 71 26 135.5t72 115t108.5 80t135.5 29.5q76 0 138.5 -31t107 -83t69 -116t24.5 -131q0 -71 -25.5 -135.5t-71.5 -115t-108.5 -79.5t-135.5 -29zM149 355q0 -50 16 -97t45.5 -83.5t71.5 -57.5t94 -21q54 0 96 22
t70.5 59.5t43.5 84t15 93.5q0 50 -15.5 96.5t-45.5 83t-71.5 57.5t-92.5 21q-54 0 -96 -22t-71 -59t-44.5 -83t-15.5 -94z" />
    <glyph glyph-name="P" unicode="P" horiz-adv-x="623" 
d="M80 0v710h298q48 0 88 -20t70 -53t46 -74t16 -84q0 -59 -26.5 -112.5t-75 -86.5t-112.5 -33h-192v-247h-112zM192 346h185q32 0 56 17.5t37.5 47.5t13.5 68q0 39 -16 69t-41.5 46.5t-55.5 16.5h-179v-265z" />
    <glyph glyph-name="Q" unicode="Q" horiz-adv-x="750" 
d="M375 -5q-77 0 -139 30.5t-107 81.5t-69.5 115.5t-24.5 132.5q0 71 26 135.5t72 115t108.5 80t135.5 29.5q76 0 138.5 -31t107 -83t69 -116t24.5 -131q0 -71 -25.5 -135.5t-71.5 -115t-108.5 -79.5t-135.5 -29zM376 96q54 0 96 22t70.5 59.5t43.5 84t15 93.5
q0 50 -15.5 97t-45.5 83t-71.5 57.5t-92.5 21.5q-54 0 -96 -22t-71 -59.5t-44.5 -83.5t-15.5 -94q0 -50 16 -97t45.5 -83t71.5 -57.5t94 -21.5zM390 247h108l216 -247h-108z" />
    <glyph glyph-name="R" unicode="R" horiz-adv-x="661" 
d="M80 0v710h309q48 0 88 -20t69.5 -53t46 -74t16.5 -84q0 -47 -17 -90t-48.5 -74t-73.5 -45l167 -270h-126l-154 247h-165v-247h-112zM192 346h196q31 0 55 18t38 48.5t14 66.5q0 37 -16 66.5t-41.5 47.5t-55.5 18h-190v-265z" />
    <glyph glyph-name="S" unicode="S" horiz-adv-x="611" 
d="M500 543q-10 11 -29 23.5t-45 23.5t-56 18t-62 7q-70 0 -104 -26t-34 -72q0 -34 19 -53.5t58 -32.5t98 -28q72 -17 125 -40.5t81 -62.5t28 -103q0 -54 -20 -93t-56 -63.5t-83 -36t-101 -11.5q-53 0 -105.5 11t-100 32.5t-87.5 52.5l51 96q13 -13 37.5 -28.5t57 -29.5
t71 -23.5t78.5 -9.5q67 0 102.5 23.5t35.5 67.5q0 36 -23 57.5t-67 36.5t-105 30q-70 19 -117 41.5t-70.5 58t-23.5 90.5q0 70 34 118.5t92.5 73t131.5 24.5q48 0 91 -10.5t80.5 -28.5t68.5 -41z" />
    <glyph glyph-name="T" unicode="T" horiz-adv-x="616" 
d="M601 611h-236v-611h-113v611h-237v99h586v-99z" />
    <glyph glyph-name="U" unicode="U" horiz-adv-x="752" 
d="M376 -5q-85 0 -143.5 29t-94 79t-52 114t-16.5 133v360h112v-360q0 -49 10 -94.5t32 -81.5t59.5 -57t92.5 -21q56 0 93.5 21.5t59 58t31.5 81.5t10 93v360h113v-360q0 -73 -17.5 -137.5t-54 -113t-94.5 -76.5t-141 -28z" />
    <glyph glyph-name="V" unicode="V" horiz-adv-x="678" 
d="M125 710l214 -573l213 573h119l-279 -710h-106l-280 710h119z" />
    <glyph glyph-name="W" unicode="W" horiz-adv-x="1051" 
d="M332 707h105l88 -241l89 241h105l-122 -316l106 -261l221 580h123l-291 -710h-97l-133 318l-134 -318h-98l-290 710h122l222 -580l106 261z" />
    <glyph glyph-name="X" unicode="X" horiz-adv-x="641" 
d="M125 710l196 -279l196 279h124l-256 -360l248 -350h-124l-188 269l-188 -269h-125l248 350l-256 360h125z" />
    <glyph glyph-name="Y" unicode="Y" horiz-adv-x="657" 
d="M132 710l196 -353l198 353h123l-265 -456v-254h-112v256l-263 454h123z" />
    <glyph glyph-name="Z" unicode="Z" horiz-adv-x="629" 
d="M31 86l429 525h-419v99h552v-86l-418 -525h419v-99h-563v86z" />
    <glyph glyph-name="bracketleft" unicode="[" horiz-adv-x="292" 
d="M83 -40v780h163v-89h-61v-602h61v-89h-163z" />
    <glyph glyph-name="backslash" unicode="\" horiz-adv-x="612" 
d="M150 710l435 -710h-122l-436 710h123z" />
    <glyph glyph-name="bracketright" unicode="]" horiz-adv-x="292" 
d="M46 -40v89h61v602h-61v89h163v-780h-163z" />
    <glyph glyph-name="asciicircum" unicode="^" horiz-adv-x="569" 
d="M41 303l198 407h92l197 -407h-92l-151 312l-154 -312h-90z" />
    <glyph glyph-name="underscore" unicode="_" horiz-adv-x="490" 
d="M59 -99v99h372v-99h-372z" />
    <glyph glyph-name="grave" unicode="`" horiz-adv-x="243" 
d="M47 730h105l57 -110l-70 -22z" />
    <glyph glyph-name="a" unicode="a" horiz-adv-x="564" 
d="M28 153q0 50 28.5 87.5t78.5 58t116 20.5q35 0 71.5 -5t64.5 -16v33q0 55 -33 86t-95 31q-44 0 -83 -15.5t-83 -43.5l-37 74q52 35 104.5 52t110.5 17q105 0 165.5 -55.5t60.5 -157.5v-195q0 -19 6.5 -27t22.5 -9v-88q-15 -3 -27 -4t-20 -1q-35 0 -53 17t-21 40l-3 30
q-34 -44 -87 -68t-107 -24q-52 0 -93 21.5t-64 58.5t-23 83zM361 121q12 13 19 26t7 23v60q-28 11 -59 16.5t-61 5.5q-60 0 -97.5 -24t-37.5 -66q0 -23 12.5 -44t36 -34t58.5 -13q36 0 69 14t53 36z" />
    <glyph glyph-name="b" unicode="b" horiz-adv-x="628" 
d="M348 -10q-60 0 -108.5 28.5t-76.5 76.5v-95h-97v730h110v-306q31 50 77.5 79t109.5 29q52 0 95 -22t73.5 -60t47 -87t16.5 -104t-18.5 -104t-52.5 -86t-78.5 -58t-97.5 -21zM319 84q36 0 66 14.5t52 38.5t33.5 56t11.5 66q0 47 -19.5 88t-54.5 66t-81 25q-33 0 -62 -15.5
t-51.5 -41t-37.5 -56.5v-138q6 -23 21 -41.5t35 -32t43 -21.5t44 -8z" />
    <glyph glyph-name="c" unicode="c" horiz-adv-x="559" 
d="M303 -10q-61 0 -110.5 21.5t-85.5 59.5t-55.5 87t-19.5 104q0 74 33.5 135t94 98t143.5 37q80 0 139.5 -35.5t87.5 -94.5l-107 -34q-18 33 -50.5 51.5t-71.5 18.5q-44 0 -79.5 -22.5t-56 -62t-20.5 -91.5q0 -50 21 -90.5t56.5 -64t79.5 -23.5q27 0 52.5 9.5t44.5 26
t27 36.5l108 -32q-17 -39 -50.5 -69t-79 -47.5t-101.5 -17.5z" />
    <glyph glyph-name="d" unicode="d" horiz-adv-x="637" 
d="M33 261q0 75 30.5 136.5t83.5 98t122 36.5q60 0 108.5 -31t75.5 -77v306h110v-606q0 -19 7 -27t23 -9v-88q-31 -5 -48 -5q-31 0 -52.5 18t-22.5 43l-1 39q-30 -50 -81 -77.5t-106 -27.5q-54 0 -99.5 21t-79 59t-52 87t-18.5 104zM453 188v137q-11 32 -35.5 57.5t-55 40.5
t-60.5 15q-35 0 -63.5 -15t-49 -40t-31.5 -57t-11 -67q0 -36 12 -67.5t34.5 -56t52 -38t64.5 -13.5q22 0 44.5 8t43 22t35 33t20.5 41z" />
    <glyph glyph-name="e" unicode="e" horiz-adv-x="595" 
d="M303 -10q-61 0 -110.5 21.5t-85.5 59t-55.5 86t-19.5 103.5q0 74 34 135.5t95 99t143 37.5t141.5 -37.5t92.5 -98.5t33 -131q0 -12 -1 -22.5t-2 -17.5h-419q3 -46 25.5 -80.5t57.5 -54t75 -19.5q44 0 83.5 22t53.5 58l94 -27q-17 -38 -51.5 -68.5t-81.5 -48t-102 -17.5z
M146 298h316q-3 45 -25.5 79.5t-57 54t-76.5 19.5q-41 0 -75.5 -19.5t-56.5 -54t-25 -79.5z" />
    <glyph glyph-name="f" unicode="f" horiz-adv-x="356" 
d="M96 0v425h-70v85h70v21q0 64 20.5 111t58 72.5t88.5 25.5q32 0 63 -8.5t59 -23.5l-24 -82q-15 10 -35.5 15.5t-39.5 5.5q-38 0 -59 -29t-21 -84v-24h134v-85h-134v-425h-110z" />
    <glyph glyph-name="g" unicode="g" horiz-adv-x="629" 
d="M273 -5q-53 0 -97 21.5t-75.5 58.5t-49 85t-17.5 101q0 56 18 105t50.5 86.5t76.5 58.5t98 21q63 0 110.5 -30t78.5 -78v99h97v-508q0 -76 -36.5 -129t-99.5 -81t-142 -28q-87 0 -144 30t-97 82l62 58q30 -42 77.5 -64t101.5 -22q45 0 83.5 16.5t61.5 51t23 86.5v80
q-28 -47 -77 -73.5t-103 -26.5zM309 84q25 0 48 8.5t42.5 23t33.5 33t20 39.5v137q-13 34 -37 59.5t-54 39.5t-61 14q-36 0 -64.5 -15.5t-48.5 -41t-31 -57.5t-11 -66q0 -36 12.5 -67t34.5 -55.5t52 -38t64 -13.5z" />
    <glyph glyph-name="h" unicode="h" horiz-adv-x="597" 
d="M535 0h-110v293q0 71 -26 106t-73 35q-29 0 -60 -16t-55 -43.5t-35 -63.5v-311h-110v730h110v-312q30 53 82 83.5t112 30.5q49 0 81 -17t50.5 -46.5t26 -68t7.5 -81.5v-319z" />
    <glyph glyph-name="i" unicode="i" horiz-adv-x="242" 
d="M66 0v523h110v-523h-110zM66 609v121h110v-121h-110z" />
    <glyph glyph-name="j" unicode="j" horiz-adv-x="248" 
d="M11 -191q-36 0 -68.5 11t-57.5 34l49 74q12 -12 29.5 -17.5t34.5 -5.5q20 0 36.5 10t27 27.5t10.5 38.5v542h110v-534q0 -52 -23.5 -93t-62 -64t-85.5 -23zM72 609v121h110v-121h-110z" />
    <glyph glyph-name="k" unicode="k" horiz-adv-x="548" 
d="M430 0l-168 241l-86 -82v-159h-110v730h110v-460l242 252h118l-203 -219l214 -303h-117z" />
    <glyph glyph-name="l" unicode="l" horiz-adv-x="301" 
d="M67 730h110v-579q0 -40 12 -51t30 -11q20 0 37.5 4t30.5 10l16 -87q-24 -10 -57 -17t-59 -7q-56 0 -88 31.5t-32 87.5v619z" />
    <glyph glyph-name="m" unicode="m" horiz-adv-x="927" 
d="M866 0h-110v293q0 73 -24 107t-70 34t-85.5 -34.5t-55.5 -89.5v-310h-110v293q0 73 -24 107t-69 34q-46 0 -85.5 -34t-56.5 -89v-311h-110v523h100v-105q31 55 81.5 84.5t115.5 29.5t102.5 -34t46.5 -85q34 58 83.5 88.5t113.5 30.5q46 0 77 -17t48 -46.5t24.5 -68
t7.5 -81.5v-319z" />
    <glyph glyph-name="n" unicode="n" horiz-adv-x="597" 
d="M535 0h-110v293q0 73 -23.5 107t-69.5 34q-32 0 -63.5 -16t-56.5 -43.5t-36 -63.5v-311h-110v523h100v-105q20 35 52.5 60.5t73.5 39.5t87 14q47 0 77.5 -17t48 -46.5t24 -68t6.5 -81.5v-319z" />
    <glyph glyph-name="o" unicode="o" horiz-adv-x="602" 
d="M301 -10q-62 0 -111 21.5t-84.5 59.5t-54.5 86.5t-19 103.5t19 104t54.5 86.5t85 59t110.5 21.5t110.5 -21.5t85 -59t54.5 -86.5t19 -104t-19 -103.5t-54.5 -86.5t-85 -59.5t-110.5 -21.5zM145 260q0 -50 21 -90t56 -63t79 -23q43 0 78.5 23.5t56.5 64t21 89.5
q0 50 -21 90t-56.5 63.5t-78.5 23.5q-44 0 -79 -24t-56 -63.5t-21 -90.5z" />
    <glyph glyph-name="p" unicode="p" horiz-adv-x="628" 
d="M363 -10q-63 0 -111 30t-76 78v-311h-110v736h97v-94q30 47 78 75t107 28q54 0 99 -21.5t78 -59.5t51.5 -86.5t18.5 -102.5q0 -75 -29.5 -137t-82 -98.5t-120.5 -36.5zM327 84q35 0 63.5 15t49 40t31.5 57t11 66q0 36 -12 68t-34.5 56t-52 38t-64.5 14q-21 0 -44 -8
t-43 -22t-35 -33t-21 -40v-137q14 -32 37 -57.5t53 -41t61 -15.5z" />
    <glyph glyph-name="q" unicode="q" horiz-adv-x="628" 
d="M265 -10q-51 0 -93.5 21.5t-73.5 59t-47.5 87t-16.5 104.5q0 56 18.5 105t52 86t78.5 58t97 21q60 0 108.5 -29t76.5 -75v95h97v-736h-110v311q-66 -108 -187 -108zM305 84q33 0 60.5 13t49 35.5t37.5 51.5v138q-5 24 -19.5 44.5t-35.5 37t-45 25.5t-47 9q-35 0 -64 -15
t-50.5 -40.5t-33 -57.5t-11.5 -66q0 -48 20.5 -87.5t56 -63.5t82.5 -24z" />
    <glyph glyph-name="r" unicode="r" horiz-adv-x="374" 
d="M360 428q-64 -1 -113.5 -29t-70.5 -79v-320h-110v523h102v-117q27 54 71 86.5t93 35.5h16.5t11.5 -1v-99z" />
    <glyph glyph-name="s" unicode="s" horiz-adv-x="491" 
d="M252 -10q-66 0 -125 21.5t-101 64.5l41 74q45 -40 90.5 -58t90.5 -18q46 0 75 17.5t29 51.5q0 25 -15 37t-43.5 21t-68.5 20q-56 17 -94 35.5t-57 45.5t-19 69q0 51 26 87t72.5 55t107.5 19q57 0 105.5 -17.5t85.5 -54.5l-47 -73q-35 32 -71.5 47t-78.5 15
q-24 0 -46 -5.5t-36.5 -20t-14.5 -40.5q0 -21 12 -34t36 -22t59 -20q61 -18 104 -35.5t66.5 -45t23.5 -75.5q0 -76 -56.5 -118.5t-150.5 -42.5z" />
    <glyph glyph-name="t" unicode="t" horiz-adv-x="367" 
d="M357 27q-14 -7 -35 -15t-47.5 -14t-54.5 -6q-34 0 -63 12t-46.5 38.5t-17.5 68.5v327h-69v85h69v172h110v-172h114v-85h-114v-292q2 -27 17.5 -40t38.5 -13t44 8t31 13z" />
    <glyph glyph-name="u" unicode="u" horiz-adv-x="609" 
d="M61 203v320h110v-298q0 -70 25.5 -105.5t74.5 -35.5q31 0 60.5 13t54 38.5t39.5 61.5v326h110v-399q0 -19 7 -27t23 -9v-88q-17 -3 -28 -4t-21 -1q-30 0 -50 16.5t-23 42.5l-2 52q-35 -57 -91 -86.5t-123 -29.5q-82 0 -124 54t-42 159z" />
    <glyph glyph-name="v" unicode="v" horiz-adv-x="544" 
d="M212 0l-199 523h114l149 -421l149 421h106l-199 -523h-120z" />
    <glyph glyph-name="w" unicode="w" horiz-adv-x="830" 
d="M718 523h105l-220 -523h-94l-94 236l-94 -236h-94l-221 523h105l168 -416l74 193l-90 222h93l59 -163l58 163h93l-89 -222l74 -193z" />
    <glyph glyph-name="x" unicode="x" horiz-adv-x="522" 
d="M128 523l124 -179l9 -17l9 17l123 179h119l-188 -262l190 -261h-119l-125 178l-9 16l-9 -16l-125 -178h-119l190 260l-188 263h118z" />
    <glyph glyph-name="y" unicode="y" horiz-adv-x="547" 
d="M84 -123q15 -2 29.5 -4.5t23.5 -2.5q17 0 29.5 10.5t25.5 38.5t32 81l-215 523h115l160 -411l142 411h106l-237 -644q-11 -29 -32 -53.5t-52 -38.5t-73 -14q-12 0 -25 2t-29 6v96z" />
    <glyph glyph-name="z" unicode="z" horiz-adv-x="493" 
d="M28 69l310 376h-299v78h419v-69l-308 -376h311v-78h-433v69z" />
    <glyph glyph-name="braceleft" unicode="{" horiz-adv-x="293" 
d="M190 651v-224q0 -17 -8 -35t-24 -32q15 -13 23.5 -31.5t8.5 -35.5v-235h55v-89h-132q-6 0 -14.5 6.5t-8.5 23.5v260q0 24 -13 42t-33 21v78q14 0 24.5 10.5t16 24.5t5.5 26v249q0 19 9 24.5t14 5.5h132v-89h-55z" />
    <glyph glyph-name="bar" unicode="|" horiz-adv-x="256" 
d="M81 -130v905h94v-905h-94z" />
    <glyph glyph-name="braceright" unicode="}" horiz-adv-x="293" 
d="M49 651v89h131q5 0 14 -5.5t9 -24.5v-249q0 -12 5.5 -26t16 -24.5t24.5 -10.5v-78q-20 -3 -33 -21t-13 -42v-260q0 -17 -8 -23.5t-15 -6.5h-131v89h55v235q0 17 7.5 35.5t23.5 31.5q-16 14 -23.5 32t-7.5 35v224h-55z" />
    <glyph glyph-name="asciitilde" unicode="~" horiz-adv-x="549" 
d="M61 232q0 8 6.5 27.5t21.5 41t39 37.5t60 16q34 0 61.5 -13.5t54 -27.5t54.5 -14q27 0 42 12t21 24.5t6 14.5h63q0 -4 -6.5 -22t-22 -40.5t-41 -39t-63.5 -16.5q-34 0 -63 14t-54 27.5t-53 13.5q-25 0 -39 -13t-19.5 -27t-5.5 -15h-62z" />
    <glyph glyph-name="uni00A0" unicode="&#xa0;" horiz-adv-x="247" 
 />
    <glyph glyph-name="exclamdown" unicode="&#xa1;" horiz-adv-x="282" 
d="M196 460v-464h-110v464h110zM196 713v-137h-110v137h110z" />
    <glyph glyph-name="cent" unicode="&#xa2;" horiz-adv-x="580" 
d="M276 -120v111q-51 4 -94.5 28t-75 62t-48.5 83.5t-17 93.5q0 68 27.5 126.5t80 98t127.5 48.5v114h52v-114q71 -2 125.5 -35.5t85.5 -93.5l-106 -34q-18 31 -45.5 47.5t-59.5 18.5v-347q21 2 43.5 11t40 24.5t24.5 33.5l107 -32q-18 -44 -56 -74t-81 -45t-78 -15v-110
h-52zM154 258q0 -38 15.5 -73t43 -60t63.5 -33v338q-29 -4 -52 -20t-38.5 -40t-23.5 -53t-8 -59z" />
    <glyph glyph-name="sterling" unicode="&#xa3;" horiz-adv-x="528" 
d="M55 378h363v-84h-363v84zM52 71q39 35 64 67.5t37 64t12 63.5q0 40 -13.5 74t-31 66t-31 65t-13.5 69q0 48 27 88t71.5 63.5t99.5 23.5q58 0 110.5 -28t86.5 -77l-59 -68q-24 37 -63 60t-77 23q-28 0 -49.5 -12.5t-34 -34t-12.5 -48.5q0 -29 12.5 -57.5t30 -58.5t30 -65
t12.5 -78q0 -31 -9 -60.5t-29.5 -59t-53.5 -65.5q21 5 39 8t36 3q25 0 48 -4.5t45 -9t45 -4.5q19 0 37.5 4.5t42.5 12.5l27 -82q-24 -14 -54 -21.5t-59 -7.5q-30 0 -58.5 7t-58 13.5t-61.5 6.5q-26 0 -58.5 -5.5t-61.5 -14.5z" />
    <glyph glyph-name="currency" unicode="&#xa4;" horiz-adv-x="545" 
d="M165 491q22 15 49 23.5t59 8.5q31 0 58 -8.5t49 -23.5l70 71l48 -47l-71 -70q16 -22 24.5 -50t8.5 -58t-8.5 -57.5t-25.5 -50.5l72 -70l-43 -42l-73 68q-22 -14 -49.5 -23.5t-59.5 -9.5q-33 0 -60.5 9.5t-50.5 23.5l-73 -68l-42 42l71 71q-33 48 -33 107q0 30 8 57.5
t24 49.5l-70 71l47 47zM171 336q0 -31 13.5 -56.5t37 -40.5t51.5 -15q29 0 51.5 15t36.5 41t14 58q0 33 -14 58t-36.5 39.5t-51.5 14.5q-28 0 -51.5 -14.5t-37 -40.5t-13.5 -59z" />
    <glyph glyph-name="yen" unicode="&#xa5;" horiz-adv-x="699" 
d="M478 389h77v-73h-116l-35 -62v-29h152v-73h-152v-152h-113v152h-150v73h150v31l-33 60h-117v73h79l-191 321h123l196 -356l198 356h123z" />
    <glyph glyph-name="brokenbar" unicode="&#xa6;" horiz-adv-x="258" 
d="M176 269v-399h-94v399h94zM176 775v-399h-94v399h94z" />
    <glyph glyph-name="section" unicode="&#xa7;" horiz-adv-x="524" 
d="M443 208q18 -14 28.5 -39.5t10.5 -63.5q0 -51 -20.5 -87.5t-53 -60t-70 -34.5t-71.5 -11q-38 0 -70.5 10t-59 25t-47 32.5t-33.5 31.5l71 68q33 -33 65.5 -47.5t68.5 -14.5q27 0 51 9.5t39.5 28.5t15.5 46q0 29 -15 43t-37.5 19t-44.5 6q-62 4 -107.5 25.5t-70.5 58.5
t-25 88q0 28 7 47.5t15 30.5q-17 14 -31 43.5t-14 69.5q0 51 28.5 92.5t75.5 66t101 24.5q41 0 73.5 -10.5t57 -27.5t42 -37t30.5 -38l-85 -40q-10 19 -27.5 31t-39 18t-44.5 6q-27 0 -50 -10.5t-37 -29t-14 -44.5q0 -44 29.5 -59.5t71.5 -16.5q37 -1 74 -9.5t68 -28
t49.5 -50t18.5 -76.5q0 -28 -7.5 -51t-16.5 -34zM175 327q0 -29 12 -45t31.5 -23t42 -10t43.5 -5t36 -8q11 9 17 24t6 31q0 29 -16.5 46t-39.5 24t-46 7q-19 0 -37 3t-29 8q-9 -9 -14.5 -23t-5.5 -29z" />
    <glyph glyph-name="dieresis" unicode="&#xa8;" horiz-adv-x="411" 
d="M71 615v110h92v-110h-92zM248 615v110h92v-110h-92z" />
    <glyph glyph-name="copyright" unicode="&#xa9;" horiz-adv-x="838" 
d="M417 -7q-80 0 -148 27t-118.5 76t-78 115t-27.5 144q0 77 27.5 143t78 114.5t118.5 75.5t148 27q81 0 149.5 -27t119.5 -75.5t79.5 -114.5t28.5 -143q0 -78 -28.5 -144t-79.5 -115t-119.5 -76t-149.5 -27zM417 41q68 0 127 23t103.5 64.5t69.5 98.5t25 126
q0 67 -24.5 124t-68.5 99.5t-103.5 66.5t-128.5 24t-127.5 -24t-101.5 -66.5t-67.5 -99t-24.5 -123.5q0 -66 24 -122.5t67.5 -99.5t102 -67t127.5 -24zM425 121q-52 0 -96 17.5t-77 48.5t-51.5 74t-18.5 94q0 44 15 86t44.5 75.5t74.5 53.5t105 20q74 0 129 -32t80 -89
l-105 -33q-11 24 -29 37t-37.5 18.5t-37.5 5.5q-32 0 -55.5 -12t-40 -32t-24.5 -45.5t-8 -52.5q0 -34 11 -60.5t30 -44.5t42.5 -27t46.5 -9q20 0 41 7.5t38.5 21.5t27.5 34l105 -32q-13 -30 -42 -58.5t-71.5 -47t-96.5 -18.5z" />
    <glyph glyph-name="ordfeminine" unicode="&#xaa;" horiz-adv-x="441" 
d="M163 342q-51 0 -85.5 32t-34.5 80q0 51 42 83t107 32q53 0 90 -16v22q0 37 -20.5 57.5t-61.5 20.5q-28 0 -55 -10t-57 -30l-26 53q70 46 146 46q74 0 116 -37.5t42 -109.5v-118q0 -14 5.5 -19.5t17.5 -6.5v-73q-11 -2 -19.5 -3t-17.5 -1q-25 0 -38.5 11.5t-16.5 30.5
l-1 21q-25 -32 -59.5 -48.5t-73.5 -16.5zM187 404q25 0 47.5 9t34.5 24q13 11 13 26v43q-17 7 -37 10.5t-38 3.5q-38 0 -61.5 -16t-23.5 -43q0 -24 18.5 -40.5t46.5 -16.5z" />
    <glyph glyph-name="guillemotleft" unicode="&#xab;" horiz-adv-x="621" 
d="M38 284l258 185v-91l-170 -119l170 -115v-90l-258 175v55zM303 284l259 185v-91l-171 -119l171 -115v-90l-259 175v55z" />
    <glyph glyph-name="logicalnot" unicode="&#xac;" horiz-adv-x="601" 
d="M533 387v-274h-94v175h-376v99h470z" />
    <glyph glyph-name="uni00AD" unicode="&#xad;" horiz-adv-x="592" 
d="M61 224v99h470v-99h-470z" />
    <glyph glyph-name="registered" unicode="&#xae;" horiz-adv-x="838" 
d="M418 -7q-81 0 -149 27t-118.5 76t-78 115t-27.5 144q0 77 27.5 143t78 114.5t118.5 75.5t149 27t149.5 -27t119 -75.5t79 -114.5t28.5 -143q0 -78 -28.5 -144t-79 -115t-119 -76t-149.5 -27zM418 40q91 0 164 40t115.5 111t42.5 163q0 66 -24 122.5t-67.5 99.5t-102 67
t-128.5 24q-69 0 -127.5 -24t-101.5 -66.5t-66.5 -99t-23.5 -122.5t23.5 -123.5t66.5 -100t101.5 -67t127.5 -24.5zM260 577h193q41 0 72 -21.5t48.5 -54.5t17.5 -69q0 -29 -11 -55.5t-31 -46.5t-47 -28l107 -169h-89l-98 155h-83v-155h-79v444zM448 356q30 0 47.5 21
t17.5 55q0 36 -20 56t-48 20h-106v-152h109z" />
    <glyph glyph-name="macron" unicode="&#xaf;" horiz-adv-x="411" 
d="M58 644v70h296v-70h-296z" />
    <glyph glyph-name="degree" unicode="&#xb0;" horiz-adv-x="278" 
d="M44 631q0 39 27.5 66t67.5 27q41 0 68 -27t27 -66q0 -43 -27 -70.5t-68 -27.5q-40 0 -67.5 28t-27.5 70zM111 657q-12 -13 -12 -29t12 -27q12 -12 28 -12q18 0 29 12q4 5 7.5 12.5t3.5 15.5t-3.5 15t-8.5 13q-4 6 -12 8.5t-16 2.5q-17 0 -28 -11z" />
    <glyph glyph-name="plusminus" unicode="&#xb1;" horiz-adv-x="469" 
d="M63 40v89h342v-89h-342zM406 417v-89h-122v-132h-99v132h-122v89h122v131h99v-131h122z" />
    <glyph glyph-name="uni00B2" unicode="&#xb2;" horiz-adv-x="406" 
d="M32 395q0 53 13 88t41 59.5t75 43.5q30 12 61.5 24t52.5 30t21 46t-24 46t-68 18q-31 0 -55 -8.5t-41.5 -21t-28.5 -23.5l-43 48q9 11 31.5 27.5t59.5 28.5t86 12q78 0 117.5 -35t39.5 -91q0 -32 -13 -55t-34 -37.5t-44.5 -24.5t-43.5 -15q-37 -12 -57.5 -28t-29 -33
t-8.5 -34h225v-65h-333z" />
    <glyph glyph-name="uni00B3" unicode="&#xb3;" horiz-adv-x="400" 
d="M193 389q-62 0 -106.5 21.5t-56.5 60.5l37 46q5 -13 21 -27.5t42 -24.5t60 -10q44 0 74.5 16t30.5 44q0 31 -37 46.5t-103 15.5h-24v61h23q60 0 93.5 14t33.5 42q0 29 -28.5 43.5t-63.5 14.5q-40 0 -69 -14.5t-45 -36.5l-43 51q14 20 39 33.5t56.5 20.5t63.5 7
q48 0 84.5 -14.5t57.5 -40.5t21 -59q0 -34 -23.5 -56.5t-65.5 -31.5q46 -7 73 -37t27 -69t-24.5 -65t-63.5 -38.5t-84 -12.5z" />
    <glyph glyph-name="acute" unicode="&#xb4;" horiz-adv-x="243" 
d="M119 598l-72 22l57 110h105z" />
    <glyph glyph-name="uni00B5" unicode="&#xb5;" horiz-adv-x="645" 
d="M77 523h110v-298q0 -70 25.5 -105.5t76.5 -35.5q30 0 59.5 13t54 38.5t39.5 61.5v326h110v-393q0 -18 7.5 -26.5t24.5 -9.5v-94q-18 -3 -30 -4t-21 -1q-33 0 -52.5 18.5t-21.5 44.5l-1 48q-14 -29 -41 -55.5t-62 -43.5t-72 -17q-28 0 -49 10t-34 25.5t-19 32.5l6 -270
h-110v735z" />
    <glyph glyph-name="paragraph" unicode="&#xb6;" horiz-adv-x="637" 
d="M35 461q0 118 74.5 183.5t207.5 65.5h275v-84h-70v-706h-94v296h-59v-296h-95v296q-72 1 -126 31t-83.5 85t-29.5 129zM127 463q0 -51 20.5 -86.5t54 -54.5t72.5 -22v326q-70 -1 -108.5 -45t-38.5 -118zM428 626h-59v-326h59v326z" />
    <glyph glyph-name="periodcentered" unicode="&#xb7;" horiz-adv-x="213" 
d="M61 243v137h91v-137h-91z" />
    <glyph glyph-name="cedilla" unicode="&#xb8;" horiz-adv-x="310" 
d="M149 -193q-27 0 -58 7t-60 22l28 59q18 -10 34.5 -15.5t36.5 -5.5q28 0 44 12t16 35t-16 41.5t-46 37.5l38 26q41 -26 66.5 -54.5t25.5 -70.5t-28.5 -68t-80.5 -26z" />
    <glyph glyph-name="uni00B9" unicode="&#xb9;" horiz-adv-x="289" 
d="M268 461v-66h-219v66h79v279q-7 -8 -23.5 -20.5t-36 -21t-35.5 -8.5v67q21 0 43 13.5t37 27.5t15 15h67v-352h73z" />
    <glyph glyph-name="ordmasculine" unicode="&#xba;" horiz-adv-x="446" 
d="M223 342q-57 0 -98 25.5t-63.5 68t-22.5 90.5q0 51 22.5 93t64 67.5t97.5 25.5q57 0 98 -25.5t63.5 -67.5t22.5 -93q0 -48 -22.5 -90.5t-63.5 -68t-98 -25.5zM124 526q0 -32 13.5 -57.5t36 -40t49.5 -14.5q28 0 50 15t35.5 40.5t13.5 57.5q0 33 -13.5 58t-35.5 39.5
t-50 14.5q-27 0 -49.5 -14.5t-36 -40.5t-13.5 -58z" />
    <glyph glyph-name="guillemotright" unicode="&#xbb;" horiz-adv-x="621" 
d="M583 229l-258 -175v90l171 115l-171 119v91l258 -185v-55zM318 229l-258 -175v90l170 115l-170 119v91l258 -185v-55z" />
    <glyph glyph-name="onequarter" unicode="&#xbc;" horiz-adv-x="853" 
d="M268 379v-66h-219v66h79v279q-7 -9 -23.5 -21t-36 -20.5t-35.5 -8.5v66q21 0 43 14t37 28t15 15h67v-352h73zM82 40l281 333l264 343l52 -45l-276 -329l-270 -348zM697 0v99h-222v62l244 253h48v-254h58v-61h-58v-99h-70zM542 160h157v165z" />
    <glyph glyph-name="onehalf" unicode="&#xbd;" horiz-adv-x="872" 
d="M504 0q0 53 12.5 88t40 59.5t72.5 43.5l60 24t50.5 29.5t20.5 45.5q0 29 -23 47t-66 18q-30 0 -53.5 -8.5t-41 -21t-27.5 -24.5l-42 49q8 11 30.5 27.5t58.5 28.5t83 12q76 0 115 -35t39 -92q0 -32 -13 -54.5t-33.5 -37.5t-42.5 -24t-42 -15q-36 -12 -56.5 -28t-28 -32.5
t-7.5 -34.5h224v-65h-330zM268 379v-66h-219v66h79v279q-7 -9 -23.5 -21t-36 -20.5t-35.5 -8.5v66q21 0 43 14t37 28t15 15h67v-352h73zM82 40l280 333l265 343l51 -45l-275 -329l-270 -348z" />
    <glyph glyph-name="threequarters" unicode="&#xbe;" horiz-adv-x="965" 
d="M193 306q-62 0 -106.5 22t-56.5 61l37 46q5 -14 21 -28.5t42 -24t60 -9.5q44 0 74.5 15.5t30.5 44.5q0 31 -37 46.5t-103 15.5h-24v61h23q60 0 93.5 14t33.5 42q0 29 -28.5 43.5t-63.5 14.5q-40 0 -69 -14.5t-45 -36.5l-43 51q14 20 39 33t56.5 20.5t63.5 7.5
q48 0 84.5 -14.5t57.5 -40.5t21 -59q0 -34 -23.5 -57t-65.5 -31q46 -7 73 -37t27 -69t-24.5 -65t-63.5 -39t-84 -13zM193 40l281 333l264 343l52 -45l-276 -329l-270 -348zM808 0v99h-222v62l244 253h48v-254h58v-61h-58v-99h-70zM653 160h157v165z" />
    <glyph glyph-name="questiondown" unicode="&#xbf;" horiz-adv-x="476" 
d="M345 285q0 -35 -7.5 -64t-25.5 -53t-50 -44q-17 -10 -39.5 -22.5t-44 -29.5t-35.5 -40t-14 -54q0 -32 15.5 -55t40.5 -34.5t53 -11.5q32 0 57.5 13t45 33.5t31.5 41.5l72 -49q-18 -41 -50 -70t-73 -44t-86 -15q-37 0 -73 11.5t-65.5 35.5t-47 60.5t-17.5 87.5
q0 35 8.5 60.5t24.5 45.5t37.5 35.5t45.5 29.5q26 16 50 31t39.5 38t15.5 63h92zM343 506v-126h-92v126h92z" />
    <glyph glyph-name="Agrave" unicode="&#xc0;" horiz-adv-x="675" 
d="M285 710h106l276 -710h-118l-75 193h-274l-74 -193h-119zM452 276l-114 311l-118 -311h232zM224 916h105l57 -110l-70 -22z" />
    <glyph glyph-name="Aacute" unicode="&#xc1;" horiz-adv-x="675" 
d="M285 710h106l276 -710h-118l-75 193h-274l-74 -193h-119zM452 276l-114 311l-118 -311h232zM375 784l-72 22l57 110h105z" />
    <glyph glyph-name="Acircumflex" unicode="&#xc2;" horiz-adv-x="675" 
d="M285 710h106l276 -710h-118l-75 193h-274l-74 -193h-119zM452 276l-114 311l-118 -311h232zM194 821l104 95h79l104 -95l-59 -28l-85 63l-85 -63z" />
    <glyph glyph-name="Atilde" unicode="&#xc3;" horiz-adv-x="675" 
d="M285 710h106l276 -710h-118l-75 193h-274l-74 -193h-119zM452 276l-114 311l-118 -311h232zM402 801q-30 0 -51.5 11t-39 21.5t-39.5 10.5t-32.5 -11t-13.5 -23t-3 -14h-62q0 8 5 26.5t17.5 39t33 35t51.5 14.5q30 0 50 -11t38.5 -22t42.5 -11q25 0 36 11.5t14.5 23.5
t3.5 14h63q0 -7 -5.5 -25t-18.5 -39t-35 -36t-55 -15z" />
    <glyph glyph-name="Adieresis" unicode="&#xc4;" horiz-adv-x="675" 
d="M285 710h106l276 -710h-118l-75 193h-274l-74 -193h-119zM452 276l-114 311l-118 -311h232zM204 802v110h92v-110h-92zM381 802v110h92v-110h-92z" />
    <glyph glyph-name="Aring" unicode="&#xc5;" horiz-adv-x="675" 
d="M285 710h106l276 -710h-118l-75 193h-274l-74 -193h-119zM452 276l-114 311l-118 -311h232zM239 846q0 41 28 65.5t71 24.5q45 0 72.5 -24.5t27.5 -65.5q0 -40 -27.5 -63.5t-72.5 -23.5q-43 0 -71 23.5t-28 63.5zM339 892q-19 0 -32.5 -12t-13.5 -33q0 -19 13 -32.5
t33 -13.5q18 0 32 13t14 32q0 22 -13.5 34t-32.5 12z" />
    <glyph glyph-name="AE" unicode="&#xc6;" horiz-adv-x="963" 
d="M423 710h496v-99h-354v-200h300v-99h-300v-213h363v-99h-475v193h-239l-118 -193h-121zM445 293v288l-182 -288h182z" />
    <glyph glyph-name="Ccedilla" unicode="&#xc7;" horiz-adv-x="684" 
d="M35 360q0 65 23 127.5t67.5 114t108.5 82t145 30.5q96 0 166 -43.5t104 -111.5l-88 -59q-20 43 -50.5 68t-66 35t-69.5 10q-56 0 -98 -22.5t-70.5 -59.5t-43 -83t-14.5 -92q0 -51 17 -98.5t47.5 -84t72.5 -57.5t92 -21q34 0 71 12t68.5 37.5t49.5 67.5l93 -53
q-22 -53 -68.5 -90t-104 -56t-113.5 -19q-75 0 -137 31.5t-107 84t-70 118t-25 132.5zM362 -193q-27 0 -58 7t-60 22l28 59q18 -10 34.5 -15.5t36.5 -5.5q28 0 44 12t16 35t-16 41.5t-46 37.5l38 26q41 -26 66.5 -54.5t25.5 -70.5t-28.5 -68t-80.5 -26z" />
    <glyph glyph-name="Egrave" unicode="&#xc8;" horiz-adv-x="603" 
d="M567 99v-99h-487v710h478v-99h-366v-202h317v-93h-317v-217h375zM216 916h105l57 -110l-70 -22z" />
    <glyph glyph-name="Eacute" unicode="&#xc9;" horiz-adv-x="603" 
d="M567 99v-99h-487v710h478v-99h-366v-202h317v-93h-317v-217h375zM368 784l-72 22l57 110h105z" />
    <glyph glyph-name="Ecircumflex" unicode="&#xca;" horiz-adv-x="603" 
d="M567 99v-99h-487v710h478v-99h-366v-202h317v-93h-317v-217h375zM187 821l104 95h79l104 -95l-59 -28l-85 63l-85 -63z" />
    <glyph glyph-name="Edieresis" unicode="&#xcb;" horiz-adv-x="603" 
d="M567 99v-99h-487v710h478v-99h-366v-202h317v-93h-317v-217h375zM196 802v110h92v-110h-92zM373 802v110h92v-110h-92z" />
    <glyph glyph-name="Igrave" unicode="&#xcc;" horiz-adv-x="272" 
d="M80 0v710h112v-710h-112zM22 916h105l57 -110l-70 -22z" />
    <glyph glyph-name="Iacute" unicode="&#xcd;" horiz-adv-x="272" 
d="M80 0v710h112v-710h-112zM174 784l-72 22l57 110h105z" />
    <glyph glyph-name="Icircumflex" unicode="&#xce;" horiz-adv-x="272" 
d="M80 0v710h112v-710h-112zM-7 821l104 95h79l104 -95l-59 -28l-85 63l-85 -63z" />
    <glyph glyph-name="Idieresis" unicode="&#xcf;" horiz-adv-x="272" 
d="M80 0v710h112v-710h-112zM2 802v110h92v-110h-92zM179 802v110h92v-110h-92z" />
    <glyph glyph-name="Eth" unicode="&#xd0;" horiz-adv-x="722" 
d="M33 315v84h316v-84h-316zM85 0v710h252q115 0 192 -47.5t115.5 -128t38.5 -178.5q0 -108 -42.5 -188t-120 -124t-183.5 -44h-252zM569 356q0 75 -27 132.5t-78.5 90t-126.5 32.5h-139v-512h139q76 0 127.5 34t78 92t26.5 131z" />
    <glyph glyph-name="Ntilde" unicode="&#xd1;" horiz-adv-x="767" 
d="M192 502v-502h-112v710h92l402 -513v512h113v-709h-98zM448 800q-30 0 -51.5 11t-39 21.5t-39.5 10.5t-32.5 -11t-13.5 -23t-3 -14h-62q0 8 5 26.5t17.5 39t33 35t51.5 14.5q30 0 50 -11t38.5 -22t42.5 -11q25 0 36 11.5t14.5 23.5t3.5 14h63q0 -7 -5.5 -25t-18.5 -39
t-35 -36t-55 -15z" />
    <glyph glyph-name="Ograve" unicode="&#xd2;" horiz-adv-x="752" 
d="M375 -5q-77 0 -139 30t-107 81.5t-69.5 116t-24.5 132.5q0 71 26 135.5t72 115t108.5 80t135.5 29.5q76 0 138.5 -31t107 -83t69 -116t24.5 -131q0 -71 -25.5 -135.5t-71.5 -115t-108.5 -79.5t-135.5 -29zM149 355q0 -50 16 -97t45.5 -83.5t71.5 -57.5t94 -21q54 0 96 22
t70.5 59.5t43.5 84t15 93.5q0 50 -15.5 96.5t-45.5 83t-71.5 57.5t-92.5 21q-54 0 -96 -22t-71 -59t-44.5 -83t-15.5 -94zM263 916h105l57 -110l-70 -22z" />
    <glyph glyph-name="Oacute" unicode="&#xd3;" horiz-adv-x="752" 
d="M375 -5q-77 0 -139 30t-107 81.5t-69.5 116t-24.5 132.5q0 71 26 135.5t72 115t108.5 80t135.5 29.5q76 0 138.5 -31t107 -83t69 -116t24.5 -131q0 -71 -25.5 -135.5t-71.5 -115t-108.5 -79.5t-135.5 -29zM149 355q0 -50 16 -97t45.5 -83.5t71.5 -57.5t94 -21q54 0 96 22
t70.5 59.5t43.5 84t15 93.5q0 50 -15.5 96.5t-45.5 83t-71.5 57.5t-92.5 21q-54 0 -96 -22t-71 -59t-44.5 -83t-15.5 -94zM415 784l-72 22l57 110h105z" />
    <glyph glyph-name="Ocircumflex" unicode="&#xd4;" horiz-adv-x="752" 
d="M375 -5q-77 0 -139 30t-107 81.5t-69.5 116t-24.5 132.5q0 71 26 135.5t72 115t108.5 80t135.5 29.5q76 0 138.5 -31t107 -83t69 -116t24.5 -131q0 -71 -25.5 -135.5t-71.5 -115t-108.5 -79.5t-135.5 -29zM149 355q0 -50 16 -97t45.5 -83.5t71.5 -57.5t94 -21q54 0 96 22
t70.5 59.5t43.5 84t15 93.5q0 50 -15.5 96.5t-45.5 83t-71.5 57.5t-92.5 21q-54 0 -96 -22t-71 -59t-44.5 -83t-15.5 -94zM234 821l104 95h79l104 -95l-59 -28l-85 63l-85 -63z" />
    <glyph glyph-name="Otilde" unicode="&#xd5;" horiz-adv-x="752" 
d="M375 -5q-77 0 -139 30t-107 81.5t-69.5 116t-24.5 132.5q0 71 26 135.5t72 115t108.5 80t135.5 29.5q76 0 138.5 -31t107 -83t69 -116t24.5 -131q0 -71 -25.5 -135.5t-71.5 -115t-108.5 -79.5t-135.5 -29zM149 355q0 -50 16 -97t45.5 -83.5t71.5 -57.5t94 -21q54 0 96 22
t70.5 59.5t43.5 84t15 93.5q0 50 -15.5 96.5t-45.5 83t-71.5 57.5t-92.5 21q-54 0 -96 -22t-71 -59t-44.5 -83t-15.5 -94zM441 801q-30 0 -51.5 11t-39 21.5t-39.5 10.5t-32.5 -11t-13.5 -23t-3 -14h-62q0 8 5 26.5t17.5 39t33 35t51.5 14.5q30 0 50 -11t38.5 -22t42.5 -11
q25 0 36 11.5t14.5 23.5t3.5 14h63q0 -7 -5.5 -25t-18.5 -39t-35 -36t-55 -15z" />
    <glyph glyph-name="Odieresis" unicode="&#xd6;" horiz-adv-x="752" 
d="M375 -5q-77 0 -139 30t-107 81.5t-69.5 116t-24.5 132.5q0 71 26 135.5t72 115t108.5 80t135.5 29.5q76 0 138.5 -31t107 -83t69 -116t24.5 -131q0 -71 -25.5 -135.5t-71.5 -115t-108.5 -79.5t-135.5 -29zM149 355q0 -50 16 -97t45.5 -83.5t71.5 -57.5t94 -21q54 0 96 22
t70.5 59.5t43.5 84t15 93.5q0 50 -15.5 96.5t-45.5 83t-71.5 57.5t-92.5 21q-54 0 -96 -22t-71 -59t-44.5 -83t-15.5 -94zM243 802v110h92v-110h-92zM420 802v110h92v-110h-92z" />
    <glyph glyph-name="multiply" unicode="&#xd7;" horiz-adv-x="470" 
d="M414 164l-69 -68l-110 109l-110 -109l-68 69l108 109l-105 107l69 68l106 -106l107 107l68 -69l-106 -107z" />
    <glyph glyph-name="Oslash" unicode="&#xd8;" horiz-adv-x="751" 
d="M375 -5q-77 0 -139 30t-107 81.5t-69.5 116t-24.5 132.5q0 71 26 135.5t72 115t108.5 80t135.5 29.5q76 0 138.5 -31t107 -83t69 -116t24.5 -131q0 -71 -25.5 -135.5t-71.5 -115t-108.5 -79.5t-135.5 -29zM149 355q0 -50 16 -97t45.5 -83.5t71.5 -57.5t94 -21q54 0 96 22
t70.5 59.5t43.5 84t15 93.5q0 50 -15.5 96.5t-45.5 83t-71.5 57.5t-92.5 21q-54 0 -96 -22t-71 -59t-44.5 -83t-15.5 -94zM680 710l-487 -710h-122l487 710h122z" />
    <glyph glyph-name="Ugrave" unicode="&#xd9;" horiz-adv-x="752" 
d="M376 -5q-85 0 -143.5 29t-94 79t-52 114t-16.5 133v360h112v-360q0 -49 10 -94.5t32 -81.5t59.5 -57t92.5 -21q56 0 93.5 21.5t59 58t31.5 81.5t10 93v360h113v-360q0 -73 -17.5 -137.5t-54 -113t-94.5 -76.5t-141 -28zM262 916h105l57 -110l-70 -22z" />
    <glyph glyph-name="Uacute" unicode="&#xda;" horiz-adv-x="752" 
d="M376 -5q-85 0 -143.5 29t-94 79t-52 114t-16.5 133v360h112v-360q0 -49 10 -94.5t32 -81.5t59.5 -57t92.5 -21q56 0 93.5 21.5t59 58t31.5 81.5t10 93v360h113v-360q0 -73 -17.5 -137.5t-54 -113t-94.5 -76.5t-141 -28zM414 784l-72 22l57 110h105z" />
    <glyph glyph-name="Ucircumflex" unicode="&#xdb;" horiz-adv-x="752" 
d="M376 -5q-85 0 -143.5 29t-94 79t-52 114t-16.5 133v360h112v-360q0 -49 10 -94.5t32 -81.5t59.5 -57t92.5 -21q56 0 93.5 21.5t59 58t31.5 81.5t10 93v360h113v-360q0 -73 -17.5 -137.5t-54 -113t-94.5 -76.5t-141 -28zM233 821l104 95h79l104 -95l-59 -28l-85 63
l-85 -63z" />
    <glyph glyph-name="Udieresis" unicode="&#xdc;" horiz-adv-x="752" 
d="M376 -5q-85 0 -143.5 29t-94 79t-52 114t-16.5 133v360h112v-360q0 -49 10 -94.5t32 -81.5t59.5 -57t92.5 -21q56 0 93.5 21.5t59 58t31.5 81.5t10 93v360h113v-360q0 -73 -17.5 -137.5t-54 -113t-94.5 -76.5t-141 -28zM242 802v110h92v-110h-92zM419 802v110h92v-110
h-92z" />
    <glyph glyph-name="Yacute" unicode="&#xdd;" horiz-adv-x="657" 
d="M132 710l196 -353l198 353h123l-265 -456v-254h-112v256l-263 454h123zM366 784l-72 22l57 110h105z" />
    <glyph glyph-name="Thorn" unicode="&#xde;" horiz-adv-x="604" 
d="M361 577q48 0 88 -20t69.5 -53t46 -74t16.5 -84q0 -60 -27 -113t-75 -86t-113 -33h-174v-114h-112v710h112v-133h169zM361 214q33 0 57 18.5t37 48.5t13 65q0 37 -15.5 67t-41 47.5t-56.5 17.5h-163v-264h169z" />
    <glyph glyph-name="germandbls" unicode="&#xdf;" horiz-adv-x="555" 
d="M244 95q72 2 118.5 31t46.5 94q0 39 -17.5 67t-47.5 43t-68 15h-20v100h19q28 0 49 11t32.5 31t11.5 47q0 31 -14 50t-35.5 27.5t-44.5 8.5q-37 0 -60 -17.5t-33 -44.5t-10 -57v-501h-105v520q0 57 28 100.5t76.5 68.5t109.5 25q55 0 98.5 -20t68.5 -56.5t25 -86.5
q0 -34 -12.5 -65.5t-33.5 -53t-47 -30.5q67 -16 106 -69t39 -124q0 -54 -22 -94t-60 -66t-89 -39.5t-109 -15.5v101z" />
    <glyph glyph-name="agrave" unicode="&#xe0;" horiz-adv-x="564" 
d="M28 153q0 50 28.5 87.5t78.5 58t116 20.5q35 0 71.5 -5t64.5 -16v33q0 55 -33 86t-95 31q-44 0 -83 -15.5t-83 -43.5l-37 74q52 35 104.5 52t110.5 17q105 0 165.5 -55.5t60.5 -157.5v-195q0 -19 6.5 -27t22.5 -9v-88q-15 -3 -27 -4t-20 -1q-35 0 -53 17t-21 40l-3 30
q-34 -44 -87 -68t-107 -24q-52 0 -93 21.5t-64 58.5t-23 83zM361 121q12 13 19 26t7 23v60q-28 11 -59 16.5t-61 5.5q-60 0 -97.5 -24t-37.5 -66q0 -23 12.5 -44t36 -34t58.5 -13q36 0 69 14t53 36zM155 731h105l57 -110l-70 -22z" />
    <glyph glyph-name="aacute" unicode="&#xe1;" horiz-adv-x="564" 
d="M28 153q0 50 28.5 87.5t78.5 58t116 20.5q35 0 71.5 -5t64.5 -16v33q0 55 -33 86t-95 31q-44 0 -83 -15.5t-83 -43.5l-37 74q52 35 104.5 52t110.5 17q105 0 165.5 -55.5t60.5 -157.5v-195q0 -19 6.5 -27t22.5 -9v-88q-15 -3 -27 -4t-20 -1q-35 0 -53 17t-21 40l-3 30
q-34 -44 -87 -68t-107 -24q-52 0 -93 21.5t-64 58.5t-23 83zM361 121q12 13 19 26t7 23v60q-28 11 -59 16.5t-61 5.5q-60 0 -97.5 -24t-37.5 -66q0 -23 12.5 -44t36 -34t58.5 -13q36 0 69 14t53 36zM307 598l-72 22l57 110h105z" />
    <glyph glyph-name="acircumflex" unicode="&#xe2;" horiz-adv-x="564" 
d="M28 153q0 50 28.5 87.5t78.5 58t116 20.5q35 0 71.5 -5t64.5 -16v33q0 55 -33 86t-95 31q-44 0 -83 -15.5t-83 -43.5l-37 74q52 35 104.5 52t110.5 17q105 0 165.5 -55.5t60.5 -157.5v-195q0 -19 6.5 -27t22.5 -9v-88q-15 -3 -27 -4t-20 -1q-35 0 -53 17t-21 40l-3 30
q-34 -44 -87 -68t-107 -24q-52 0 -93 21.5t-64 58.5t-23 83zM361 121q12 13 19 26t7 23v60q-28 11 -59 16.5t-61 5.5q-60 0 -97.5 -24t-37.5 -66q0 -23 12.5 -44t36 -34t58.5 -13q36 0 69 14t53 36zM126 635l104 95h79l104 -95l-59 -28l-85 63l-85 -63z" />
    <glyph glyph-name="atilde" unicode="&#xe3;" horiz-adv-x="564" 
d="M28 153q0 50 28.5 87.5t78.5 58t116 20.5q35 0 71.5 -5t64.5 -16v33q0 55 -33 86t-95 31q-44 0 -83 -15.5t-83 -43.5l-37 74q52 35 104.5 52t110.5 17q105 0 165.5 -55.5t60.5 -157.5v-195q0 -19 6.5 -27t22.5 -9v-88q-15 -3 -27 -4t-20 -1q-35 0 -53 17t-21 40l-3 30
q-34 -44 -87 -68t-107 -24q-52 0 -93 21.5t-64 58.5t-23 83zM361 121q12 13 19 26t7 23v60q-28 11 -59 16.5t-61 5.5q-60 0 -97.5 -24t-37.5 -66q0 -23 12.5 -44t36 -34t58.5 -13q36 0 69 14t53 36zM333 615q-30 0 -51.5 11t-39 21.5t-39.5 10.5t-32.5 -11t-13.5 -23t-3 -14
h-62q0 8 5 26.5t17.5 39t33 35t51.5 14.5q30 0 50 -11t38.5 -22t42.5 -11q25 0 36 11.5t14.5 23.5t3.5 14h63q0 -7 -5.5 -25t-18.5 -39t-35 -36t-55 -15z" />
    <glyph glyph-name="adieresis" unicode="&#xe4;" horiz-adv-x="564" 
d="M28 153q0 50 28.5 87.5t78.5 58t116 20.5q35 0 71.5 -5t64.5 -16v33q0 55 -33 86t-95 31q-44 0 -83 -15.5t-83 -43.5l-37 74q52 35 104.5 52t110.5 17q105 0 165.5 -55.5t60.5 -157.5v-195q0 -19 6.5 -27t22.5 -9v-88q-15 -3 -27 -4t-20 -1q-35 0 -53 17t-21 40l-3 30
q-34 -44 -87 -68t-107 -24q-52 0 -93 21.5t-64 58.5t-23 83zM361 121q12 13 19 26t7 23v60q-28 11 -59 16.5t-61 5.5q-60 0 -97.5 -24t-37.5 -66q0 -23 12.5 -44t36 -34t58.5 -13q36 0 69 14t53 36zM135 616v110h92v-110h-92zM312 616v110h92v-110h-92z" />
    <glyph glyph-name="aring" unicode="&#xe5;" horiz-adv-x="564" 
d="M28 153q0 50 28.5 87.5t78.5 58t116 20.5q35 0 71.5 -5t64.5 -16v33q0 55 -33 86t-95 31q-44 0 -83 -15.5t-83 -43.5l-37 74q52 35 104.5 52t110.5 17q105 0 165.5 -55.5t60.5 -157.5v-195q0 -19 6.5 -27t22.5 -9v-88q-15 -3 -27 -4t-20 -1q-35 0 -53 17t-21 40l-3 30
q-34 -44 -87 -68t-107 -24q-52 0 -93 21.5t-64 58.5t-23 83zM361 121q12 13 19 26t7 23v60q-28 11 -59 16.5t-61 5.5q-60 0 -97.5 -24t-37.5 -66q0 -23 12.5 -44t36 -34t58.5 -13q36 0 69 14t53 36zM170 660q0 41 28 65.5t71 24.5q45 0 72.5 -24.5t27.5 -65.5
q0 -40 -27.5 -63.5t-72.5 -23.5q-43 0 -71 23.5t-28 63.5zM270 706q-19 0 -32.5 -12t-13.5 -33q0 -19 13 -32.5t33 -13.5q18 0 32 13t14 32q0 22 -13.5 34t-32.5 12z" />
    <glyph glyph-name="ae" unicode="&#xe6;" horiz-adv-x="935" 
d="M204 -10q-50 0 -90 21.5t-63 59t-23 83.5q0 49 28 86t78 58t114 21q34 0 66 -5t58 -15q2 14 4.5 29t6.5 27q-5 47 -37 73t-88 26q-41 0 -81.5 -15t-83.5 -45l-35 70q103 68 210 68q63 0 109 -22.5t73 -62.5q33 38 82 61.5t109 23.5q82 0 142.5 -37t94 -98.5t33.5 -135.5
q0 -8 -1 -18.5t-2 -17.5h-427q4 -46 27 -80.5t59.5 -54t79.5 -19.5q44 0 83.5 22t53.5 58l94 -27q-17 -38 -51.5 -68.5t-81 -48t-102.5 -17.5q-72 0 -129 30.5t-92 80.5q-23 -40 -60 -64t-78.5 -35.5t-79.5 -11.5zM234 71q41 0 76.5 15t55.5 40q19 17 21 35q-7 16 -10.5 38
t-4.5 39q-24 8 -52 13t-54 5q-59 0 -97 -26t-38 -67q0 -25 13.5 -46.5t37 -33.5t52.5 -12zM801 295q-4 46 -25.5 81.5t-56.5 55t-80 19.5q-43 0 -78.5 -20t-57 -55t-24.5 -81h322z" />
    <glyph glyph-name="ccedilla" unicode="&#xe7;" horiz-adv-x="559" 
d="M303 -10q-61 0 -110.5 21.5t-85.5 59.5t-55.5 87t-19.5 104q0 74 33.5 135t94 98t143.5 37q80 0 139.5 -35.5t87.5 -94.5l-107 -34q-18 33 -50.5 51.5t-71.5 18.5q-44 0 -79.5 -22.5t-56 -62t-20.5 -91.5q0 -50 21 -90.5t56.5 -64t79.5 -23.5q27 0 52.5 9.5t44.5 26
t27 36.5l108 -32q-17 -39 -50.5 -69t-79 -47.5t-101.5 -17.5zM291 -193q-27 0 -58 7t-60 22l28 59q18 -10 34.5 -15.5t36.5 -5.5q28 0 44 12t16 35t-16 41.5t-46 37.5l38 26q41 -26 66.5 -54.5t25.5 -70.5t-28.5 -68t-80.5 -26z" />
    <glyph glyph-name="egrave" unicode="&#xe8;" horiz-adv-x="595" 
d="M303 -10q-61 0 -110.5 21.5t-85.5 59t-55.5 86t-19.5 103.5q0 74 34 135.5t95 99t143 37.5t141.5 -37.5t92.5 -98.5t33 -131q0 -12 -1 -22.5t-2 -17.5h-419q3 -46 25.5 -80.5t57.5 -54t75 -19.5q44 0 83.5 22t53.5 58l94 -27q-17 -38 -51.5 -68.5t-81.5 -48t-102 -17.5z
M146 298h316q-3 45 -25.5 79.5t-57 54t-76.5 19.5q-41 0 -75.5 -19.5t-56.5 -54t-25 -79.5zM186 731h105l57 -110l-70 -22z" />
    <glyph glyph-name="eacute" unicode="&#xe9;" horiz-adv-x="595" 
d="M303 -10q-61 0 -110.5 21.5t-85.5 59t-55.5 86t-19.5 103.5q0 74 34 135.5t95 99t143 37.5t141.5 -37.5t92.5 -98.5t33 -131q0 -12 -1 -22.5t-2 -17.5h-419q3 -46 25.5 -80.5t57.5 -54t75 -19.5q44 0 83.5 22t53.5 58l94 -27q-17 -38 -51.5 -68.5t-81.5 -48t-102 -17.5z
M146 298h316q-3 45 -25.5 79.5t-57 54t-76.5 19.5q-41 0 -75.5 -19.5t-56.5 -54t-25 -79.5zM338 598l-72 22l57 110h105z" />
    <glyph glyph-name="ecircumflex" unicode="&#xea;" horiz-adv-x="595" 
d="M303 -10q-61 0 -110.5 21.5t-85.5 59t-55.5 86t-19.5 103.5q0 74 34 135.5t95 99t143 37.5t141.5 -37.5t92.5 -98.5t33 -131q0 -12 -1 -22.5t-2 -17.5h-419q3 -46 25.5 -80.5t57.5 -54t75 -19.5q44 0 83.5 22t53.5 58l94 -27q-17 -38 -51.5 -68.5t-81.5 -48t-102 -17.5z
M146 298h316q-3 45 -25.5 79.5t-57 54t-76.5 19.5q-41 0 -75.5 -19.5t-56.5 -54t-25 -79.5zM157 635l104 95h79l104 -95l-59 -28l-85 63l-85 -63z" />
    <glyph glyph-name="edieresis" unicode="&#xeb;" horiz-adv-x="595" 
d="M303 -10q-61 0 -110.5 21.5t-85.5 59t-55.5 86t-19.5 103.5q0 74 34 135.5t95 99t143 37.5t141.5 -37.5t92.5 -98.5t33 -131q0 -12 -1 -22.5t-2 -17.5h-419q3 -46 25.5 -80.5t57.5 -54t75 -19.5q44 0 83.5 22t53.5 58l94 -27q-17 -38 -51.5 -68.5t-81.5 -48t-102 -17.5z
M146 298h316q-3 45 -25.5 79.5t-57 54t-76.5 19.5q-41 0 -75.5 -19.5t-56.5 -54t-25 -79.5zM166 616v110h92v-110h-92zM343 616v110h92v-110h-92z" />
    <glyph glyph-name="igrave" unicode="&#xec;" horiz-adv-x="242" 
d="M66 0v523h110v-523h-110zM7 731h105l57 -110l-70 -22z" />
    <glyph glyph-name="iacute" unicode="&#xed;" horiz-adv-x="242" 
d="M66 0v523h110v-523h-110zM159 598l-72 22l57 110h105z" />
    <glyph glyph-name="icircumflex" unicode="&#xee;" horiz-adv-x="242" 
d="M66 0v523h110v-523h-110zM-22 635l104 95h79l104 -95l-59 -28l-85 63l-85 -63z" />
    <glyph glyph-name="idieresis" unicode="&#xef;" horiz-adv-x="242" 
d="M66 0v523h110v-523h-110zM-13 616v110h92v-110h-92zM164 616v110h92v-110h-92z" />
    <glyph glyph-name="eth" unicode="&#xf0;" horiz-adv-x="609" 
d="M573 290q0 -70 -21 -125.5t-58.5 -94.5t-87 -59.5t-106.5 -20.5q-73 0 -133.5 32t-96 87.5t-35.5 123.5q0 49 19 92.5t52 76.5t77 52t95 19q57 0 106 -25.5t76 -67.5q-9 48 -28.5 93t-54 88.5t-87 86t-128.5 82.5h147q72 -40 122 -93t81.5 -112.5t46 -119.5t14.5 -115z
M148 233q0 -41 20.5 -75t55 -54t78.5 -20q45 0 80.5 21t56.5 56.5t21 76.5q0 42 -20.5 74.5t-55.5 52t-79 19.5t-79.5 -20t-56.5 -54t-21 -77zM515 668l-108 -61l-34 -12l-117 -68l-32 45l114 66l33 9l112 66z" />
    <glyph glyph-name="ntilde" unicode="&#xf1;" horiz-adv-x="597" 
d="M535 0h-110v293q0 73 -23.5 107t-69.5 34q-32 0 -63.5 -16t-56.5 -43.5t-36 -63.5v-311h-110v523h100v-105q20 35 52.5 60.5t73.5 39.5t87 14q47 0 77.5 -17t48 -46.5t24 -68t6.5 -81.5v-319zM373 615q-30 0 -51.5 11t-39 21.5t-39.5 10.5t-32.5 -11t-13.5 -23t-3 -14
h-62q0 8 5 26.5t17.5 39t33 35t51.5 14.5q30 0 50 -11t38.5 -22t42.5 -11q25 0 36 11.5t14.5 23.5t3.5 14h63q0 -7 -5.5 -25t-18.5 -39t-35 -36t-55 -15z" />
    <glyph glyph-name="ograve" unicode="&#xf2;" horiz-adv-x="602" 
d="M301 -10q-62 0 -111 21.5t-84.5 59.5t-54.5 86.5t-19 103.5t19 104t54.5 86.5t85 59t110.5 21.5t110.5 -21.5t85 -59t54.5 -86.5t19 -104t-19 -103.5t-54.5 -86.5t-85 -59.5t-110.5 -21.5zM145 260q0 -50 21 -90t56 -63t79 -23q43 0 78.5 23.5t56.5 64t21 89.5
q0 50 -21 90t-56.5 63.5t-78.5 23.5q-44 0 -79 -24t-56 -63.5t-21 -90.5zM186 731h105l57 -110l-70 -22z" />
    <glyph glyph-name="oacute" unicode="&#xf3;" horiz-adv-x="602" 
d="M301 -10q-62 0 -111 21.5t-84.5 59.5t-54.5 86.5t-19 103.5t19 104t54.5 86.5t85 59t110.5 21.5t110.5 -21.5t85 -59t54.5 -86.5t19 -104t-19 -103.5t-54.5 -86.5t-85 -59.5t-110.5 -21.5zM145 260q0 -50 21 -90t56 -63t79 -23q43 0 78.5 23.5t56.5 64t21 89.5
q0 50 -21 90t-56.5 63.5t-78.5 23.5q-44 0 -79 -24t-56 -63.5t-21 -90.5zM338 598l-72 22l57 110h105z" />
    <glyph glyph-name="ocircumflex" unicode="&#xf4;" horiz-adv-x="602" 
d="M301 -10q-62 0 -111 21.5t-84.5 59.5t-54.5 86.5t-19 103.5t19 104t54.5 86.5t85 59t110.5 21.5t110.5 -21.5t85 -59t54.5 -86.5t19 -104t-19 -103.5t-54.5 -86.5t-85 -59.5t-110.5 -21.5zM145 260q0 -50 21 -90t56 -63t79 -23q43 0 78.5 23.5t56.5 64t21 89.5
q0 50 -21 90t-56.5 63.5t-78.5 23.5q-44 0 -79 -24t-56 -63.5t-21 -90.5zM157 635l104 95h79l104 -95l-59 -28l-85 63l-85 -63z" />
    <glyph glyph-name="otilde" unicode="&#xf5;" horiz-adv-x="602" 
d="M301 -10q-62 0 -111 21.5t-84.5 59.5t-54.5 86.5t-19 103.5t19 104t54.5 86.5t85 59t110.5 21.5t110.5 -21.5t85 -59t54.5 -86.5t19 -104t-19 -103.5t-54.5 -86.5t-85 -59.5t-110.5 -21.5zM145 260q0 -50 21 -90t56 -63t79 -23q43 0 78.5 23.5t56.5 64t21 89.5
q0 50 -21 90t-56.5 63.5t-78.5 23.5q-44 0 -79 -24t-56 -63.5t-21 -90.5zM365 615q-30 0 -51.5 11t-39 21.5t-39.5 10.5t-32.5 -11t-13.5 -23t-3 -14h-62q0 8 5 26.5t17.5 39t33 35t51.5 14.5q30 0 50 -11t38.5 -22t42.5 -11q25 0 36 11.5t14.5 23.5t3.5 14h63
q0 -7 -5.5 -25t-18.5 -39t-35 -36t-55 -15z" />
    <glyph glyph-name="odieresis" unicode="&#xf6;" horiz-adv-x="602" 
d="M301 -10q-62 0 -111 21.5t-84.5 59.5t-54.5 86.5t-19 103.5t19 104t54.5 86.5t85 59t110.5 21.5t110.5 -21.5t85 -59t54.5 -86.5t19 -104t-19 -103.5t-54.5 -86.5t-85 -59.5t-110.5 -21.5zM145 260q0 -50 21 -90t56 -63t79 -23q43 0 78.5 23.5t56.5 64t21 89.5
q0 50 -21 90t-56.5 63.5t-78.5 23.5q-44 0 -79 -24t-56 -63.5t-21 -90.5zM166 616v110h92v-110h-92zM343 616v110h92v-110h-92z" />
    <glyph glyph-name="divide" unicode="&#xf7;" horiz-adv-x="523" 
d="M215 411v115h93v-115h-93zM215 58v114h93v-114h-93zM60 248v88h403v-88h-403z" />
    <glyph glyph-name="oslash" unicode="&#xf8;" horiz-adv-x="602" 
d="M301 -10q-62 0 -111 21.5t-84.5 59.5t-54.5 87t-19 103t19 103.5t54.5 87t85 59t110.5 21.5t110.5 -21.5t85 -59t54.5 -87t19 -103.5t-19 -103t-54.5 -87t-85 -59.5t-110.5 -21.5zM301 84q43 0 78.5 23.5t56.5 64t21 89.5q0 50 -21 90t-56.5 63.5t-78.5 23.5
q-44 0 -79 -23.5t-56 -63.5t-21 -91q0 -50 21 -90t56 -63t79 -23zM54 -3l90 111l53 -35l-63 -76h-80zM206 82l-48 31l239 334l55 -26zM466 428l-60 27l57 71h82z" />
    <glyph glyph-name="ugrave" unicode="&#xf9;" horiz-adv-x="609" 
d="M61 203v320h110v-298q0 -70 25.5 -105.5t74.5 -35.5q31 0 60.5 13t54 38.5t39.5 61.5v326h110v-399q0 -19 7 -27t23 -9v-88q-17 -3 -28 -4t-21 -1q-30 0 -50 16.5t-23 42.5l-2 52q-35 -57 -91 -86.5t-123 -29.5q-82 0 -124 54t-42 159zM183 731h105l57 -110l-70 -22z" />
    <glyph glyph-name="uacute" unicode="&#xfa;" horiz-adv-x="609" 
d="M61 203v320h110v-298q0 -70 25.5 -105.5t74.5 -35.5q31 0 60.5 13t54 38.5t39.5 61.5v326h110v-399q0 -19 7 -27t23 -9v-88q-17 -3 -28 -4t-21 -1q-30 0 -50 16.5t-23 42.5l-2 52q-35 -57 -91 -86.5t-123 -29.5q-82 0 -124 54t-42 159zM335 598l-72 22l57 110h105z" />
    <glyph glyph-name="ucircumflex" unicode="&#xfb;" horiz-adv-x="609" 
d="M61 203v320h110v-298q0 -70 25.5 -105.5t74.5 -35.5q31 0 60.5 13t54 38.5t39.5 61.5v326h110v-399q0 -19 7 -27t23 -9v-88q-17 -3 -28 -4t-21 -1q-30 0 -50 16.5t-23 42.5l-2 52q-35 -57 -91 -86.5t-123 -29.5q-82 0 -124 54t-42 159zM154 635l104 95h79l104 -95
l-59 -28l-85 63l-85 -63z" />
    <glyph glyph-name="udieresis" unicode="&#xfc;" horiz-adv-x="609" 
d="M61 203v320h110v-298q0 -70 25.5 -105.5t74.5 -35.5q31 0 60.5 13t54 38.5t39.5 61.5v326h110v-399q0 -19 7 -27t23 -9v-88q-17 -3 -28 -4t-21 -1q-30 0 -50 16.5t-23 42.5l-2 52q-35 -57 -91 -86.5t-123 -29.5q-82 0 -124 54t-42 159zM163 616v110h92v-110h-92zM340 616
v110h92v-110h-92z" />
    <glyph glyph-name="yacute" unicode="&#xfd;" horiz-adv-x="547" 
d="M84 -123q15 -2 29.5 -4.5t23.5 -2.5q17 0 29.5 10.5t25.5 38.5t32 81l-215 523h115l160 -411l142 411h106l-237 -644q-11 -29 -32 -53.5t-52 -38.5t-73 -14q-12 0 -25 2t-29 6v96zM321 598l-72 22l57 110h105z" />
    <glyph glyph-name="thorn" unicode="&#xfe;" horiz-adv-x="602" 
d="M571 257q-1 -55 -21.5 -105t-56 -89t-82.5 -61.5t-101 -22.5q-48 0 -82 20.5t-49 44.5v-257h-113v923h113v-245q19 27 52 49t88 22q58 0 104.5 -24.5t79.5 -65t50.5 -90t17.5 -99.5zM458 258q0 48 -18 88.5t-50.5 65.5t-77.5 25q-31 0 -56 -13t-44.5 -35t-32.5 -49v-166
q0 -17 12 -34t31 -31t41.5 -22t43.5 -8q33 0 60.5 14t48 39t31.5 58t11 68z" />
    <glyph glyph-name="ydieresis" unicode="&#xff;" horiz-adv-x="547" 
d="M84 -123q15 -2 29.5 -4.5t23.5 -2.5q17 0 29.5 10.5t25.5 38.5t32 81l-215 523h115l160 -411l142 411h106l-237 -644q-11 -29 -32 -53.5t-52 -38.5t-73 -14q-12 0 -25 2t-29 6v96zM149 616v110h92v-110h-92zM326 616v110h92v-110h-92z" />
    <glyph glyph-name="Amacron" unicode="&#x100;" horiz-adv-x="675" 
d="M285 710h106l276 -710h-118l-75 193h-274l-74 -193h-119zM452 276l-114 311l-118 -311h232zM191 830v70h296v-70h-296z" />
    <glyph glyph-name="amacron" unicode="&#x101;" horiz-adv-x="564" 
d="M28 153q0 50 28.5 87.5t78.5 58t116 20.5q35 0 71.5 -5t64.5 -16v33q0 55 -33 86t-95 31q-44 0 -83 -15.5t-83 -43.5l-37 74q52 35 104.5 52t110.5 17q105 0 165.5 -55.5t60.5 -157.5v-195q0 -19 6.5 -27t22.5 -9v-88q-15 -3 -27 -4t-20 -1q-35 0 -53 17t-21 40l-3 30
q-34 -44 -87 -68t-107 -24q-52 0 -93 21.5t-64 58.5t-23 83zM361 121q12 13 19 26t7 23v60q-28 11 -59 16.5t-61 5.5q-60 0 -97.5 -24t-37.5 -66q0 -23 12.5 -44t36 -34t58.5 -13q36 0 69 14t53 36zM122 644v70h296v-70h-296z" />
    <glyph glyph-name="Abreve" unicode="&#x102;" horiz-adv-x="675" 
d="M285 710h106l276 -710h-118l-75 193h-274l-74 -193h-119zM452 276l-114 311l-118 -311h232zM338 845q22 0 38.5 20.5t19.5 50.5h61q0 -52 -34 -87t-85 -35t-85 35t-34 87h61q0 -28 17.5 -49.5t40.5 -21.5z" />
    <glyph glyph-name="abreve" unicode="&#x103;" horiz-adv-x="564" 
d="M28 153q0 50 28.5 87.5t78.5 58t116 20.5q35 0 71.5 -5t64.5 -16v33q0 55 -33 86t-95 31q-44 0 -83 -15.5t-83 -43.5l-37 74q52 35 104.5 52t110.5 17q105 0 165.5 -55.5t60.5 -157.5v-195q0 -19 6.5 -27t22.5 -9v-88q-15 -3 -27 -4t-20 -1q-35 0 -53 17t-21 40l-3 30
q-34 -44 -87 -68t-107 -24q-52 0 -93 21.5t-64 58.5t-23 83zM361 121q12 13 19 26t7 23v60q-28 11 -59 16.5t-61 5.5q-60 0 -97.5 -24t-37.5 -66q0 -23 12.5 -44t36 -34t58.5 -13q36 0 69 14t53 36zM269 659q22 0 38.5 20.5t19.5 50.5h61q0 -52 -34 -87t-85 -35t-85 35
t-34 87h61q0 -28 17.5 -49.5t40.5 -21.5z" />
    <glyph glyph-name="Aogonek" unicode="&#x104;" horiz-adv-x="675" 
d="M285 710h106l276 -710h-118l-75 193h-274l-74 -193h-119zM452 276l-114 311l-118 -311h232zM519 -109q0 34 24 66t74 63h32l19 -20q-40 -28 -58.5 -50.5t-18.5 -40.5q0 -19 20 -27.5t56 -10.5l-23 -65q-50 4 -77 17.5t-37.5 31.5t-10.5 36z" />
    <glyph glyph-name="aogonek" unicode="&#x105;" horiz-adv-x="564" 
d="M28 153q0 50 28.5 87.5t78.5 58t116 20.5q35 0 71.5 -5t64.5 -16v33q0 55 -33 86t-95 31q-44 0 -83 -15.5t-83 -43.5l-37 74q52 35 104.5 52t110.5 17q105 0 165.5 -55.5t60.5 -157.5v-195q0 -19 6.5 -27t22.5 -9v-88q-15 -3 -27 -4t-20 -1q-35 0 -53 17t-21 40l-3 30
q-34 -44 -87 -68t-107 -24q-52 0 -93 21.5t-64 58.5t-23 83zM361 121q12 13 19 26t7 23v60q-28 11 -59 16.5t-61 5.5q-60 0 -97.5 -24t-37.5 -66q0 -23 12.5 -44t36 -34t58.5 -13q36 0 69 14t53 36zM378 -109q0 34 24 66t74 63h32l19 -20q-40 -28 -58.5 -50.5t-18.5 -40.5
q0 -19 20 -27.5t56 -10.5l-23 -65q-50 4 -77 17.5t-37.5 31.5t-10.5 36z" />
    <glyph glyph-name="Cacute" unicode="&#x106;" horiz-adv-x="684" 
d="M35 360q0 65 23 127.5t67.5 114t108.5 82t145 30.5q96 0 166 -43.5t104 -111.5l-88 -59q-20 43 -50.5 68t-66 35t-69.5 10q-56 0 -98 -22.5t-70.5 -59.5t-43 -83t-14.5 -92q0 -51 17 -98.5t47.5 -84t72.5 -57.5t92 -21q34 0 71 12t68.5 37.5t49.5 67.5l93 -53
q-22 -53 -68.5 -90t-104 -56t-113.5 -19q-75 0 -137 31.5t-107 84t-70 118t-25 132.5zM415 784l-72 22l57 110h105z" />
    <glyph glyph-name="cacute" unicode="&#x107;" horiz-adv-x="559" 
d="M303 -10q-61 0 -110.5 21.5t-85.5 59.5t-55.5 87t-19.5 104q0 74 33.5 135t94 98t143.5 37q80 0 139.5 -35.5t87.5 -94.5l-107 -34q-18 33 -50.5 51.5t-71.5 18.5q-44 0 -79.5 -22.5t-56 -62t-20.5 -91.5q0 -50 21 -90.5t56.5 -64t79.5 -23.5q27 0 52.5 9.5t44.5 26
t27 36.5l108 -32q-17 -39 -50.5 -69t-79 -47.5t-101.5 -17.5zM339 598l-72 22l57 110h105z" />
    <glyph glyph-name="Ccircumflex" unicode="&#x108;" horiz-adv-x="684" 
d="M35 360q0 65 23 127.5t67.5 114t108.5 82t145 30.5q96 0 166 -43.5t104 -111.5l-88 -59q-20 43 -50.5 68t-66 35t-69.5 10q-56 0 -98 -22.5t-70.5 -59.5t-43 -83t-14.5 -92q0 -51 17 -98.5t47.5 -84t72.5 -57.5t92 -21q34 0 71 12t68.5 37.5t49.5 67.5l93 -53
q-22 -53 -68.5 -90t-104 -56t-113.5 -19q-75 0 -137 31.5t-107 84t-70 118t-25 132.5zM234 821l104 95h79l104 -95l-59 -28l-85 63l-85 -63z" />
    <glyph glyph-name="ccircumflex" unicode="&#x109;" horiz-adv-x="559" 
d="M303 -10q-61 0 -110.5 21.5t-85.5 59.5t-55.5 87t-19.5 104q0 74 33.5 135t94 98t143.5 37q80 0 139.5 -35.5t87.5 -94.5l-107 -34q-18 33 -50.5 51.5t-71.5 18.5q-44 0 -79.5 -22.5t-56 -62t-20.5 -91.5q0 -50 21 -90.5t56.5 -64t79.5 -23.5q27 0 52.5 9.5t44.5 26
t27 36.5l108 -32q-17 -39 -50.5 -69t-79 -47.5t-101.5 -17.5zM158 635l104 95h79l104 -95l-59 -28l-85 63l-85 -63z" />
    <glyph glyph-name="Cdotaccent" unicode="&#x10a;" horiz-adv-x="684" 
d="M35 360q0 65 23 127.5t67.5 114t108.5 82t145 30.5q96 0 166 -43.5t104 -111.5l-88 -59q-20 43 -50.5 68t-66 35t-69.5 10q-56 0 -98 -22.5t-70.5 -59.5t-43 -83t-14.5 -92q0 -51 17 -98.5t47.5 -84t72.5 -57.5t92 -21q34 0 71 12t68.5 37.5t49.5 67.5l93 -53
q-22 -53 -68.5 -90t-104 -56t-113.5 -19q-75 0 -137 31.5t-107 84t-70 118t-25 132.5zM328 801v115h99v-115h-99z" />
    <glyph glyph-name="cdotaccent" unicode="&#x10b;" horiz-adv-x="559" 
d="M303 -10q-61 0 -110.5 21.5t-85.5 59.5t-55.5 87t-19.5 104q0 74 33.5 135t94 98t143.5 37q80 0 139.5 -35.5t87.5 -94.5l-107 -34q-18 33 -50.5 51.5t-71.5 18.5q-44 0 -79.5 -22.5t-56 -62t-20.5 -91.5q0 -50 21 -90.5t56.5 -64t79.5 -23.5q27 0 52.5 9.5t44.5 26
t27 36.5l108 -32q-17 -39 -50.5 -69t-79 -47.5t-101.5 -17.5zM252 615v115h99v-115h-99z" />
    <glyph glyph-name="Ccaron" unicode="&#x10c;" horiz-adv-x="684" 
d="M35 360q0 65 23 127.5t67.5 114t108.5 82t145 30.5q96 0 166 -43.5t104 -111.5l-88 -59q-20 43 -50.5 68t-66 35t-69.5 10q-56 0 -98 -22.5t-70.5 -59.5t-43 -83t-14.5 -92q0 -51 17 -98.5t47.5 -84t72.5 -57.5t92 -21q34 0 71 12t68.5 37.5t49.5 67.5l93 -53
q-22 -53 -68.5 -90t-104 -56t-113.5 -19q-75 0 -137 31.5t-107 84t-70 118t-25 132.5zM292 916l85 -63l85 63l59 -28l-104 -95h-79l-104 95z" />
    <glyph glyph-name="ccaron" unicode="&#x10d;" horiz-adv-x="559" 
d="M303 -10q-61 0 -110.5 21.5t-85.5 59.5t-55.5 87t-19.5 104q0 74 33.5 135t94 98t143.5 37q80 0 139.5 -35.5t87.5 -94.5l-107 -34q-18 33 -50.5 51.5t-71.5 18.5q-44 0 -79.5 -22.5t-56 -62t-20.5 -91.5q0 -50 21 -90.5t56.5 -64t79.5 -23.5q27 0 52.5 9.5t44.5 26
t27 36.5l108 -32q-17 -39 -50.5 -69t-79 -47.5t-101.5 -17.5zM216 730l85 -63l85 63l59 -28l-104 -95h-79l-104 95z" />
    <glyph glyph-name="Dcaron" unicode="&#x10e;" horiz-adv-x="716" 
d="M80 0v710h252q115 0 192 -47.5t115.5 -128t38.5 -178.5q0 -108 -42.5 -188t-120.5 -124t-183 -44h-252zM564 356q0 75 -27.5 132.5t-79 90t-125.5 32.5h-140v-512h140q75 0 126.5 34t78.5 92t27 131zM250 916l85 -63l85 63l59 -28l-104 -95h-79l-104 95z" />
    <glyph glyph-name="dcaron" unicode="&#x10f;" horiz-adv-x="637" 
d="M33 261q0 75 30.5 136.5t83.5 98t122 36.5q60 0 108.5 -31t75.5 -77v306h110v-606q0 -19 7 -27t23 -9v-88q-31 -5 -48 -5q-31 0 -52.5 18t-22.5 43l-1 39q-30 -50 -81 -77.5t-106 -27.5q-54 0 -99.5 21t-79 59t-52 87t-18.5 104zM453 188v137q-11 32 -35.5 57.5t-55 40.5
t-60.5 15q-35 0 -63.5 -15t-49 -40t-31.5 -57t-11 -67q0 -36 12 -67.5t34.5 -56t52 -38t64.5 -13.5q22 0 44.5 8t43 22t35 33t20.5 41zM665 598l-72 22l57 110h105z" />
    <glyph glyph-name="Dcroat" unicode="&#x110;" horiz-adv-x="722" 
d="M33 315v84h316v-84h-316zM85 0v710h252q115 0 192 -47.5t115.5 -128t38.5 -178.5q0 -108 -42.5 -188t-120 -124t-183.5 -44h-252zM569 356q0 75 -27 132.5t-78.5 90t-126.5 32.5h-139v-512h139q76 0 127.5 34t78 92t26.5 131z" />
    <glyph glyph-name="dcroat" unicode="&#x111;" horiz-adv-x="637" 
d="M348 604v68h281v-68h-281zM33 261q0 75 30.5 136.5t83.5 98t122 36.5q60 0 108.5 -31t75.5 -77v306h110v-606q0 -19 7 -27t23 -9v-88q-31 -5 -48 -5q-31 0 -52.5 18t-22.5 43l-1 39q-30 -50 -81 -77.5t-106 -27.5q-54 0 -99.5 21t-79 59t-52 87t-18.5 104zM453 188v137
q-11 32 -35.5 57.5t-55 40.5t-60.5 15q-35 0 -63.5 -15t-49 -40t-31.5 -57t-11 -67q0 -36 12 -67.5t34.5 -56t52 -38t64.5 -13.5q22 0 44.5 8t43 22t35 33t20.5 41z" />
    <glyph glyph-name="Emacron" unicode="&#x112;" horiz-adv-x="603" 
d="M567 99v-99h-487v710h478v-99h-366v-202h317v-93h-317v-217h375zM183 830v70h296v-70h-296z" />
    <glyph glyph-name="emacron" unicode="&#x113;" horiz-adv-x="595" 
d="M303 -10q-61 0 -110.5 21.5t-85.5 59t-55.5 86t-19.5 103.5q0 74 34 135.5t95 99t143 37.5t141.5 -37.5t92.5 -98.5t33 -131q0 -12 -1 -22.5t-2 -17.5h-419q3 -46 25.5 -80.5t57.5 -54t75 -19.5q44 0 83.5 22t53.5 58l94 -27q-17 -38 -51.5 -68.5t-81.5 -48t-102 -17.5z
M146 298h316q-3 45 -25.5 79.5t-57 54t-76.5 19.5q-41 0 -75.5 -19.5t-56.5 -54t-25 -79.5zM154 644v70h296v-70h-296z" />
    <glyph glyph-name="Ebreve" unicode="&#x114;" horiz-adv-x="603" 
d="M567 99v-99h-487v710h478v-99h-366v-202h317v-93h-317v-217h375zM330 845q22 0 38.5 20.5t19.5 50.5h61q0 -52 -34 -87t-85 -35t-85 35t-34 87h61q0 -28 17.5 -49.5t40.5 -21.5z" />
    <glyph glyph-name="ebreve" unicode="&#x115;" horiz-adv-x="595" 
d="M303 -10q-61 0 -110.5 21.5t-85.5 59t-55.5 86t-19.5 103.5q0 74 34 135.5t95 99t143 37.5t141.5 -37.5t92.5 -98.5t33 -131q0 -12 -1 -22.5t-2 -17.5h-419q3 -46 25.5 -80.5t57.5 -54t75 -19.5q44 0 83.5 22t53.5 58l94 -27q-17 -38 -51.5 -68.5t-81.5 -48t-102 -17.5z
M146 298h316q-3 45 -25.5 79.5t-57 54t-76.5 19.5q-41 0 -75.5 -19.5t-56.5 -54t-25 -79.5zM301 659q22 0 38.5 20.5t19.5 50.5h61q0 -52 -34 -87t-85 -35t-85 35t-34 87h61q0 -28 17.5 -49.5t40.5 -21.5z" />
    <glyph glyph-name="Edotaccent" unicode="&#x116;" horiz-adv-x="603" 
d="M567 99v-99h-487v710h478v-99h-366v-202h317v-93h-317v-217h375zM280 801v115h99v-115h-99z" />
    <glyph glyph-name="edotaccent" unicode="&#x117;" horiz-adv-x="595" 
d="M303 -10q-61 0 -110.5 21.5t-85.5 59t-55.5 86t-19.5 103.5q0 74 34 135.5t95 99t143 37.5t141.5 -37.5t92.5 -98.5t33 -131q0 -12 -1 -22.5t-2 -17.5h-419q3 -46 25.5 -80.5t57.5 -54t75 -19.5q44 0 83.5 22t53.5 58l94 -27q-17 -38 -51.5 -68.5t-81.5 -48t-102 -17.5z
M146 298h316q-3 45 -25.5 79.5t-57 54t-76.5 19.5q-41 0 -75.5 -19.5t-56.5 -54t-25 -79.5zM251 615v115h99v-115h-99z" />
    <glyph glyph-name="Eogonek" unicode="&#x118;" horiz-adv-x="603" 
d="M567 99v-99h-487v710h478v-99h-366v-202h317v-93h-317v-217h375zM418 -109q0 34 24 66t74 63h32l19 -20q-40 -28 -58.5 -50.5t-18.5 -40.5q0 -19 20 -27.5t56 -10.5l-23 -65q-50 4 -77 17.5t-37.5 31.5t-10.5 36z" />
    <glyph glyph-name="eogonek" unicode="&#x119;" horiz-adv-x="595" 
d="M303 -10q-61 0 -110.5 21.5t-85.5 59t-55.5 86t-19.5 103.5q0 74 34 135.5t95 99t143 37.5t141.5 -37.5t92.5 -98.5t33 -131q0 -12 -1 -22.5t-2 -17.5h-419q3 -46 25.5 -80.5t57.5 -54t75 -19.5q44 0 83.5 22t53.5 58l94 -27q-17 -38 -51.5 -68.5t-81.5 -48t-102 -17.5z
M146 298h316q-3 45 -25.5 79.5t-57 54t-76.5 19.5q-41 0 -75.5 -19.5t-56.5 -54t-25 -79.5zM231 -109q0 34 24 66t74 63h32l19 -20q-40 -28 -58.5 -50.5t-18.5 -40.5q0 -19 20 -27.5t56 -10.5l-23 -65q-50 4 -77 17.5t-37.5 31.5t-10.5 36z" />
    <glyph glyph-name="Ecaron" unicode="&#x11a;" horiz-adv-x="603" 
d="M567 99v-99h-487v710h478v-99h-366v-202h317v-93h-317v-217h375zM245 916l85 -63l85 63l59 -28l-104 -95h-79l-104 95z" />
    <glyph glyph-name="ecaron" unicode="&#x11b;" horiz-adv-x="595" 
d="M303 -10q-61 0 -110.5 21.5t-85.5 59t-55.5 86t-19.5 103.5q0 74 34 135.5t95 99t143 37.5t141.5 -37.5t92.5 -98.5t33 -131q0 -12 -1 -22.5t-2 -17.5h-419q3 -46 25.5 -80.5t57.5 -54t75 -19.5q44 0 83.5 22t53.5 58l94 -27q-17 -38 -51.5 -68.5t-81.5 -48t-102 -17.5z
M146 298h316q-3 45 -25.5 79.5t-57 54t-76.5 19.5q-41 0 -75.5 -19.5t-56.5 -54t-25 -79.5zM215 730l85 -63l85 63l59 -28l-104 -95h-79l-104 95z" />
    <glyph glyph-name="Gcircumflex" unicode="&#x11c;" horiz-adv-x="719" 
d="M370 -5q-70 0 -131 29t-106.5 80t-71 116t-25.5 138t25.5 137t71 114t107 78t134.5 28q101 0 170.5 -42.5t104.5 -112.5l-86 -62q-28 58 -79.5 87t-112.5 29q-50 0 -91 -21t-70.5 -57.5t-44.5 -83t-15 -97.5q0 -54 17 -101t48 -82.5t73 -55.5t91 -20q58 0 110.5 29.5
t98.5 88.5v-114q-93 -105 -218 -105zM577 276h-149v83h243v-359h-94v276zM229 821l104 95h79l104 -95l-59 -28l-85 63l-85 -63z" />
    <glyph glyph-name="gcircumflex" unicode="&#x11d;" horiz-adv-x="629" 
d="M273 -5q-53 0 -97 21.5t-75.5 58.5t-49 85t-17.5 101q0 56 18 105t50.5 86.5t76.5 58.5t98 21q63 0 110.5 -30t78.5 -78v99h97v-508q0 -76 -36.5 -129t-99.5 -81t-142 -28q-87 0 -144 30t-97 82l62 58q30 -42 77.5 -64t101.5 -22q45 0 83.5 16.5t61.5 51t23 86.5v80
q-28 -47 -77 -73.5t-103 -26.5zM309 84q25 0 48 8.5t42.5 23t33.5 33t20 39.5v137q-13 34 -37 59.5t-54 39.5t-61 14q-36 0 -64.5 -15.5t-48.5 -41t-31 -57.5t-11 -66q0 -36 12.5 -67t34.5 -55.5t52 -38t64 -13.5zM163 635l104 95h79l104 -95l-59 -28l-85 63l-85 -63z" />
    <glyph glyph-name="Gbreve" unicode="&#x11e;" horiz-adv-x="719" 
d="M370 -5q-70 0 -131 29t-106.5 80t-71 116t-25.5 138t25.5 137t71 114t107 78t134.5 28q101 0 170.5 -42.5t104.5 -112.5l-86 -62q-28 58 -79.5 87t-112.5 29q-50 0 -91 -21t-70.5 -57.5t-44.5 -83t-15 -97.5q0 -54 17 -101t48 -82.5t73 -55.5t91 -20q58 0 110.5 29.5
t98.5 88.5v-114q-93 -105 -218 -105zM577 276h-149v83h243v-359h-94v276zM373 845q22 0 38.5 20.5t19.5 50.5h61q0 -52 -34 -87t-85 -35t-85 35t-34 87h61q0 -28 17.5 -49.5t40.5 -21.5z" />
    <glyph glyph-name="gbreve" unicode="&#x11f;" horiz-adv-x="629" 
d="M273 -5q-53 0 -97 21.5t-75.5 58.5t-49 85t-17.5 101q0 56 18 105t50.5 86.5t76.5 58.5t98 21q63 0 110.5 -30t78.5 -78v99h97v-508q0 -76 -36.5 -129t-99.5 -81t-142 -28q-87 0 -144 30t-97 82l62 58q30 -42 77.5 -64t101.5 -22q45 0 83.5 16.5t61.5 51t23 86.5v80
q-28 -47 -77 -73.5t-103 -26.5zM309 84q25 0 48 8.5t42.5 23t33.5 33t20 39.5v137q-13 34 -37 59.5t-54 39.5t-61 14q-36 0 -64.5 -15.5t-48.5 -41t-31 -57.5t-11 -66q0 -36 12.5 -67t34.5 -55.5t52 -38t64 -13.5zM307 659q22 0 38.5 20.5t19.5 50.5h61q0 -52 -34 -87
t-85 -35t-85 35t-34 87h61q0 -28 17.5 -49.5t40.5 -21.5z" />
    <glyph glyph-name="Gdotaccent" unicode="&#x120;" horiz-adv-x="719" 
d="M370 -5q-70 0 -131 29t-106.5 80t-71 116t-25.5 138t25.5 137t71 114t107 78t134.5 28q101 0 170.5 -42.5t104.5 -112.5l-86 -62q-28 58 -79.5 87t-112.5 29q-50 0 -91 -21t-70.5 -57.5t-44.5 -83t-15 -97.5q0 -54 17 -101t48 -82.5t73 -55.5t91 -20q58 0 110.5 29.5
t98.5 88.5v-114q-93 -105 -218 -105zM577 276h-149v83h243v-359h-94v276zM323 801v115h99v-115h-99z" />
    <glyph glyph-name="gdotaccent" unicode="&#x121;" horiz-adv-x="629" 
d="M273 -5q-53 0 -97 21.5t-75.5 58.5t-49 85t-17.5 101q0 56 18 105t50.5 86.5t76.5 58.5t98 21q63 0 110.5 -30t78.5 -78v99h97v-508q0 -76 -36.5 -129t-99.5 -81t-142 -28q-87 0 -144 30t-97 82l62 58q30 -42 77.5 -64t101.5 -22q45 0 83.5 16.5t61.5 51t23 86.5v80
q-28 -47 -77 -73.5t-103 -26.5zM309 84q25 0 48 8.5t42.5 23t33.5 33t20 39.5v137q-13 34 -37 59.5t-54 39.5t-61 14q-36 0 -64.5 -15.5t-48.5 -41t-31 -57.5t-11 -66q0 -36 12.5 -67t34.5 -55.5t52 -38t64 -13.5zM257 615v115h99v-115h-99z" />
    <glyph glyph-name="uni0122" unicode="&#x122;" horiz-adv-x="719" 
d="M370 -5q-70 0 -131 29t-106.5 80t-71 116t-25.5 138t25.5 137t71 114t107 78t134.5 28q101 0 170.5 -42.5t104.5 -112.5l-86 -62q-28 58 -79.5 87t-112.5 29q-50 0 -91 -21t-70.5 -57.5t-44.5 -83t-15 -97.5q0 -54 17 -101t48 -82.5t73 -55.5t91 -20q58 0 110.5 29.5
t98.5 88.5v-114q-93 -105 -218 -105zM577 276h-149v83h243v-359h-94v276zM332 -213l23 77h-32v88h95v-88l-35 -77h-51z" />
    <glyph glyph-name="uni0123" unicode="&#x123;" horiz-adv-x="629" 
d="M273 -5q-53 0 -97 21.5t-75.5 58.5t-49 85t-17.5 101q0 56 18 105t50.5 86.5t76.5 58.5t98 21q63 0 110.5 -30t78.5 -78v99h97v-508q0 -76 -36.5 -129t-99.5 -81t-142 -28q-87 0 -144 30t-97 82l62 58q30 -42 77.5 -64t101.5 -22q45 0 83.5 16.5t61.5 51t23 86.5v80
q-28 -47 -77 -73.5t-103 -26.5zM309 84q25 0 48 8.5t42.5 23t33.5 33t20 39.5v137q-13 34 -37 59.5t-54 39.5t-61 14q-36 0 -64.5 -15.5t-48.5 -41t-31 -57.5t-11 -66q0 -36 12.5 -67t34.5 -55.5t52 -38t64 -13.5zM345 730l-23 -64h31v-80h-95v80l36 64h51z" />
    <glyph glyph-name="Hcircumflex" unicode="&#x124;" horiz-adv-x="743" 
d="M663 710v-710h-113v313h-358v-313h-112v710h112v-297h358v297h113zM231 820l104 95h79l104 -95l-59 -28l-85 63l-85 -63z" />
    <glyph glyph-name="hcircumflex" unicode="&#x125;" horiz-adv-x="597" 
d="M535 0h-110v293q0 71 -26 106t-73 35q-29 0 -60 -16t-55 -43.5t-35 -63.5v-311h-110v730h110v-312q30 53 82 83.5t112 30.5q49 0 81 -17t50.5 -46.5t26 -68t7.5 -81.5v-319zM174 822l104 95h79l104 -95l-59 -28l-85 63l-85 -63z" />
    <glyph glyph-name="Hbar" unicode="&#x126;" horiz-adv-x="752" 
d="M34 531v71h684v-71h-684zM668 710v-710h-113v313h-358v-313h-113v710h113v-297h358v297h113z" />
    <glyph glyph-name="hbar" unicode="&#x127;" horiz-adv-x="597" 
d="M16 604v68h281v-68h-281zM535 0h-110v293q0 71 -26 106t-73 35q-29 0 -60 -16t-55 -43.5t-35 -63.5v-311h-110v730h110v-312q30 53 82 83.5t112 30.5q49 0 81 -17t50.5 -46.5t26 -68t7.5 -81.5v-319z" />
    <glyph glyph-name="Itilde" unicode="&#x128;" horiz-adv-x="272" 
d="M80 0v710h112v-710h-112zM200 801q-30 0 -51.5 11t-39 21.5t-39.5 10.5t-32.5 -11t-13.5 -23t-3 -14h-62q0 8 5 26.5t17.5 39t33 35t51.5 14.5q30 0 50 -11t38.5 -22t42.5 -11q25 0 36 11.5t14.5 23.5t3.5 14h63q0 -7 -5.5 -25t-18.5 -39t-35 -36t-55 -15z" />
    <glyph glyph-name="itilde" unicode="&#x129;" horiz-adv-x="242" 
d="M66 0v523h110v-523h-110zM185 615q-30 0 -51.5 11t-39 21.5t-39.5 10.5t-32.5 -11t-13.5 -23t-3 -14h-62q0 8 5 26.5t17.5 39t33 35t51.5 14.5q30 0 50 -11t38.5 -22t42.5 -11q25 0 36 11.5t14.5 23.5t3.5 14h63q0 -7 -5.5 -25t-18.5 -39t-35 -36t-55 -15z" />
    <glyph glyph-name="Imacron" unicode="&#x12a;" horiz-adv-x="272" 
d="M80 0v710h112v-710h-112zM-11 830v70h296v-70h-296z" />
    <glyph glyph-name="imacron" unicode="&#x12b;" horiz-adv-x="242" 
d="M66 0v523h110v-523h-110zM-26 644v70h296v-70h-296z" />
    <glyph glyph-name="Ibreve" unicode="&#x12c;" horiz-adv-x="272" 
d="M80 0v710h112v-710h-112zM136 845q22 0 38.5 20.5t19.5 50.5h61q0 -52 -34 -87t-85 -35t-85 35t-34 87h61q0 -28 17.5 -49.5t40.5 -21.5z" />
    <glyph glyph-name="ibreve" unicode="&#x12d;" horiz-adv-x="242" 
d="M66 0v523h110v-523h-110zM121 659q22 0 38.5 20.5t19.5 50.5h61q0 -52 -34 -87t-85 -35t-85 35t-34 87h61q0 -28 17.5 -49.5t40.5 -21.5z" />
    <glyph glyph-name="Iogonek" unicode="&#x12e;" horiz-adv-x="272" 
d="M80 0v710h112v-710h-112zM44 -109q0 34 24 66t74 63h32l19 -20q-40 -28 -58.5 -50.5t-18.5 -40.5q0 -19 20 -27.5t56 -10.5l-23 -65q-50 4 -77 17.5t-37.5 31.5t-10.5 36z" />
    <glyph glyph-name="iogonek" unicode="&#x12f;" horiz-adv-x="242" 
d="M66 0v523h110v-523h-110zM66 609v121h110v-121h-110zM28 -109q0 34 24 66t74 63h32l19 -20q-40 -28 -58.5 -50.5t-18.5 -40.5q0 -19 20 -27.5t56 -10.5l-23 -65q-50 4 -77 17.5t-37.5 31.5t-10.5 36z" />
    <glyph glyph-name="Idotaccent" unicode="&#x130;" horiz-adv-x="272" 
d="M80 0v710h112v-710h-112zM86 801v115h99v-115h-99z" />
    <glyph glyph-name="dotlessi" unicode="&#x131;" horiz-adv-x="242" 
d="M66 0v523h110v-523h-110z" />
    <glyph glyph-name="IJ" unicode="&#x132;" horiz-adv-x="760" 
d="M80 0v710h112v-710h-112zM309 125q16 -12 49 -23.5t78 -11.5q44 0 71.5 14.5t42 44t20 75.5t5.5 109v377h113v-361q0 -79 -8.5 -145t-33.5 -114.5t-74.5 -74.5t-132.5 -26q-49 0 -87 11t-70 33z" />
    <glyph glyph-name="ij" unicode="&#x133;" horiz-adv-x="491" 
d="M66 0v523h110v-523h-110zM66 609v121h110v-121h-110zM253 -191q-36 0 -68.5 11t-57.5 34l49 74q12 -12 29.5 -17.5t34.5 -5.5q20 0 36.5 10t27 27.5t10.5 38.5v542h110v-534q0 -52 -23.5 -93t-62 -64t-85.5 -23zM314 609v121h110v-121h-110z" />
    <glyph glyph-name="Jcircumflex" unicode="&#x134;" horiz-adv-x="488" 
d="M37 125q16 -12 49 -23.5t78 -11.5q44 0 71.5 14.5t42 44t20 75.5t5.5 109v377h113v-361q0 -79 -8.5 -145t-33.5 -114.5t-74.5 -74.5t-132.5 -26q-49 0 -87 11t-70 33zM218 821l104 95h79l104 -95l-59 -28l-85 63l-85 -63z" />
    <glyph glyph-name="jcircumflex" unicode="&#x135;" horiz-adv-x="242" 
d="M5 -191q-36 0 -68.5 11t-58.5 34l49 74q13 -12 30.5 -17.5t34.5 -5.5q20 0 36.5 10t27 27.5t10.5 38.5v542h110v-534q0 -52 -23.5 -93t-62.5 -64t-85 -23zM-22 635l104 95h79l104 -95l-59 -28l-85 63l-85 -63z" />
    <glyph glyph-name="uni0136" unicode="&#x136;" horiz-adv-x="660" 
d="M80 0v709h112v-365l334 366h124l-280 -314l296 -396h-127l-240 325l-107 -111v-214h-112zM303 -213l23 77h-32v88h95v-88l-35 -77h-51z" />
    <glyph glyph-name="uni0137" unicode="&#x137;" horiz-adv-x="548" 
d="M430 0l-168 241l-86 -82v-159h-110v730h110v-460l242 252h118l-203 -219l214 -303h-117zM242 -213l23 77h-32v88h95v-88l-35 -77h-51z" />
    <glyph glyph-name="kgreenlandic" unicode="&#x138;" horiz-adv-x="548" 
d="M430 0l-167 241l-87 -82v-159h-110v523h110v-256l240 255h120l-203 -219l214 -303h-117z" />
    <glyph glyph-name="Lacute" unicode="&#x139;" horiz-adv-x="584" 
d="M80 0v710h112v-611h381v-99h-493zM172 784l-72 22l57 110h105z" />
    <glyph glyph-name="lacute" unicode="&#x13a;" horiz-adv-x="301" 
d="M67 730h110v-579q0 -40 12 -51t30 -11q20 0 37.5 4t30.5 10l16 -87q-24 -10 -57 -17t-59 -7q-56 0 -88 31.5t-32 87.5v619zM159 785l-72 22l57 110h105z" />
    <glyph glyph-name="uni013B" unicode="&#x13b;" horiz-adv-x="584" 
d="M80 0v710h112v-611h381v-99h-493zM294 -213l23 77h-32v88h95v-88l-35 -77h-51z" />
    <glyph glyph-name="uni013C" unicode="&#x13c;" horiz-adv-x="301" 
d="M67 730h110v-579q0 -40 12 -51t30 -11q20 0 37.5 4t30.5 10l16 -87q-24 -10 -57 -17t-59 -7q-56 0 -88 31.5t-32 87.5v619zM142 -213l23 77h-32v88h95v-88l-35 -77h-51z" />
    <glyph glyph-name="Lcaron" unicode="&#x13d;" horiz-adv-x="584" 
d="M80 0v710h112v-611h381v-99h-493zM438 601l-72 22l57 110h105z" />
    <glyph glyph-name="lcaron" unicode="&#x13e;" horiz-adv-x="301" 
d="M67 730h110v-579q0 -40 12 -51t30 -11q20 0 37.5 4t30.5 10l16 -87q-24 -10 -57 -17t-59 -7q-56 0 -88 31.5t-32 87.5v619zM290 598l-72 22l57 110h105z" />
    <glyph glyph-name="Ldot" unicode="&#x13f;" horiz-adv-x="584" 
d="M80 0v710h112v-611h381v-99h-493zM366 337v137h91v-137h-91z" />
    <glyph glyph-name="ldot" unicode="&#x140;" horiz-adv-x="367" 
d="M67 730h110v-579q0 -40 12 -51t30 -11q20 0 37.5 4t30.5 10l16 -87q-24 -10 -57 -17t-59 -7q-56 0 -88 31.5t-32 87.5v619zM259 243v137h91v-137h-91z" />
    <glyph glyph-name="Lslash" unicode="&#x141;" horiz-adv-x="592" 
d="M34 237l-30 61l323 226l29 -60zM88 0v710h113v-611h380v-99h-493z" />
    <glyph glyph-name="lslash" unicode="&#x142;" horiz-adv-x="325" 
d="M34 276l-30 61l282 186l31 -60zM89 730h110v-579q0 -40 12 -51t31 -11t37 4t31 10l16 -87q-25 -10 -57.5 -17t-58.5 -7q-57 0 -89 31.5t-32 87.5v619z" />
    <glyph glyph-name="Nacute" unicode="&#x143;" horiz-adv-x="767" 
d="M192 502v-502h-112v710h92l402 -513v512h113v-709h-98zM422 783l-72 22l57 110h105z" />
    <glyph glyph-name="nacute" unicode="&#x144;" horiz-adv-x="597" 
d="M535 0h-110v293q0 73 -23.5 107t-69.5 34q-32 0 -63.5 -16t-56.5 -43.5t-36 -63.5v-311h-110v523h100v-105q20 35 52.5 60.5t73.5 39.5t87 14q47 0 77.5 -17t48 -46.5t24 -68t6.5 -81.5v-319zM347 598l-72 22l57 110h105z" />
    <glyph glyph-name="uni0145" unicode="&#x145;" horiz-adv-x="767" 
d="M192 502v-502h-112v710h92l402 -513v512h113v-709h-98zM342 -213l23 77h-32v88h95v-88l-35 -77h-51z" />
    <glyph glyph-name="uni0146" unicode="&#x146;" horiz-adv-x="597" 
d="M535 0h-110v293q0 73 -23.5 107t-69.5 34q-32 0 -63.5 -16t-56.5 -43.5t-36 -63.5v-311h-110v523h100v-105q20 35 52.5 60.5t73.5 39.5t87 14q47 0 77.5 -17t48 -46.5t24 -68t6.5 -81.5v-319zM256 -213l23 77h-32v88h95v-88l-35 -77h-51z" />
    <glyph glyph-name="Ncaron" unicode="&#x147;" horiz-adv-x="767" 
d="M192 502v-502h-112v710h92l402 -513v512h113v-709h-98zM299 915l85 -63l85 63l59 -28l-104 -95h-79l-104 95z" />
    <glyph glyph-name="ncaron" unicode="&#x148;" horiz-adv-x="597" 
d="M535 0h-110v293q0 73 -23.5 107t-69.5 34q-32 0 -63.5 -16t-56.5 -43.5t-36 -63.5v-311h-110v523h100v-105q20 35 52.5 60.5t73.5 39.5t87 14q47 0 77.5 -17t48 -46.5t24 -68t6.5 -81.5v-319zM224 730l85 -63l85 63l59 -28l-104 -95h-79l-104 95z" />
    <glyph glyph-name="napostrophe" unicode="&#x149;" horiz-adv-x="597" 
d="M535 0h-110v293q0 73 -23.5 107t-69.5 34q-32 0 -63.5 -16t-56.5 -43.5t-36 -63.5v-311h-110v523h100v-105q20 35 52.5 60.5t73.5 39.5t87 14q47 0 77.5 -17t48 -46.5t24 -68t6.5 -81.5v-319zM145 730l-91 -132l-70 22l35 68l-4 42h130z" />
    <glyph glyph-name="Eng" unicode="&#x14a;" horiz-adv-x="756" 
d="M192 498v-498h-112v710h86l397 -506v505h113v-724q0 -52 -24 -92t-63 -62t-85 -22q-36 0 -68 11t-58 34l49 74q13 -12 30 -17.5t34 -5.5q20 0 36.5 10t27.5 27.5t11 38.5v40z" />
    <glyph glyph-name="eng" unicode="&#x14b;" horiz-adv-x="596" 
d="M364 -191q-36 0 -68.5 11t-58.5 34l49 74q13 -12 30.5 -17.5t34.5 -5.5q20 0 36.5 10t27 27.5t10.5 38.5v312q0 73 -23.5 107t-69.5 34q-32 0 -63.5 -16t-56.5 -43.5t-36 -63.5v-311h-110v523h100v-105q20 35 52.5 60.5t73.5 39.5t87 14q47 0 77.5 -17t47.5 -46.5t24 -68
t7 -81.5v-330q0 -52 -23.5 -93t-62.5 -64t-85 -23z" />
    <glyph glyph-name="Omacron" unicode="&#x14c;" horiz-adv-x="752" 
d="M375 -5q-77 0 -139 30t-107 81.5t-69.5 116t-24.5 132.5q0 71 26 135.5t72 115t108.5 80t135.5 29.5q76 0 138.5 -31t107 -83t69 -116t24.5 -131q0 -71 -25.5 -135.5t-71.5 -115t-108.5 -79.5t-135.5 -29zM149 355q0 -50 16 -97t45.5 -83.5t71.5 -57.5t94 -21q54 0 96 22
t70.5 59.5t43.5 84t15 93.5q0 50 -15.5 96.5t-45.5 83t-71.5 57.5t-92.5 21q-54 0 -96 -22t-71 -59t-44.5 -83t-15.5 -94zM230 830v70h296v-70h-296z" />
    <glyph glyph-name="omacron" unicode="&#x14d;" horiz-adv-x="602" 
d="M301 -10q-62 0 -111 21.5t-84.5 59.5t-54.5 86.5t-19 103.5t19 104t54.5 86.5t85 59t110.5 21.5t110.5 -21.5t85 -59t54.5 -86.5t19 -104t-19 -103.5t-54.5 -86.5t-85 -59.5t-110.5 -21.5zM145 260q0 -50 21 -90t56 -63t79 -23q43 0 78.5 23.5t56.5 64t21 89.5
q0 50 -21 90t-56.5 63.5t-78.5 23.5q-44 0 -79 -24t-56 -63.5t-21 -90.5zM154 644v70h296v-70h-296z" />
    <glyph glyph-name="Obreve" unicode="&#x14e;" horiz-adv-x="752" 
d="M375 -5q-77 0 -139 30t-107 81.5t-69.5 116t-24.5 132.5q0 71 26 135.5t72 115t108.5 80t135.5 29.5q76 0 138.5 -31t107 -83t69 -116t24.5 -131q0 -71 -25.5 -135.5t-71.5 -115t-108.5 -79.5t-135.5 -29zM149 355q0 -50 16 -97t45.5 -83.5t71.5 -57.5t94 -21q54 0 96 22
t70.5 59.5t43.5 84t15 93.5q0 50 -15.5 96.5t-45.5 83t-71.5 57.5t-92.5 21q-54 0 -96 -22t-71 -59t-44.5 -83t-15.5 -94zM377 845q22 0 38.5 20.5t19.5 50.5h61q0 -52 -34 -87t-85 -35t-85 35t-34 87h61q0 -28 17.5 -49.5t40.5 -21.5z" />
    <glyph glyph-name="obreve" unicode="&#x14f;" horiz-adv-x="602" 
d="M301 -10q-62 0 -111 21.5t-84.5 59.5t-54.5 86.5t-19 103.5t19 104t54.5 86.5t85 59t110.5 21.5t110.5 -21.5t85 -59t54.5 -86.5t19 -104t-19 -103.5t-54.5 -86.5t-85 -59.5t-110.5 -21.5zM145 260q0 -50 21 -90t56 -63t79 -23q43 0 78.5 23.5t56.5 64t21 89.5
q0 50 -21 90t-56.5 63.5t-78.5 23.5q-44 0 -79 -24t-56 -63.5t-21 -90.5zM301 659q22 0 38.5 20.5t19.5 50.5h61q0 -52 -34 -87t-85 -35t-85 35t-34 87h61q0 -28 17.5 -49.5t40.5 -21.5z" />
    <glyph glyph-name="Ohungarumlaut" unicode="&#x150;" horiz-adv-x="752" 
d="M375 -5q-77 0 -139 30t-107 81.5t-69.5 116t-24.5 132.5q0 71 26 135.5t72 115t108.5 80t135.5 29.5q76 0 138.5 -31t107 -83t69 -116t24.5 -131q0 -71 -25.5 -135.5t-71.5 -115t-108.5 -79.5t-135.5 -29zM149 355q0 -50 16 -97t45.5 -83.5t71.5 -57.5t94 -21q54 0 96 22
t70.5 59.5t43.5 84t15 93.5q0 50 -15.5 96.5t-45.5 83t-71.5 57.5t-92.5 21q-54 0 -96 -22t-71 -59t-44.5 -83t-15.5 -94zM314 785l-55 22l51 110h89zM462 785l-56 22l51 110h90z" />
    <glyph glyph-name="ohungarumlaut" unicode="&#x151;" horiz-adv-x="602" 
d="M301 -10q-62 0 -111 21.5t-84.5 59.5t-54.5 86.5t-19 103.5t19 104t54.5 86.5t85 59t110.5 21.5t110.5 -21.5t85 -59t54.5 -86.5t19 -104t-19 -103.5t-54.5 -86.5t-85 -59.5t-110.5 -21.5zM145 260q0 -50 21 -90t56 -63t79 -23q43 0 78.5 23.5t56.5 64t21 89.5
q0 50 -21 90t-56.5 63.5t-78.5 23.5q-44 0 -79 -24t-56 -63.5t-21 -90.5zM237 599l-55 22l51 110h89zM385 599l-56 22l51 110h90z" />
    <glyph glyph-name="OE" unicode="&#x152;" horiz-adv-x="1109" 
d="M1074 99v-99h-477v132q-22 -39 -56.5 -70t-77 -49t-92.5 -18q-75 0 -136.5 30t-106.5 81.5t-69 116t-24 132.5q0 71 25.5 135.5t71 115t107 80t134.5 29.5q50 0 92.5 -18t76 -49t55.5 -70v132h468v-99h-355v-200h301v-99h-301v-213h364zM372 96q52 0 93.5 22t69.5 59.5
t43 84t15 94.5q0 50 -15.5 96.5t-45 82.5t-70 57.5t-91.5 21.5q-52 0 -93 -22t-69.5 -59.5t-44 -83.5t-15.5 -94q0 -50 16 -97t44.5 -83t70 -57.5t92.5 -21.5z" />
    <glyph glyph-name="oe" unicode="&#x153;" horiz-adv-x="1020" 
d="M300 -10q-77 0 -137.5 35.5t-95.5 96.5t-35 138q0 78 35 139.5t96 97t137 35.5q47 0 87.5 -16.5t72.5 -47t53 -74.5q34 67 88.5 102.5t126.5 35.5q77 0 135.5 -34t93.5 -95t38 -142q0 -8 -0.5 -18.5t-1.5 -17.5h-419q4 -43 26.5 -78.5t58.5 -56.5t79 -21q46 0 85.5 23
t53.5 59l91 -27q-19 -40 -54.5 -70.5t-82 -47t-97.5 -16.5q-45 0 -85 16t-74 46.5t-62 71.5q-26 -43 -59 -73t-71.5 -45.5t-82.5 -15.5zM301 84q44 0 79.5 23.5t56 63.5t20.5 90t-20.5 90t-55.5 63.5t-79 23.5t-79.5 -24t-56.5 -64t-21 -91q0 -50 20.5 -89.5t56 -62.5
t79.5 -23zM885 295q-3 46 -25.5 81.5t-57 55t-77.5 19.5q-42 0 -76 -20t-54.5 -55t-23.5 -81h314z" />
    <glyph glyph-name="Racute" unicode="&#x154;" horiz-adv-x="661" 
d="M80 0v710h309q48 0 88 -20t69.5 -53t46 -74t16.5 -84q0 -47 -17 -90t-48.5 -74t-73.5 -45l167 -270h-126l-154 247h-165v-247h-112zM192 346h196q31 0 55 18t38 48.5t14 66.5q0 37 -16 66.5t-41.5 47.5t-55.5 18h-190v-265zM348 785l-72 22l57 110h105z" />
    <glyph glyph-name="racute" unicode="&#x155;" horiz-adv-x="374" 
d="M360 428q-64 -1 -113.5 -29t-70.5 -79v-320h-110v523h102v-117q27 54 71 86.5t93 35.5h16.5t11.5 -1v-99zM251 598l-72 22l57 110h105z" />
    <glyph glyph-name="uni0156" unicode="&#x156;" horiz-adv-x="661" 
d="M80 0v710h309q48 0 88 -20t69.5 -53t46 -74t16.5 -84q0 -47 -17 -90t-48.5 -74t-73.5 -45l167 -270h-126l-154 247h-165v-247h-112zM192 346h196q31 0 55 18t38 48.5t14 66.5q0 37 -16 66.5t-41.5 47.5t-55.5 18h-190v-265zM295 -213l23 77h-32v88h95v-88l-35 -77h-51z
" />
    <glyph glyph-name="uni0157" unicode="&#x157;" horiz-adv-x="374" 
d="M360 428q-64 -1 -113.5 -29t-70.5 -79v-320h-110v523h102v-117q27 54 71 86.5t93 35.5h16.5t11.5 -1v-99zM75 -213l23 77h-32v88h95v-88l-35 -77h-51z" />
    <glyph glyph-name="Rcaron" unicode="&#x158;" horiz-adv-x="661" 
d="M80 0v710h309q48 0 88 -20t69.5 -53t46 -74t16.5 -84q0 -47 -17 -90t-48.5 -74t-73.5 -45l167 -270h-126l-154 247h-165v-247h-112zM192 346h196q31 0 55 18t38 48.5t14 66.5q0 37 -16 66.5t-41.5 47.5t-55.5 18h-190v-265zM225 917l85 -63l85 63l59 -28l-104 -95h-79
l-104 95z" />
    <glyph glyph-name="rcaron" unicode="&#x159;" horiz-adv-x="374" 
d="M360 428q-64 -1 -113.5 -29t-70.5 -79v-320h-110v523h102v-117q27 54 71 86.5t93 35.5h16.5t11.5 -1v-99zM128 730l85 -63l85 63l59 -28l-104 -95h-79l-104 95z" />
    <glyph glyph-name="Sacute" unicode="&#x15a;" horiz-adv-x="611" 
d="M500 543q-10 11 -29 23.5t-45 23.5t-56 18t-62 7q-70 0 -104 -26t-34 -72q0 -34 19 -53.5t58 -32.5t98 -28q72 -17 125 -40.5t81 -62.5t28 -103q0 -54 -20 -93t-56 -63.5t-83 -36t-101 -11.5q-53 0 -105.5 11t-100 32.5t-87.5 52.5l51 96q13 -13 37.5 -28.5t57 -29.5
t71 -23.5t78.5 -9.5q67 0 102.5 23.5t35.5 67.5q0 36 -23 57.5t-67 36.5t-105 30q-70 19 -117 41.5t-70.5 58t-23.5 90.5q0 70 34 118.5t92.5 73t131.5 24.5q48 0 91 -10.5t80.5 -28.5t68.5 -41zM352 794l-72 22l57 110h105z" />
    <glyph glyph-name="sacute" unicode="&#x15b;" horiz-adv-x="491" 
d="M252 -10q-66 0 -125 21.5t-101 64.5l41 74q45 -40 90.5 -58t90.5 -18q46 0 75 17.5t29 51.5q0 25 -15 37t-43.5 21t-68.5 20q-56 17 -94 35.5t-57 45.5t-19 69q0 51 26 87t72.5 55t107.5 19q57 0 105.5 -17.5t85.5 -54.5l-47 -73q-35 32 -71.5 47t-78.5 15
q-24 0 -46 -5.5t-36.5 -20t-14.5 -40.5q0 -21 12 -34t36 -22t59 -20q61 -18 104 -35.5t66.5 -45t23.5 -75.5q0 -76 -56.5 -118.5t-150.5 -42.5zM290 598l-72 22l57 110h105z" />
    <glyph glyph-name="Scircumflex" unicode="&#x15c;" horiz-adv-x="611" 
d="M500 543q-10 11 -29 23.5t-45 23.5t-56 18t-62 7q-70 0 -104 -26t-34 -72q0 -34 19 -53.5t58 -32.5t98 -28q72 -17 125 -40.5t81 -62.5t28 -103q0 -54 -20 -93t-56 -63.5t-83 -36t-101 -11.5q-53 0 -105.5 11t-100 32.5t-87.5 52.5l51 96q13 -13 37.5 -28.5t57 -29.5
t71 -23.5t78.5 -9.5q67 0 102.5 23.5t35.5 67.5q0 36 -23 57.5t-67 36.5t-105 30q-70 19 -117 41.5t-70.5 58t-23.5 90.5q0 70 34 118.5t92.5 73t131.5 24.5q48 0 91 -10.5t80.5 -28.5t68.5 -41zM171 831l104 95h79l104 -95l-59 -28l-85 63l-85 -63z" />
    <glyph glyph-name="scircumflex" unicode="&#x15d;" horiz-adv-x="491" 
d="M252 -10q-66 0 -125 21.5t-101 64.5l41 74q45 -40 90.5 -58t90.5 -18q46 0 75 17.5t29 51.5q0 25 -15 37t-43.5 21t-68.5 20q-56 17 -94 35.5t-57 45.5t-19 69q0 51 26 87t72.5 55t107.5 19q57 0 105.5 -17.5t85.5 -54.5l-47 -73q-35 32 -71.5 47t-78.5 15
q-24 0 -46 -5.5t-36.5 -20t-14.5 -40.5q0 -21 12 -34t36 -22t59 -20q61 -18 104 -35.5t66.5 -45t23.5 -75.5q0 -76 -56.5 -118.5t-150.5 -42.5zM109 635l104 95h79l104 -95l-59 -28l-85 63l-85 -63z" />
    <glyph glyph-name="Scedilla" unicode="&#x15e;" horiz-adv-x="611" 
d="M500 543q-10 11 -29 23.5t-45 23.5t-56 18t-62 7q-70 0 -104 -26t-34 -72q0 -34 19 -53.5t58 -32.5t98 -28q72 -17 125 -40.5t81 -62.5t28 -103q0 -54 -20 -93t-56 -63.5t-83 -36t-101 -11.5q-53 0 -105.5 11t-100 32.5t-87.5 52.5l51 96q13 -13 37.5 -28.5t57 -29.5
t71 -23.5t78.5 -9.5q67 0 102.5 23.5t35.5 67.5q0 36 -23 57.5t-67 36.5t-105 30q-70 19 -117 41.5t-70.5 58t-23.5 90.5q0 70 34 118.5t92.5 73t131.5 24.5q48 0 91 -10.5t80.5 -28.5t68.5 -41zM306 -193q-27 0 -58 7t-60 22l28 59q18 -10 34.5 -15.5t36.5 -5.5q28 0 44 12
t16 35t-16 41.5t-46 37.5l38 26q41 -26 66.5 -54.5t25.5 -70.5t-28.5 -68t-80.5 -26z" />
    <glyph glyph-name="scedilla" unicode="&#x15f;" horiz-adv-x="491" 
d="M252 -10q-66 0 -125 21.5t-101 64.5l41 74q45 -40 90.5 -58t90.5 -18q46 0 75 17.5t29 51.5q0 25 -15 37t-43.5 21t-68.5 20q-56 17 -94 35.5t-57 45.5t-19 69q0 51 26 87t72.5 55t107.5 19q57 0 105.5 -17.5t85.5 -54.5l-47 -73q-35 32 -71.5 47t-78.5 15
q-24 0 -46 -5.5t-36.5 -20t-14.5 -40.5q0 -21 12 -34t36 -22t59 -20q61 -18 104 -35.5t66.5 -45t23.5 -75.5q0 -76 -56.5 -118.5t-150.5 -42.5zM240 -193q-27 0 -58 7t-60 22l28 59q18 -10 34.5 -15.5t36.5 -5.5q28 0 44 12t16 35t-16 41.5t-46 37.5l38 26
q41 -26 66.5 -54.5t25.5 -70.5t-28.5 -68t-80.5 -26z" />
    <glyph glyph-name="Scaron" unicode="&#x160;" horiz-adv-x="611" 
d="M500 543q-10 11 -29 23.5t-45 23.5t-56 18t-62 7q-70 0 -104 -26t-34 -72q0 -34 19 -53.5t58 -32.5t98 -28q72 -17 125 -40.5t81 -62.5t28 -103q0 -54 -20 -93t-56 -63.5t-83 -36t-101 -11.5q-53 0 -105.5 11t-100 32.5t-87.5 52.5l51 96q13 -13 37.5 -28.5t57 -29.5
t71 -23.5t78.5 -9.5q67 0 102.5 23.5t35.5 67.5q0 36 -23 57.5t-67 36.5t-105 30q-70 19 -117 41.5t-70.5 58t-23.5 90.5q0 70 34 118.5t92.5 73t131.5 24.5q48 0 91 -10.5t80.5 -28.5t68.5 -41zM229 926l85 -63l85 63l59 -28l-104 -95h-79l-104 95z" />
    <glyph glyph-name="scaron" unicode="&#x161;" horiz-adv-x="491" 
d="M252 -10q-66 0 -125 21.5t-101 64.5l41 74q45 -40 90.5 -58t90.5 -18q46 0 75 17.5t29 51.5q0 25 -15 37t-43.5 21t-68.5 20q-56 17 -94 35.5t-57 45.5t-19 69q0 51 26 87t72.5 55t107.5 19q57 0 105.5 -17.5t85.5 -54.5l-47 -73q-35 32 -71.5 47t-78.5 15
q-24 0 -46 -5.5t-36.5 -20t-14.5 -40.5q0 -21 12 -34t36 -22t59 -20q61 -18 104 -35.5t66.5 -45t23.5 -75.5q0 -76 -56.5 -118.5t-150.5 -42.5zM167 730l85 -63l85 63l59 -28l-104 -95h-79l-104 95z" />
    <glyph glyph-name="uni0162" unicode="&#x162;" horiz-adv-x="616" 
d="M601 611h-236v-611h-113v611h-237v99h586v-99zM298 -193q-27 0 -58 7t-60 22l28 59q18 -10 34.5 -15.5t36.5 -5.5q28 0 44 12t16 35t-16 41.5t-46 37.5l38 26q41 -26 66.5 -54.5t25.5 -70.5t-28.5 -68t-80.5 -26z" />
    <glyph glyph-name="uni0163" unicode="&#x163;" horiz-adv-x="367" 
d="M357 27q-14 -7 -35 -15t-47.5 -14t-54.5 -6q-34 0 -63 12t-46.5 38.5t-17.5 68.5v327h-69v85h69v172h110v-172h114v-85h-114v-292q2 -27 17.5 -40t38.5 -13t44 8t31 13zM207 -193q-27 0 -58 7t-60 22l28 59q18 -10 34.5 -15.5t36.5 -5.5q28 0 44 12t16 35t-16 41.5
t-46 37.5l38 26q41 -26 66.5 -54.5t25.5 -70.5t-28.5 -68t-80.5 -26z" />
    <glyph glyph-name="Tcaron" unicode="&#x164;" horiz-adv-x="616" 
d="M601 611h-236v-611h-113v611h-237v99h586v-99zM227 916l85 -63l85 63l59 -28l-104 -95h-79l-104 95z" />
    <glyph glyph-name="tcaron" unicode="&#x165;" horiz-adv-x="367" 
d="M357 27q-14 -7 -35 -15t-47.5 -14t-54.5 -6q-34 0 -63 12t-46.5 38.5t-17.5 68.5v327h-69v85h69v172h110v-172h114v-85h-114v-292q2 -27 17.5 -40t38.5 -13t44 8t31 13zM329 598l-72 22l57 110h105z" />
    <glyph glyph-name="Tbar" unicode="&#x166;" horiz-adv-x="643" 
d="M74 300v71h495v-71h-495zM614 611h-236v-611h-113v611h-236v99h585v-99z" />
    <glyph glyph-name="tbar" unicode="&#x167;" horiz-adv-x="368" 
d="M34 262v68h272v-68h-272zM358 27q-14 -7 -35 -15t-47.5 -14t-54.5 -6q-34 0 -63 12t-46.5 38.5t-17.5 68.5v327h-69v85h69v172h110v-172h114v-85h-114v-292q2 -27 17.5 -40t38.5 -13t44 8t31 13z" />
    <glyph glyph-name="Utilde" unicode="&#x168;" horiz-adv-x="752" 
d="M376 -5q-85 0 -143.5 29t-94 79t-52 114t-16.5 133v360h112v-360q0 -49 10 -94.5t32 -81.5t59.5 -57t92.5 -21q56 0 93.5 21.5t59 58t31.5 81.5t10 93v360h113v-360q0 -73 -17.5 -137.5t-54 -113t-94.5 -76.5t-141 -28zM440 801q-30 0 -51.5 11t-39 21.5t-39.5 10.5
t-32.5 -11t-13.5 -23t-3 -14h-62q0 8 5 26.5t17.5 39t33 35t51.5 14.5q30 0 50 -11t38.5 -22t42.5 -11q25 0 36 11.5t14.5 23.5t3.5 14h63q0 -7 -5.5 -25t-18.5 -39t-35 -36t-55 -15z" />
    <glyph glyph-name="utilde" unicode="&#x169;" horiz-adv-x="609" 
d="M61 203v320h110v-298q0 -70 25.5 -105.5t74.5 -35.5q31 0 60.5 13t54 38.5t39.5 61.5v326h110v-399q0 -19 7 -27t23 -9v-88q-17 -3 -28 -4t-21 -1q-30 0 -50 16.5t-23 42.5l-2 52q-35 -57 -91 -86.5t-123 -29.5q-82 0 -124 54t-42 159zM361 615q-30 0 -51.5 11t-39 21.5
t-39.5 10.5t-32.5 -11t-13.5 -23t-3 -14h-62q0 8 5 26.5t17.5 39t33 35t51.5 14.5q30 0 50 -11t38.5 -22t42.5 -11q25 0 36 11.5t14.5 23.5t3.5 14h63q0 -7 -5.5 -25t-18.5 -39t-35 -36t-55 -15z" />
    <glyph glyph-name="Umacron" unicode="&#x16a;" horiz-adv-x="752" 
d="M376 -5q-85 0 -143.5 29t-94 79t-52 114t-16.5 133v360h112v-360q0 -49 10 -94.5t32 -81.5t59.5 -57t92.5 -21q56 0 93.5 21.5t59 58t31.5 81.5t10 93v360h113v-360q0 -73 -17.5 -137.5t-54 -113t-94.5 -76.5t-141 -28zM230 830v70h296v-70h-296z" />
    <glyph glyph-name="umacron" unicode="&#x16b;" horiz-adv-x="609" 
d="M61 203v320h110v-298q0 -70 25.5 -105.5t74.5 -35.5q31 0 60.5 13t54 38.5t39.5 61.5v326h110v-399q0 -19 7 -27t23 -9v-88q-17 -3 -28 -4t-21 -1q-30 0 -50 16.5t-23 42.5l-2 52q-35 -57 -91 -86.5t-123 -29.5q-82 0 -124 54t-42 159zM150 644v70h296v-70h-296z" />
    <glyph glyph-name="Ubreve" unicode="&#x16c;" horiz-adv-x="752" 
d="M376 -5q-85 0 -143.5 29t-94 79t-52 114t-16.5 133v360h112v-360q0 -49 10 -94.5t32 -81.5t59.5 -57t92.5 -21q56 0 93.5 21.5t59 58t31.5 81.5t10 93v360h113v-360q0 -73 -17.5 -137.5t-54 -113t-94.5 -76.5t-141 -28zM377 845q22 0 38.5 20.5t19.5 50.5h61
q0 -52 -34 -87t-85 -35t-85 35t-34 87h61q0 -28 17.5 -49.5t40.5 -21.5z" />
    <glyph glyph-name="ubreve" unicode="&#x16d;" horiz-adv-x="609" 
d="M61 203v320h110v-298q0 -70 25.5 -105.5t74.5 -35.5q31 0 60.5 13t54 38.5t39.5 61.5v326h110v-399q0 -19 7 -27t23 -9v-88q-17 -3 -28 -4t-21 -1q-30 0 -50 16.5t-23 42.5l-2 52q-35 -57 -91 -86.5t-123 -29.5q-82 0 -124 54t-42 159zM297 659q22 0 38.5 20.5t19.5 50.5
h61q0 -52 -34 -87t-85 -35t-85 35t-34 87h61q0 -28 17.5 -49.5t40.5 -21.5z" />
    <glyph glyph-name="Uring" unicode="&#x16e;" horiz-adv-x="752" 
d="M376 -5q-85 0 -143.5 29t-94 79t-52 114t-16.5 133v360h112v-360q0 -49 10 -94.5t32 -81.5t59.5 -57t92.5 -21q56 0 93.5 21.5t59 58t31.5 81.5t10 93v360h113v-360q0 -73 -17.5 -137.5t-54 -113t-94.5 -76.5t-141 -28zM277 846q0 41 28 65.5t71 24.5q45 0 72.5 -24.5
t27.5 -65.5q0 -40 -27.5 -63.5t-72.5 -23.5q-43 0 -71 23.5t-28 63.5zM377 892q-19 0 -32.5 -12t-13.5 -33q0 -19 13 -32.5t33 -13.5q18 0 32 13t14 32q0 22 -13.5 34t-32.5 12z" />
    <glyph glyph-name="uring" unicode="&#x16f;" horiz-adv-x="609" 
d="M61 203v320h110v-298q0 -70 25.5 -105.5t74.5 -35.5q31 0 60.5 13t54 38.5t39.5 61.5v326h110v-399q0 -19 7 -27t23 -9v-88q-17 -3 -28 -4t-21 -1q-30 0 -50 16.5t-23 42.5l-2 52q-35 -57 -91 -86.5t-123 -29.5q-82 0 -124 54t-42 159zM198 660q0 41 28 65.5t71 24.5
q45 0 72.5 -24.5t27.5 -65.5q0 -40 -27.5 -63.5t-72.5 -23.5q-43 0 -71 23.5t-28 63.5zM298 706q-19 0 -32.5 -12t-13.5 -33q0 -19 13 -32.5t33 -13.5q18 0 32 13t14 32q0 22 -13.5 34t-32.5 12z" />
    <glyph glyph-name="Uhungarumlaut" unicode="&#x170;" horiz-adv-x="752" 
d="M376 -5q-85 0 -143.5 29t-94 79t-52 114t-16.5 133v360h112v-360q0 -49 10 -94.5t32 -81.5t59.5 -57t92.5 -21q56 0 93.5 21.5t59 58t31.5 81.5t10 93v360h113v-360q0 -73 -17.5 -137.5t-54 -113t-94.5 -76.5t-141 -28zM313 785l-55 22l51 110h89zM461 785l-56 22l51 110
h90z" />
    <glyph glyph-name="uhungarumlaut" unicode="&#x171;" horiz-adv-x="609" 
d="M61 203v320h110v-298q0 -70 25.5 -105.5t74.5 -35.5q31 0 60.5 13t54 38.5t39.5 61.5v326h110v-399q0 -19 7 -27t23 -9v-88q-17 -3 -28 -4t-21 -1q-30 0 -50 16.5t-23 42.5l-2 52q-35 -57 -91 -86.5t-123 -29.5q-82 0 -124 54t-42 159zM234 599l-55 22l51 110h89z
M382 599l-56 22l51 110h90z" />
    <glyph glyph-name="Uogonek" unicode="&#x172;" horiz-adv-x="752" 
d="M376 -5q-85 0 -143.5 29t-94 79t-52 114t-16.5 133v360h112v-360q0 -49 10 -94.5t32 -81.5t59.5 -57t92.5 -21q56 0 93.5 21.5t59 58t31.5 81.5t10 93v360h113v-360q0 -73 -17.5 -137.5t-54 -113t-94.5 -76.5t-141 -28zM299 -107q0 34 24 66t74 63h32l19 -20
q-40 -28 -58.5 -50.5t-18.5 -40.5q0 -19 20 -27.5t56 -10.5l-23 -65q-50 4 -77 17.5t-37.5 31.5t-10.5 36z" />
    <glyph glyph-name="uogonek" unicode="&#x173;" horiz-adv-x="609" 
d="M61 203v320h110v-298q0 -70 25.5 -105.5t74.5 -35.5q31 0 60.5 13t54 38.5t39.5 61.5v326h110v-399q0 -19 7 -27t23 -9v-88q-17 -3 -28 -4t-21 -1q-30 0 -50 16.5t-23 42.5l-2 52q-35 -57 -91 -86.5t-123 -29.5q-82 0 -124 54t-42 159zM416 -109q0 34 24 66t74 63h32
l19 -20q-40 -28 -58.5 -50.5t-18.5 -40.5q0 -19 20 -27.5t56 -10.5l-23 -65q-50 4 -77 17.5t-37.5 31.5t-10.5 36z" />
    <glyph glyph-name="Wcircumflex" unicode="&#x174;" horiz-adv-x="1051" 
d="M332 707h105l88 -241l89 241h105l-122 -316l106 -261l221 580h123l-291 -710h-97l-133 318l-134 -318h-98l-290 710h122l222 -580l106 261zM381 821l104 95h79l104 -95l-59 -28l-85 63l-85 -63z" />
    <glyph glyph-name="wcircumflex" unicode="&#x175;" horiz-adv-x="830" 
d="M718 523h105l-220 -523h-94l-94 236l-94 -236h-94l-221 523h105l168 -416l74 193l-90 222h93l59 -163l58 163h93l-89 -222l74 -193zM271 635l104 95h79l104 -95l-59 -28l-85 63l-85 -63z" />
    <glyph glyph-name="Ycircumflex" unicode="&#x176;" horiz-adv-x="657" 
d="M132 710l196 -353l198 353h123l-265 -456v-254h-112v256l-263 454h123zM185 821l104 95h79l104 -95l-59 -28l-85 63l-85 -63z" />
    <glyph glyph-name="ycircumflex" unicode="&#x177;" horiz-adv-x="547" 
d="M84 -123q15 -2 29.5 -4.5t23.5 -2.5q17 0 29.5 10.5t25.5 38.5t32 81l-215 523h115l160 -411l142 411h106l-237 -644q-11 -29 -32 -53.5t-52 -38.5t-73 -14q-12 0 -25 2t-29 6v96zM140 635l104 95h79l104 -95l-59 -28l-85 63l-85 -63z" />
    <glyph glyph-name="Ydieresis" unicode="&#x178;" horiz-adv-x="657" 
d="M132 710l196 -353l198 353h123l-265 -456v-254h-112v256l-263 454h123zM194 802v110h92v-110h-92zM371 802v110h92v-110h-92z" />
    <glyph glyph-name="Zacute" unicode="&#x179;" horiz-adv-x="629" 
d="M31 86l429 525h-419v99h552v-86l-418 -525h419v-99h-563v86zM366 784l-72 22l57 110h105z" />
    <glyph glyph-name="zacute" unicode="&#x17a;" horiz-adv-x="493" 
d="M28 69l310 376h-299v78h419v-69l-308 -376h311v-78h-433v69zM289 598l-72 22l57 110h105z" />
    <glyph glyph-name="Zdotaccent" unicode="&#x17b;" horiz-adv-x="629" 
d="M31 86l429 525h-419v99h552v-86l-418 -525h419v-99h-563v86zM279 801v115h99v-115h-99z" />
    <glyph glyph-name="zdotaccent" unicode="&#x17c;" horiz-adv-x="493" 
d="M28 69l310 376h-299v78h419v-69l-308 -376h311v-78h-433v69zM202 615v115h99v-115h-99z" />
    <glyph glyph-name="Zcaron" unicode="&#x17d;" horiz-adv-x="629" 
d="M31 86l429 525h-419v99h552v-86l-418 -525h419v-99h-563v86zM243 916l85 -63l85 63l59 -28l-104 -95h-79l-104 95z" />
    <glyph glyph-name="zcaron" unicode="&#x17e;" horiz-adv-x="493" 
d="M28 69l310 376h-299v78h419v-69l-308 -376h311v-78h-433v69zM166 730l85 -63l85 63l59 -28l-104 -95h-79l-104 95z" />
    <glyph glyph-name="uni018F" unicode="&#x18f;" horiz-adv-x="741" 
d="M366 -5q-74 0 -136.5 28.5t-108.5 78t-71.5 112.5t-25.5 133q0 14 1 27.5t2 21.5h554q-5 48 -24 87.5t-48.5 68.5t-66.5 45t-79 16t-80 -15.5t-66 -43t-40 -63.5l-110 43q26 54 72 94.5t105.5 63.5t124.5 23q73 0 134 -29t106 -79t70.5 -114.5t25.5 -136.5
q0 -73 -25 -139t-71 -115.5t-107.5 -78t-135.5 -28.5zM369 95q57 0 103.5 27t75.5 74t34 108h-436q5 -59 35.5 -106.5t79.5 -75t108 -27.5z" />
    <glyph glyph-name="florin" unicode="&#x192;" horiz-adv-x="541" 
d="M156 -191q-36 0 -68.5 11t-57.5 34l49 74q12 -12 29.5 -17.5t34.5 -5.5q20 0 36.5 10t27 27.5t10.5 38.5v396h-69v85h69v69q0 64 20.5 111t58 72.5t88.5 25.5q31 0 63 -8.5t59 -23.5l-24 -82q-14 10 -35 15.5t-40 5.5q-39 0 -59.5 -29t-20.5 -84v-72h134v-85h-134v-393
q0 -51 -23.5 -91t-63 -62t-84.5 -22z" />
    <glyph glyph-name="Ohorn" unicode="&#x1a0;" horiz-adv-x="752" 
d="M375 -5q-77 0 -139 30t-107 81.5t-69.5 116t-24.5 132.5q0 71 26 135.5t72 115t108.5 80t135.5 29.5q76 0 138.5 -31t107 -83t69 -116t24.5 -131q0 -71 -25.5 -135.5t-71.5 -115t-108.5 -79.5t-135.5 -29zM149 355q0 -50 16 -97t45.5 -83.5t71.5 -57.5t94 -21q54 0 96 22
t70.5 59.5t43.5 84t15 93.5q0 50 -15.5 96.5t-45.5 83t-71.5 57.5t-92.5 21q-54 0 -96 -22t-71 -59t-44.5 -83t-15.5 -94zM432 632l2 78q35 0 54 5.5t30 17.5q11 13 13.5 28.5t3.5 34.5h84q0 -20 -3.5 -40t-11 -39.5t-23.5 -36.5q-14 -15 -37 -26t-51.5 -16.5t-60.5 -5.5z
" />
    <glyph glyph-name="ohorn" unicode="&#x1a1;" horiz-adv-x="602" 
d="M301 -10q-62 0 -111 21.5t-84.5 59.5t-54.5 86.5t-19 103.5t19 104t54.5 86.5t85 59t110.5 21.5t110.5 -21.5t85 -59t54.5 -86.5t19 -104t-19 -103.5t-54.5 -86.5t-85 -59.5t-110.5 -21.5zM145 260q0 -50 21 -90t56 -63t79 -23q43 0 78.5 23.5t56.5 64t21 89.5
q0 50 -21 90t-56.5 63.5t-78.5 23.5q-44 0 -79 -24t-56 -63.5t-21 -90.5zM362 446l2 78q35 0 54 5.5t30 17.5q11 13 13.5 28.5t3.5 34.5h84q0 -20 -3.5 -40t-11 -39.5t-23.5 -36.5q-14 -15 -37 -26t-51.5 -16.5t-60.5 -5.5z" />
    <glyph glyph-name="Uhorn" unicode="&#x1af;" horiz-adv-x="752" 
d="M376 -5q-85 0 -143.5 29t-94 79t-52 114t-16.5 133v360h112v-360q0 -49 10 -94.5t32 -81.5t59.5 -57t92.5 -21q56 0 93.5 21.5t59 58t31.5 81.5t10 93v360h113v-360q0 -73 -17.5 -137.5t-54 -113t-94.5 -76.5t-141 -28zM614 633l2 78q35 0 54 5.5t30 17.5
q11 13 13.5 28.5t3.5 34.5h84q0 -20 -3.5 -40t-11 -39.5t-23.5 -36.5q-14 -15 -37 -26t-51.5 -16.5t-60.5 -5.5z" />
    <glyph glyph-name="uhorn" unicode="&#x1b0;" horiz-adv-x="609" 
d="M61 203v320h110v-298q0 -70 25.5 -105.5t74.5 -35.5q31 0 60.5 13t54 38.5t39.5 61.5v326h110v-399q0 -19 7 -27t23 -9v-88q-17 -3 -28 -4t-21 -1q-30 0 -50 16.5t-23 42.5l-2 52q-35 -57 -91 -86.5t-123 -29.5q-82 0 -124 54t-42 159zM469 445l2 78q35 0 54 5.5t30 17.5
q11 13 13.5 28.5t3.5 34.5h84q0 -20 -3.5 -40t-11 -39.5t-23.5 -36.5q-14 -15 -37 -26t-51.5 -16.5t-60.5 -5.5z" />
    <glyph glyph-name="uni01C4" unicode="&#x1c4;" horiz-adv-x="1345" 
d="M747 86l429 525h-419v99h552v-86l-418 -525h419v-99h-563v86zM80 0v710h252q115 0 192 -47.5t115.5 -128t38.5 -178.5q0 -108 -42.5 -188t-120.5 -124t-183 -44h-252zM564 356q0 75 -27.5 132.5t-79 90t-125.5 32.5h-140v-512h140q75 0 126.5 34t78.5 92t27 131zM960 916
l85 -63l85 63l58 -28l-104 -96h-79l-104 96z" />
    <glyph glyph-name="uni01C5" unicode="&#x1c5;" horiz-adv-x="1209" 
d="M80 0v710h252q115 0 192 -47.5t115.5 -128t38.5 -178.5q0 -108 -42.5 -188t-120.5 -124t-183 -44h-252zM564 356q0 75 -27.5 132.5t-79 90t-125.5 32.5h-140v-512h140q75 0 126.5 34t78.5 92t27 131zM744 69l310 376h-299v78h419v-69l-308 -376h311v-78h-433v69zM883 730
l85 -63l85 63l58 -28l-104 -95h-79l-104 95z" />
    <glyph glyph-name="uni01C6" unicode="&#x1c6;" horiz-adv-x="1130" 
d="M33 261q0 75 30.5 136.5t83.5 98t122 36.5q60 0 108.5 -31t75.5 -77v306h110v-606q0 -19 7 -27t23 -9v-88q-31 -5 -48 -5q-31 0 -52.5 18t-22.5 43l-1 39q-30 -50 -81 -77.5t-106 -27.5q-54 0 -99.5 21t-79 59t-52 87t-18.5 104zM453 188v137q-11 32 -35.5 57.5t-55 40.5
t-60.5 15q-35 0 -63.5 -15t-49 -40t-31.5 -57t-11 -67q0 -36 12 -67.5t34.5 -56t52 -38t64.5 -13.5q22 0 44.5 8t43 22t35 33t20.5 41zM665 69l310 376h-300v78h420v-69l-308 -376h311v-78h-433v69zM803 730l85 -63l85 63l59 -28l-104 -95h-79l-104 95z" />
    <glyph glyph-name="uni01C7" unicode="&#x1c7;" horiz-adv-x="1072" 
d="M80 0v710h112v-611h381v-99h-493zM621 125q16 -12 49 -23.5t78 -11.5q44 0 71.5 14.5t42 44t20 75.5t5.5 109v377h113v-361q0 -79 -8.5 -145t-33.5 -114.5t-74.5 -74.5t-132.5 -26q-49 0 -87 11t-70 33z" />
    <glyph glyph-name="uni01C8" unicode="&#x1c8;" horiz-adv-x="833" 
d="M80 0v710h112v-611h381v-99h-493zM595 -191q-36 0 -68.5 11t-57.5 34l49 74q12 -12 29.5 -17.5t34.5 -5.5q20 0 36.5 10t27 27.5t10.5 38.5v542h110v-534q0 -52 -23.5 -93t-62 -64t-85.5 -23zM656 609v121h110v-121h-110z" />
    <glyph glyph-name="uni01C9" unicode="&#x1c9;" horiz-adv-x="549" 
d="M67 730h110v-579q0 -40 12 -51t30 -11q20 0 37.5 4t30.5 10l16 -87q-24 -10 -57 -17t-59 -7q-56 0 -88 31.5t-32 87.5v619zM312 -191q-36 0 -68.5 11t-57.5 34l49 74q12 -12 29.5 -17.5t34.5 -5.5q20 0 36.5 10t27 27.5t10.5 38.5v542h110v-534q0 -52 -23.5 -93t-62 -64
t-85.5 -23zM373 609v121h110v-121h-110z" />
    <glyph glyph-name="uni01CA" unicode="&#x1ca;" horiz-adv-x="1254" 
d="M192 502v-502h-112v710h92l402 -513v512h113v-709h-98zM804 125q16 -12 49 -23.5t78 -11.5q44 0 71.5 14.5t42 44t20 75.5t5.5 109v377h113v-361q0 -79 -8.5 -145t-33.5 -114.5t-74.5 -74.5t-132.5 -26q-49 0 -87 11t-70 33z" />
    <glyph glyph-name="uni01CB" unicode="&#x1cb;" horiz-adv-x="1015" 
d="M192 502v-502h-112v710h92l402 -513v512h113v-709h-98zM778 -191q-36 0 -68.5 11t-57.5 34l49 74q12 -12 29.5 -17.5t34.5 -5.5q20 0 36.5 10t27 27.5t10.5 38.5v542h110v-534q0 -52 -23.5 -93t-62 -64t-85.5 -23zM839 609v121h110v-121h-110z" />
    <glyph glyph-name="uni01CC" unicode="&#x1cc;" horiz-adv-x="845" 
d="M535 0h-110v293q0 73 -23.5 107t-69.5 34q-32 0 -63.5 -16t-56.5 -43.5t-36 -63.5v-311h-110v523h100v-105q20 35 52.5 60.5t73.5 39.5t87 14q47 0 77.5 -17t48 -46.5t24 -68t6.5 -81.5v-319zM608 -191q-36 0 -68.5 11t-57.5 34l49 74q12 -12 29.5 -17.5t34.5 -5.5
q20 0 36.5 10t27 27.5t10.5 38.5v542h110v-534q0 -52 -23.5 -93t-62 -64t-85.5 -23zM669 609v121h110v-121h-110z" />
    <glyph glyph-name="Gcaron" unicode="&#x1e6;" horiz-adv-x="719" 
d="M370 -5q-70 0 -131 29t-106.5 80t-71 116t-25.5 138t25.5 137t71 114t107 78t134.5 28q101 0 170.5 -42.5t104.5 -112.5l-86 -62q-28 58 -79.5 87t-112.5 29q-50 0 -91 -21t-70.5 -57.5t-44.5 -83t-15 -97.5q0 -54 17 -101t48 -82.5t73 -55.5t91 -20q58 0 110.5 29.5
t98.5 88.5v-114q-93 -105 -218 -105zM577 276h-149v83h243v-359h-94v276zM287 916l85 -63l85 63l59 -28l-104 -95h-79l-104 95z" />
    <glyph glyph-name="gcaron" unicode="&#x1e7;" horiz-adv-x="629" 
d="M273 -5q-53 0 -97 21.5t-75.5 58.5t-49 85t-17.5 101q0 56 18 105t50.5 86.5t76.5 58.5t98 21q63 0 110.5 -30t78.5 -78v99h97v-508q0 -76 -36.5 -129t-99.5 -81t-142 -28q-87 0 -144 30t-97 82l62 58q30 -42 77.5 -64t101.5 -22q45 0 83.5 16.5t61.5 51t23 86.5v80
q-28 -47 -77 -73.5t-103 -26.5zM309 84q25 0 48 8.5t42.5 23t33.5 33t20 39.5v137q-13 34 -37 59.5t-54 39.5t-61 14q-36 0 -64.5 -15.5t-48.5 -41t-31 -57.5t-11 -66q0 -36 12.5 -67t34.5 -55.5t52 -38t64 -13.5zM221 730l85 -63l85 63l59 -28l-104 -95h-79l-104 95z" />
    <glyph glyph-name="uni01EA" unicode="&#x1ea;" horiz-adv-x="752" 
d="M375 -5q-77 0 -139 30t-107 81.5t-69.5 116t-24.5 132.5q0 71 26 135.5t72 115t108.5 80t135.5 29.5q76 0 138.5 -31t107 -83t69 -116t24.5 -131q0 -71 -25.5 -135.5t-71.5 -115t-108.5 -79.5t-135.5 -29zM149 355q0 -50 16 -97t45.5 -83.5t71.5 -57.5t94 -21q54 0 96 22
t70.5 59.5t43.5 84t15 93.5q0 50 -15.5 96.5t-45.5 83t-71.5 57.5t-92.5 21q-54 0 -96 -22t-71 -59t-44.5 -83t-15.5 -94zM308 -102q0 34 24 66t74 63h32l19 -20q-40 -28 -58.5 -50.5t-18.5 -40.5q0 -19 20 -27.5t56 -10.5l-23 -65q-50 4 -77 17.5t-37.5 31.5t-10.5 36z" />
    <glyph glyph-name="uni01EB" unicode="&#x1eb;" horiz-adv-x="602" 
d="M301 -10q-62 0 -111 21.5t-84.5 59.5t-54.5 86.5t-19 103.5t19 104t54.5 86.5t85 59t110.5 21.5t110.5 -21.5t85 -59t54.5 -86.5t19 -104t-19 -103.5t-54.5 -86.5t-85 -59.5t-110.5 -21.5zM145 260q0 -50 21 -90t56 -63t79 -23q43 0 78.5 23.5t56.5 64t21 89.5
q0 50 -21 90t-56.5 63.5t-78.5 23.5q-44 0 -79 -24t-56 -63.5t-21 -90.5zM228 -109q0 34 24 66t74 63h32l19 -20q-40 -28 -58.5 -50.5t-18.5 -40.5q0 -19 20 -27.5t56 -10.5l-23 -65q-50 4 -77 17.5t-37.5 31.5t-10.5 36z" />
    <glyph glyph-name="uni01F1" unicode="&#x1f1;" horiz-adv-x="1333" 
d="M80 0v710h252q115 0 192 -47.5t115.5 -128t38.5 -178.5q0 -108 -42.5 -188t-120.5 -124t-183 -44h-252zM564 356q0 75 -27.5 132.5t-79 90t-125.5 32.5h-140v-512h140q75 0 126.5 34t78.5 92t27 131zM735 86l429 525h-419v99h552v-86l-418 -525h419v-99h-563v86z" />
    <glyph glyph-name="uni01F2" unicode="&#x1f2;" horiz-adv-x="1208" 
d="M80 0v710h252q115 0 192 -47.5t115.5 -128t38.5 -178.5q0 -108 -42.5 -188t-120.5 -124t-183 -44h-252zM564 356q0 75 -27.5 132.5t-79 90t-125.5 32.5h-140v-512h140q75 0 126.5 34t78.5 92t27 131zM743 69l310 376h-299v78h419v-69l-308 -376h311v-78h-433v69z" />
    <glyph glyph-name="uni01F3" unicode="&#x1f3;" horiz-adv-x="1130" 
d="M33 261q0 75 30.5 136.5t83.5 98t122 36.5q60 0 108.5 -31t75.5 -77v306h110v-606q0 -19 7 -27t23 -9v-88q-31 -5 -48 -5q-31 0 -52.5 18t-22.5 43l-1 39q-30 -50 -81 -77.5t-106 -27.5q-54 0 -99.5 21t-79 59t-52 87t-18.5 104zM453 188v137q-11 32 -35.5 57.5t-55 40.5
t-60.5 15q-35 0 -63.5 -15t-49 -40t-31.5 -57t-11 -67q0 -36 12 -67.5t34.5 -56t52 -38t64.5 -13.5q22 0 44.5 8t43 22t35 33t20.5 41zM665 69l310 376h-299v78h419v-69l-308 -376h311v-78h-433v69z" />
    <glyph glyph-name="Gacute" unicode="&#x1f4;" horiz-adv-x="719" 
d="M370 -5q-70 0 -131 29t-106.5 80t-71 116t-25.5 138t25.5 137t71 114t107 78t134.5 28q101 0 170.5 -42.5t104.5 -112.5l-86 -62q-28 58 -79.5 87t-112.5 29q-50 0 -91 -21t-70.5 -57.5t-44.5 -83t-15 -97.5q0 -54 17 -101t48 -82.5t73 -55.5t91 -20q58 0 110.5 29.5
t98.5 88.5v-114q-93 -105 -218 -105zM577 276h-149v83h243v-359h-94v276zM403 784l-72 22l57 110h105z" />
    <glyph glyph-name="gacute" unicode="&#x1f5;" horiz-adv-x="628" 
d="M272 -5q-53 0 -97 21.5t-75.5 58.5t-49 85t-17.5 101q0 56 18 105t50.5 86.5t76.5 58.5t98 21q63 0 110.5 -30t78.5 -78v99h97v-508q0 -76 -36.5 -129t-99.5 -81t-142 -28q-87 0 -144 30t-97 82l62 58q30 -42 77.5 -64t101.5 -22q45 0 83.5 16.5t61.5 51t23 86.5v80
q-28 -47 -77 -73.5t-103 -26.5zM308 84q25 0 48 8.5t42.5 23t33.5 33t20 39.5v137q-13 34 -37 59.5t-54 39.5t-61 14q-36 0 -64.5 -15.5t-48.5 -41t-31 -57.5t-11 -66q0 -36 12.5 -67t34.5 -55.5t52 -38t64 -13.5zM336 598l-72 22l57 110h105z" />
    <glyph glyph-name="Aringacute" unicode="&#x1fa;" horiz-adv-x="675" 
d="M369 811l-72 21l57 102h105zM285 710h106l276 -710h-118l-75 193h-274l-74 -193h-119zM452 276l-114 311l-118 -311h232zM238 766q0 41 28 65t72 24t72 -24t28 -65q0 -40 -28 -64t-72 -24t-72 24t-28 64zM338 812q-19 0 -32.5 -12.5t-13.5 -33.5q0 -19 13.5 -32t32.5 -13
q18 0 32 12.5t14 32.5q0 21 -13.5 33.5t-32.5 12.5z" />
    <glyph glyph-name="aringacute" unicode="&#x1fb;" horiz-adv-x="564" 
d="M28 153q0 50 28.5 87.5t78.5 58t116 20.5q35 0 71.5 -5t64.5 -16v33q0 55 -33 86t-95 31q-44 0 -83 -15.5t-83 -43.5l-37 74q52 35 104.5 52t110.5 17q105 0 165.5 -55.5t60.5 -157.5v-195q0 -19 6.5 -27t22.5 -9v-88q-15 -3 -27 -4t-20 -1q-35 0 -53 17t-21 40l-3 30
q-34 -44 -87 -68t-107 -24q-52 0 -93 21.5t-64 58.5t-23 83zM361 121q12 13 19 26t7 23v60q-28 11 -59 16.5t-61 5.5q-60 0 -97.5 -24t-37.5 -66q0 -23 12.5 -44t36 -34t58.5 -13q36 0 69 14t53 36zM170 660q0 41 28 65.5t71 24.5q45 0 72.5 -24.5t27.5 -65.5
q0 -40 -27.5 -63.5t-72.5 -23.5q-43 0 -71 23.5t-28 63.5zM270 706q-19 0 -32.5 -12t-13.5 -33q0 -19 13 -32.5t33 -13.5q18 0 32 13t14 32q0 22 -13.5 34t-32.5 12zM316 784l-72 22l57 110h105z" />
    <glyph glyph-name="AEacute" unicode="&#x1fc;" horiz-adv-x="963" 
d="M423 710h496v-99h-354v-200h300v-99h-300v-213h363v-99h-475v193h-239l-118 -193h-121zM445 293v288l-182 -288h182zM644 784l-72 22l57 110h105z" />
    <glyph glyph-name="aeacute" unicode="&#x1fd;" horiz-adv-x="935" 
d="M204 -10q-50 0 -90 21.5t-63 59t-23 83.5q0 49 28 86t78 58t114 21q34 0 66 -5t58 -15q2 14 4.5 29t6.5 27q-5 47 -37 73t-88 26q-41 0 -81.5 -15t-83.5 -45l-35 70q103 68 210 68q63 0 109 -22.5t73 -62.5q33 38 82 61.5t109 23.5q82 0 142.5 -37t94 -98.5t33.5 -135.5
q0 -8 -1 -18.5t-2 -17.5h-427q4 -46 27 -80.5t59.5 -54t79.5 -19.5q44 0 83.5 22t53.5 58l94 -27q-17 -38 -51.5 -68.5t-81 -48t-102.5 -17.5q-72 0 -129 30.5t-92 80.5q-23 -40 -60 -64t-78.5 -35.5t-79.5 -11.5zM234 71q41 0 76.5 15t55.5 40q19 17 21 35q-7 16 -10.5 38
t-4.5 39q-24 8 -52 13t-54 5q-59 0 -97 -26t-38 -67q0 -25 13.5 -46.5t37 -33.5t52.5 -12zM801 295q-4 46 -25.5 81.5t-56.5 55t-80 19.5q-43 0 -78.5 -20t-57 -55t-24.5 -81h322zM503 598l-72 22l57 110h105z" />
    <glyph glyph-name="Oslashacute" unicode="&#x1fe;" horiz-adv-x="751" 
d="M375 -5q-77 0 -139 30t-107 81.5t-69.5 116t-24.5 132.5q0 71 26 135.5t72 115t108.5 80t135.5 29.5q76 0 138.5 -31t107 -83t69 -116t24.5 -131q0 -71 -25.5 -135.5t-71.5 -115t-108.5 -79.5t-135.5 -29zM149 355q0 -50 16 -97t45.5 -83.5t71.5 -57.5t94 -21q54 0 96 22
t70.5 59.5t43.5 84t15 93.5q0 50 -15.5 96.5t-45.5 83t-71.5 57.5t-92.5 21q-54 0 -96 -22t-71 -59t-44.5 -83t-15.5 -94zM680 710l-487 -710h-122l487 710h122zM415 784l-72 22l57 110h105z" />
    <glyph glyph-name="oslashacute" unicode="&#x1ff;" horiz-adv-x="602" 
d="M301 -10q-62 0 -111 21.5t-84.5 59.5t-54.5 87t-19 103t19 103.5t54.5 87t85 59t110.5 21.5t110.5 -21.5t85 -59t54.5 -87t19 -103.5t-19 -103t-54.5 -87t-85 -59.5t-110.5 -21.5zM301 84q43 0 78.5 23.5t56.5 64t21 89.5q0 50 -21 90t-56.5 63.5t-78.5 23.5
q-44 0 -79 -23.5t-56 -63.5t-21 -91q0 -50 21 -90t56 -63t79 -23zM54 -3l90 111l53 -35l-63 -76h-80zM206 82l-48 31l239 334l55 -26zM466 428l-60 27l57 71h82zM294 598l-72 22l57 110h105z" />
    <glyph glyph-name="uni0200" unicode="&#x200;" horiz-adv-x="675" 
d="M285 710h106l276 -710h-118l-75 193h-274l-74 -193h-119zM452 276l-114 311l-118 -311h232zM311 917h89l51 -110l-55 -22zM163 917h90l51 -110l-56 -22z" />
    <glyph glyph-name="uni0201" unicode="&#x201;" horiz-adv-x="564" 
d="M28 153q0 50 28.5 87.5t78.5 58t116 20.5q35 0 71.5 -5t64.5 -16v33q0 55 -33 86t-95 31q-44 0 -83 -15.5t-83 -43.5l-37 74q52 35 104.5 52t110.5 17q105 0 165.5 -55.5t60.5 -157.5v-195q0 -19 6.5 -27t22.5 -9v-88q-15 -3 -27 -4t-20 -1q-35 0 -53 17t-21 40l-3 30
q-34 -44 -87 -68t-107 -24q-52 0 -93 21.5t-64 58.5t-23 83zM361 121q12 13 19 26t7 23v60q-28 11 -59 16.5t-61 5.5q-60 0 -97.5 -24t-37.5 -66q0 -23 12.5 -44t36 -34t58.5 -13q36 0 69 14t53 36zM242 731h89l51 -110l-55 -22zM94 731h90l51 -110l-56 -22z" />
    <glyph glyph-name="uni0202" unicode="&#x202;" horiz-adv-x="675" 
d="M285 710h106l276 -710h-118l-75 193h-274l-74 -193h-119zM452 276l-114 311l-118 -311h232zM338 865q-23 0 -40.5 -21.5t-17.5 -49.5h-61q0 52 34 87t85 35t85 -35t34 -87h-61q-3 30 -19.5 50.5t-38.5 20.5z" />
    <glyph glyph-name="uni0203" unicode="&#x203;" horiz-adv-x="564" 
d="M28 153q0 50 28.5 87.5t78.5 58t116 20.5q35 0 71.5 -5t64.5 -16v33q0 55 -33 86t-95 31q-44 0 -83 -15.5t-83 -43.5l-37 74q52 35 104.5 52t110.5 17q105 0 165.5 -55.5t60.5 -157.5v-195q0 -19 6.5 -27t22.5 -9v-88q-15 -3 -27 -4t-20 -1q-35 0 -53 17t-21 40l-3 30
q-34 -44 -87 -68t-107 -24q-52 0 -93 21.5t-64 58.5t-23 83zM361 121q12 13 19 26t7 23v60q-28 11 -59 16.5t-61 5.5q-60 0 -97.5 -24t-37.5 -66q0 -23 12.5 -44t36 -34t58.5 -13q36 0 69 14t53 36zM269 679q-23 0 -40.5 -21.5t-17.5 -49.5h-61q0 52 34 87t85 35t85 -35
t34 -87h-61q-3 30 -19.5 50.5t-38.5 20.5z" />
    <glyph glyph-name="uni0204" unicode="&#x204;" horiz-adv-x="603" 
d="M567 99v-99h-487v710h478v-99h-366v-202h317v-93h-317v-217h375zM303 917h89l51 -110l-55 -22zM155 917h90l51 -110l-56 -22z" />
    <glyph glyph-name="uni0205" unicode="&#x205;" horiz-adv-x="595" 
d="M303 -10q-61 0 -110.5 21.5t-85.5 59t-55.5 86t-19.5 103.5q0 74 34 135.5t95 99t143 37.5t141.5 -37.5t92.5 -98.5t33 -131q0 -12 -1 -22.5t-2 -17.5h-419q3 -46 25.5 -80.5t57.5 -54t75 -19.5q44 0 83.5 22t53.5 58l94 -27q-17 -38 -51.5 -68.5t-81.5 -48t-102 -17.5z
M146 298h316q-3 45 -25.5 79.5t-57 54t-76.5 19.5q-41 0 -75.5 -19.5t-56.5 -54t-25 -79.5zM274 731h89l51 -110l-55 -22zM126 731h90l51 -110l-56 -22z" />
    <glyph glyph-name="uni0206" unicode="&#x206;" horiz-adv-x="603" 
d="M567 99v-99h-487v710h478v-99h-366v-202h317v-93h-317v-217h375zM330 865q-23 0 -40.5 -21.5t-17.5 -49.5h-61q0 52 34 87t85 35t85 -35t34 -87h-61q-3 30 -19.5 50.5t-38.5 20.5z" />
    <glyph glyph-name="uni0207" unicode="&#x207;" horiz-adv-x="595" 
d="M303 -10q-61 0 -110.5 21.5t-85.5 59t-55.5 86t-19.5 103.5q0 74 34 135.5t95 99t143 37.5t141.5 -37.5t92.5 -98.5t33 -131q0 -12 -1 -22.5t-2 -17.5h-419q3 -46 25.5 -80.5t57.5 -54t75 -19.5q44 0 83.5 22t53.5 58l94 -27q-17 -38 -51.5 -68.5t-81.5 -48t-102 -17.5z
M146 298h316q-3 45 -25.5 79.5t-57 54t-76.5 19.5q-41 0 -75.5 -19.5t-56.5 -54t-25 -79.5zM301 679q-23 0 -40.5 -21.5t-17.5 -49.5h-61q0 52 34 87t85 35t85 -35t34 -87h-61q-3 30 -19.5 50.5t-38.5 20.5z" />
    <glyph glyph-name="uni0208" unicode="&#x208;" horiz-adv-x="272" 
d="M80 0v710h112v-710h-112zM109 917h89l51 -110l-55 -22zM-39 917h90l51 -110l-56 -22z" />
    <glyph glyph-name="uni0209" unicode="&#x209;" horiz-adv-x="242" 
d="M66 0v523h110v-523h-110zM94 731h89l51 -110l-55 -22zM-54 731h90l51 -110l-56 -22z" />
    <glyph glyph-name="uni020A" unicode="&#x20a;" horiz-adv-x="272" 
d="M80 0v710h112v-710h-112zM136 865q-23 0 -40.5 -21.5t-17.5 -49.5h-61q0 52 34 87t85 35t85 -35t34 -87h-61q-3 30 -19.5 50.5t-38.5 20.5z" />
    <glyph glyph-name="uni020B" unicode="&#x20b;" horiz-adv-x="242" 
d="M66 0v523h110v-523h-110zM121 679q-23 0 -40.5 -21.5t-17.5 -49.5h-61q0 52 34 87t85 35t85 -35t34 -87h-61q-3 30 -19.5 50.5t-38.5 20.5z" />
    <glyph glyph-name="uni020C" unicode="&#x20c;" horiz-adv-x="752" 
d="M375 -5q-77 0 -139 30t-107 81.5t-69.5 116t-24.5 132.5q0 71 26 135.5t72 115t108.5 80t135.5 29.5q76 0 138.5 -31t107 -83t69 -116t24.5 -131q0 -71 -25.5 -135.5t-71.5 -115t-108.5 -79.5t-135.5 -29zM149 355q0 -50 16 -97t45.5 -83.5t71.5 -57.5t94 -21q54 0 96 22
t70.5 59.5t43.5 84t15 93.5q0 50 -15.5 96.5t-45.5 83t-71.5 57.5t-92.5 21q-54 0 -96 -22t-71 -59t-44.5 -83t-15.5 -94zM350 917h89l51 -110l-55 -22zM202 917h90l51 -110l-56 -22z" />
    <glyph glyph-name="uni020D" unicode="&#x20d;" horiz-adv-x="602" 
d="M301 -10q-62 0 -111 21.5t-84.5 59.5t-54.5 86.5t-19 103.5t19 104t54.5 86.5t85 59t110.5 21.5t110.5 -21.5t85 -59t54.5 -86.5t19 -104t-19 -103.5t-54.5 -86.5t-85 -59.5t-110.5 -21.5zM145 260q0 -50 21 -90t56 -63t79 -23q43 0 78.5 23.5t56.5 64t21 89.5
q0 50 -21 90t-56.5 63.5t-78.5 23.5q-44 0 -79 -24t-56 -63.5t-21 -90.5zM274 731h89l51 -110l-55 -22zM126 731h90l51 -110l-56 -22z" />
    <glyph glyph-name="uni020E" unicode="&#x20e;" horiz-adv-x="752" 
d="M375 -5q-77 0 -139 30t-107 81.5t-69.5 116t-24.5 132.5q0 71 26 135.5t72 115t108.5 80t135.5 29.5q76 0 138.5 -31t107 -83t69 -116t24.5 -131q0 -71 -25.5 -135.5t-71.5 -115t-108.5 -79.5t-135.5 -29zM149 355q0 -50 16 -97t45.5 -83.5t71.5 -57.5t94 -21q54 0 96 22
t70.5 59.5t43.5 84t15 93.5q0 50 -15.5 96.5t-45.5 83t-71.5 57.5t-92.5 21q-54 0 -96 -22t-71 -59t-44.5 -83t-15.5 -94zM377 865q-23 0 -40.5 -21.5t-17.5 -49.5h-61q0 52 34 87t85 35t85 -35t34 -87h-61q-3 30 -19.5 50.5t-38.5 20.5z" />
    <glyph glyph-name="uni020F" unicode="&#x20f;" horiz-adv-x="602" 
d="M301 -10q-62 0 -111 21.5t-84.5 59.5t-54.5 86.5t-19 103.5t19 104t54.5 86.5t85 59t110.5 21.5t110.5 -21.5t85 -59t54.5 -86.5t19 -104t-19 -103.5t-54.5 -86.5t-85 -59.5t-110.5 -21.5zM145 260q0 -50 21 -90t56 -63t79 -23q43 0 78.5 23.5t56.5 64t21 89.5
q0 50 -21 90t-56.5 63.5t-78.5 23.5q-44 0 -79 -24t-56 -63.5t-21 -90.5zM301 679q-23 0 -40.5 -21.5t-17.5 -49.5h-61q0 52 34 87t85 35t85 -35t34 -87h-61q-3 30 -19.5 50.5t-38.5 20.5z" />
    <glyph glyph-name="uni0210" unicode="&#x210;" horiz-adv-x="661" 
d="M80 0v710h309q48 0 88 -20t69.5 -53t46 -74t16.5 -84q0 -47 -17 -90t-48.5 -74t-73.5 -45l167 -270h-126l-154 247h-165v-247h-112zM192 346h196q31 0 55 18t38 48.5t14 66.5q0 37 -16 66.5t-41.5 47.5t-55.5 18h-190v-265zM284 918h89l51 -110l-55 -22zM136 918h90
l51 -110l-56 -22z" />
    <glyph glyph-name="uni0211" unicode="&#x211;" horiz-adv-x="374" 
d="M360 428q-64 -1 -113.5 -29t-70.5 -79v-320h-110v523h102v-117q27 54 71 86.5t93 35.5h16.5t11.5 -1v-99zM186 731h89l51 -110l-55 -22zM38 731h90l51 -110l-56 -22z" />
    <glyph glyph-name="uni0212" unicode="&#x212;" horiz-adv-x="661" 
d="M80 0v710h309q48 0 88 -20t69.5 -53t46 -74t16.5 -84q0 -47 -17 -90t-48.5 -74t-73.5 -45l167 -270h-126l-154 247h-165v-247h-112zM192 346h196q31 0 55 18t38 48.5t14 66.5q0 37 -16 66.5t-41.5 47.5t-55.5 18h-190v-265zM311 866q-23 0 -40.5 -21.5t-17.5 -49.5h-61
q0 52 34 87t85 35t85 -35t34 -87h-61q-3 30 -19.5 50.5t-38.5 20.5z" />
    <glyph glyph-name="uni0213" unicode="&#x213;" horiz-adv-x="374" 
d="M360 428q-64 -1 -113.5 -29t-70.5 -79v-320h-110v523h102v-117q27 54 71 86.5t93 35.5h16.5t11.5 -1v-99zM213 679q-23 0 -40.5 -21.5t-17.5 -49.5h-61q0 52 34 87t85 35t85 -35t34 -87h-61q-3 30 -19.5 50.5t-38.5 20.5z" />
    <glyph glyph-name="uni0214" unicode="&#x214;" horiz-adv-x="752" 
d="M376 -5q-85 0 -143.5 29t-94 79t-52 114t-16.5 133v360h112v-360q0 -49 10 -94.5t32 -81.5t59.5 -57t92.5 -21q56 0 93.5 21.5t59 58t31.5 81.5t10 93v360h113v-360q0 -73 -17.5 -137.5t-54 -113t-94.5 -76.5t-141 -28zM350 917h89l51 -110l-55 -22zM202 917h90l51 -110
l-56 -22z" />
    <glyph glyph-name="uni0215" unicode="&#x215;" horiz-adv-x="609" 
d="M61 203v320h110v-298q0 -70 25.5 -105.5t74.5 -35.5q31 0 60.5 13t54 38.5t39.5 61.5v326h110v-399q0 -19 7 -27t23 -9v-88q-17 -3 -28 -4t-21 -1q-30 0 -50 16.5t-23 42.5l-2 52q-35 -57 -91 -86.5t-123 -29.5q-82 0 -124 54t-42 159zM270 731h89l51 -110l-55 -22z
M122 731h90l51 -110l-56 -22z" />
    <glyph glyph-name="uni0216" unicode="&#x216;" horiz-adv-x="752" 
d="M376 -5q-85 0 -143.5 29t-94 79t-52 114t-16.5 133v360h112v-360q0 -49 10 -94.5t32 -81.5t59.5 -57t92.5 -21q56 0 93.5 21.5t59 58t31.5 81.5t10 93v360h113v-360q0 -73 -17.5 -137.5t-54 -113t-94.5 -76.5t-141 -28zM377 865q-23 0 -40.5 -21.5t-17.5 -49.5h-61
q0 52 34 87t85 35t85 -35t34 -87h-61q-3 30 -19.5 50.5t-38.5 20.5z" />
    <glyph glyph-name="uni0217" unicode="&#x217;" horiz-adv-x="609" 
d="M61 203v320h110v-298q0 -70 25.5 -105.5t74.5 -35.5q31 0 60.5 13t54 38.5t39.5 61.5v326h110v-399q0 -19 7 -27t23 -9v-88q-17 -3 -28 -4t-21 -1q-30 0 -50 16.5t-23 42.5l-2 52q-35 -57 -91 -86.5t-123 -29.5q-82 0 -124 54t-42 159zM297 679q-23 0 -40.5 -21.5
t-17.5 -49.5h-61q0 52 34 87t85 35t85 -35t34 -87h-61q-3 30 -19.5 50.5t-38.5 20.5z" />
    <glyph glyph-name="uni0218" unicode="&#x218;" horiz-adv-x="611" 
d="M500 543q-10 11 -29 23.5t-45 23.5t-56 18t-62 7q-70 0 -104 -26t-34 -72q0 -34 19 -53.5t58 -32.5t98 -28q72 -17 125 -40.5t81 -62.5t28 -103q0 -54 -20 -93t-56 -63.5t-83 -36t-101 -11.5q-53 0 -105.5 11t-100 32.5t-87.5 52.5l51 96q13 -13 37.5 -28.5t57 -29.5
t71 -23.5t78.5 -9.5q67 0 102.5 23.5t35.5 67.5q0 36 -23 57.5t-67 36.5t-105 30q-70 19 -117 41.5t-70.5 58t-23.5 90.5q0 70 34 118.5t92.5 73t131.5 24.5q48 0 91 -10.5t80.5 -28.5t68.5 -41zM277 -213l23 77h-32v88h95v-88l-35 -77h-51z" />
    <glyph glyph-name="uni0219" unicode="&#x219;" horiz-adv-x="491" 
d="M252 -10q-66 0 -125 21.5t-101 64.5l41 74q45 -40 90.5 -58t90.5 -18q46 0 75 17.5t29 51.5q0 25 -15 37t-43.5 21t-68.5 20q-56 17 -94 35.5t-57 45.5t-19 69q0 51 26 87t72.5 55t107.5 19q57 0 105.5 -17.5t85.5 -54.5l-47 -73q-35 32 -71.5 47t-78.5 15
q-24 0 -46 -5.5t-36.5 -20t-14.5 -40.5q0 -21 12 -34t36 -22t59 -20q61 -18 104 -35.5t66.5 -45t23.5 -75.5q0 -76 -56.5 -118.5t-150.5 -42.5zM210 -213l23 77h-32v88h95v-88l-35 -77h-51z" />
    <glyph glyph-name="uni021A" unicode="&#x21a;" horiz-adv-x="616" 
d="M601 611h-236v-611h-113v611h-237v99h586v-99zM268 -213l23 77h-32v88h95v-88l-35 -77h-51z" />
    <glyph glyph-name="uni021B" unicode="&#x21b;" horiz-adv-x="367" 
d="M357 27q-14 -7 -35 -15t-47.5 -14t-54.5 -6q-34 0 -63 12t-46.5 38.5t-17.5 68.5v327h-69v85h69v172h110v-172h114v-85h-114v-292q2 -27 17.5 -40t38.5 -13t44 8t31 13zM178 -213l23 77h-32v88h95v-88l-35 -77h-51z" />
    <glyph glyph-name="uni022A" unicode="&#x22a;" horiz-adv-x="752" 
d="M375 -5q-77 0 -139 30t-107 81.5t-69.5 116t-24.5 132.5q0 71 26 135.5t72 115t108.5 80t135.5 29.5q76 0 138.5 -31t107 -83t69 -116t24.5 -131q0 -71 -25.5 -135.5t-71.5 -115t-108.5 -79.5t-135.5 -29zM149 355q0 -50 16 -97t45.5 -83.5t71.5 -57.5t94 -21q54 0 96 22
t70.5 59.5t43.5 84t15 93.5q0 50 -15.5 96.5t-45.5 83t-71.5 57.5t-92.5 21q-54 0 -96 -22t-71 -59t-44.5 -83t-15.5 -94zM243 802v110h92v-110h-92zM420 802v110h92v-110h-92zM230 1028v70h296v-70h-296z" />
    <glyph glyph-name="uni022B" unicode="&#x22b;" horiz-adv-x="602" 
d="M301 -10q-62 0 -111 21.5t-84.5 59.5t-54.5 86.5t-19 103.5t19 104t54.5 86.5t85 59t110.5 21.5t110.5 -21.5t85 -59t54.5 -86.5t19 -104t-19 -103.5t-54.5 -86.5t-85 -59.5t-110.5 -21.5zM145 260q0 -50 21 -90t56 -63t79 -23q43 0 78.5 23.5t56.5 64t21 89.5
q0 50 -21 90t-56.5 63.5t-78.5 23.5q-44 0 -79 -24t-56 -63.5t-21 -90.5zM166 616v110h92v-110h-92zM343 616v110h92v-110h-92zM154 842v70h296v-70h-296z" />
    <glyph glyph-name="uni022C" unicode="&#x22c;" horiz-adv-x="752" 
d="M375 -5q-77 0 -139 30t-107 81.5t-69.5 116t-24.5 132.5q0 71 26 135.5t72 115t108.5 80t135.5 29.5q76 0 138.5 -31t107 -83t69 -116t24.5 -131q0 -71 -25.5 -135.5t-71.5 -115t-108.5 -79.5t-135.5 -29zM149 355q0 -50 16 -97t45.5 -83.5t71.5 -57.5t94 -21q54 0 96 22
t70.5 59.5t43.5 84t15 93.5q0 50 -15.5 96.5t-45.5 83t-71.5 57.5t-92.5 21q-54 0 -96 -22t-71 -59t-44.5 -83t-15.5 -94zM441 801q-30 0 -51.5 11t-39 21.5t-39.5 10.5t-32.5 -11t-13.5 -23t-3 -14h-62q0 8 5 26.5t17.5 39t33 35t51.5 14.5q30 0 50 -11t38.5 -22t42.5 -11
q25 0 36 11.5t14.5 23.5t3.5 14h63q0 -7 -5.5 -25t-18.5 -39t-35 -36t-55 -15zM230 1037v70h296v-70h-296z" />
    <glyph glyph-name="uni022D" unicode="&#x22d;" horiz-adv-x="602" 
d="M301 -10q-62 0 -111 21.5t-84.5 59.5t-54.5 86.5t-19 103.5t19 104t54.5 86.5t85 59t110.5 21.5t110.5 -21.5t85 -59t54.5 -86.5t19 -104t-19 -103.5t-54.5 -86.5t-85 -59.5t-110.5 -21.5zM145 260q0 -50 21 -90t56 -63t79 -23q43 0 78.5 23.5t56.5 64t21 89.5
q0 50 -21 90t-56.5 63.5t-78.5 23.5q-44 0 -79 -24t-56 -63.5t-21 -90.5zM365 615q-30 0 -51.5 11t-39 21.5t-39.5 10.5t-32.5 -11t-13.5 -23t-3 -14h-62q0 8 5 26.5t17.5 39t33 35t51.5 14.5q30 0 50 -11t38.5 -22t42.5 -11q25 0 36 11.5t14.5 23.5t3.5 14h63
q0 -7 -5.5 -25t-18.5 -39t-35 -36t-55 -15zM154 851v70h296v-70h-296z" />
    <glyph glyph-name="uni0230" unicode="&#x230;" horiz-adv-x="752" 
d="M375 -5q-77 0 -139 30t-107 81.5t-69.5 116t-24.5 132.5q0 71 26 135.5t72 115t108.5 80t135.5 29.5q76 0 138.5 -31t107 -83t69 -116t24.5 -131q0 -71 -25.5 -135.5t-71.5 -115t-108.5 -79.5t-135.5 -29zM149 355q0 -50 16 -97t45.5 -83.5t71.5 -57.5t94 -21q54 0 96 22
t70.5 59.5t43.5 84t15 93.5q0 50 -15.5 96.5t-45.5 83t-71.5 57.5t-92.5 21q-54 0 -96 -22t-71 -59t-44.5 -83t-15.5 -94zM327 801v115h99v-115h-99zM230 1037v70h296v-70h-296z" />
    <glyph glyph-name="uni0231" unicode="&#x231;" horiz-adv-x="602" 
d="M301 -10q-62 0 -111 21.5t-84.5 59.5t-54.5 86.5t-19 103.5t19 104t54.5 86.5t85 59t110.5 21.5t110.5 -21.5t85 -59t54.5 -86.5t19 -104t-19 -103.5t-54.5 -86.5t-85 -59.5t-110.5 -21.5zM145 260q0 -50 21 -90t56 -63t79 -23q43 0 78.5 23.5t56.5 64t21 89.5
q0 50 -21 90t-56.5 63.5t-78.5 23.5q-44 0 -79 -24t-56 -63.5t-21 -90.5zM251 615v115h99v-115h-99zM154 851v70h296v-70h-296z" />
    <glyph glyph-name="uni0232" unicode="&#x232;" horiz-adv-x="657" 
d="M132 710l196 -353l198 353h123l-265 -456v-254h-112v256l-263 454h123zM181 830v70h296v-70h-296z" />
    <glyph glyph-name="uni0233" unicode="&#x233;" horiz-adv-x="547" 
d="M84 -123q15 -2 29.5 -4.5t23.5 -2.5q17 0 29.5 10.5t25.5 38.5t32 81l-215 523h115l160 -411l142 411h106l-237 -644q-11 -29 -32 -53.5t-52 -38.5t-73 -14q-12 0 -25 2t-29 6v96zM137 644v70h296v-70h-296z" />
    <glyph glyph-name="uni0237" unicode="&#x237;" horiz-adv-x="242" 
d="M5 -191q-36 0 -68.5 11t-58.5 34l49 74q13 -12 30.5 -17.5t34.5 -5.5q20 0 36.5 10t27 27.5t10.5 38.5v542h110v-534q0 -52 -23.5 -93t-62.5 -64t-85 -23z" />
    <glyph glyph-name="uni0259" unicode="&#x259;" horiz-adv-x="595" 
d="M294 -10q-81 0 -142 37t-94 99t-34 135q0 8 1 18.5t2 17.5h419q-4 47 -26 81t-56.5 53t-75.5 19q-44 0 -83 -21.5t-54 -57.5l-95 27q19 39 53.5 69.5t81 47.5t102.5 17q61 0 110.5 -21.5t85 -59t55 -86.5t19.5 -104q0 -74 -33 -135.5t-93.5 -98.5t-142.5 -37zM296 71
q42 0 75 20t53.5 55t23.5 81h-313q4 -47 26.5 -82t57.5 -54.5t77 -19.5z" />
    <glyph glyph-name="uni02B9" unicode="&#x2b9;" horiz-adv-x="222" 
d="M64 500v221h94l-32 -221h-62z" />
    <glyph glyph-name="uni02BA" unicode="&#x2ba;" horiz-adv-x="444" 
d="M64 500v221h94l-32 -221h-62zM286 500v221h94l-32 -221h-62z" />
    <glyph glyph-name="uni02BB" unicode="&#x2bb;" horiz-adv-x="184" 
d="M116 730l-23 -64h31v-80h-95v80l36 64h51z" />
    <glyph glyph-name="uni02BC" unicode="&#x2bc;" horiz-adv-x="243" 
d="M119 598l-72 22l57 110h105z" />
    <glyph glyph-name="uni02BE" unicode="&#x2be;" horiz-adv-x="157" 
d="M29 573v42q18 0 32 13t14 32q0 22 -13.5 34t-32.5 12v44q44 0 71.5 -24.5t27.5 -65.5q0 -40 -27.5 -63.5t-71.5 -23.5z" />
    <glyph glyph-name="uni02BF" unicode="&#x2bf;" horiz-adv-x="157" 
d="M128 573q-43 0 -71 23.5t-28 63.5q0 41 28 65.5t71 24.5v-44q-18 0 -31.5 -12t-13.5 -33q0 -19 13 -32.5t32 -13.5v-42z" />
    <glyph glyph-name="circumflex" unicode="&#x2c6;" horiz-adv-x="355" 
d="M34 635l104 95h79l104 -95l-59 -28l-85 63l-85 -63z" />
    <glyph glyph-name="caron" unicode="&#x2c7;" horiz-adv-x="355" 
d="M92 730l85 -63l85 63l59 -28l-104 -95h-79l-104 95z" />
    <glyph glyph-name="uni02C8" unicode="&#x2c8;" horiz-adv-x="258" 
d="M176 775v-399h-94v399h94z" />
    <glyph glyph-name="uni02C9" unicode="&#x2c9;" horiz-adv-x="411" 
d="M58 644v70h296v-70h-296z" />
    <glyph glyph-name="uni02CA" unicode="&#x2ca;" horiz-adv-x="222" 
d="M64 500v221h94l-32 -221h-62z" />
    <glyph glyph-name="uni02CB" unicode="&#x2cb;" horiz-adv-x="222" 
d="M96 500l-32 221h94v-221h-62z" />
    <glyph glyph-name="uni02CC" unicode="&#x2cc;" horiz-adv-x="258" 
d="M176 269v-399h-94v399h94z" />
    <glyph glyph-name="breve" unicode="&#x2d8;" horiz-adv-x="312" 
d="M156 659q22 0 38.5 20.5t19.5 50.5h61q0 -52 -34 -87t-85 -35t-85 35t-34 87h61q0 -28 17.5 -49.5t40.5 -21.5z" />
    <glyph glyph-name="dotaccent" unicode="&#x2d9;" horiz-adv-x="199" 
d="M50 615v115h99v-115h-99z" />
    <glyph glyph-name="ring" unicode="&#x2da;" horiz-adv-x="257" 
d="M29 660q0 41 28 65.5t71 24.5q45 0 72.5 -24.5t27.5 -65.5q0 -40 -27.5 -63.5t-72.5 -23.5q-43 0 -71 23.5t-28 63.5zM129 706q-19 0 -32.5 -12t-13.5 -33q0 -19 13 -32.5t33 -13.5q18 0 32 13t14 32q0 22 -13.5 34t-32.5 12z" />
    <glyph glyph-name="ogonek" unicode="&#x2db;" horiz-adv-x="272" 
d="M58 -109q0 34 24 66t74 63h32l19 -20q-40 -28 -58.5 -50.5t-18.5 -40.5q0 -19 20 -27.5t56 -10.5l-23 -65q-50 4 -77 17.5t-37.5 31.5t-10.5 36z" />
    <glyph glyph-name="tilde" unicode="&#x2dc;" horiz-adv-x="426" 
d="M277 615q-30 0 -51.5 11t-39 21.5t-39.5 10.5t-32.5 -11t-13.5 -23t-3 -14h-62q0 8 5 26.5t17.5 39t33 35t51.5 14.5q30 0 50 -11t38.5 -22t42.5 -11q25 0 36 11.5t14.5 23.5t3.5 14h63q0 -7 -5.5 -25t-18.5 -39t-35 -36t-55 -15z" />
    <glyph glyph-name="hungarumlaut" unicode="&#x2dd;" horiz-adv-x="351" 
d="M92 598l-55 22l51 110h89zM240 598l-56 22l51 110h90z" />
    <glyph glyph-name="gravecomb" unicode="&#x300;" 
d="M47 730h105l57 -110l-70 -22z" />
    <glyph glyph-name="acutecomb" unicode="&#x301;" 
d="M119 598l-72 22l57 110h105z" />
    <glyph glyph-name="uni0302" unicode="&#x302;" 
d="M34 635l104 95h79l104 -95l-59 -28l-85 63l-85 -63z" />
    <glyph glyph-name="tildecomb" unicode="&#x303;" 
d="M277 615q-30 0 -51.5 11t-39 21.5t-39.5 10.5t-32.5 -11t-13.5 -23t-3 -14h-62q0 8 5 26.5t17.5 39t33 35t51.5 14.5q30 0 50 -11t38.5 -22t42.5 -11q25 0 36 11.5t14.5 23.5t3.5 14h63q0 -7 -5.5 -25t-18.5 -39t-35 -36t-55 -15z" />
    <glyph glyph-name="uni0304" unicode="&#x304;" 
d="M58 644v70h296v-70h-296z" />
    <glyph glyph-name="uni0306" unicode="&#x306;" 
d="M156 659q22 0 38.5 20.5t19.5 50.5h61q0 -52 -34 -87t-85 -35t-85 35t-34 87h61q0 -28 17.5 -49.5t40.5 -21.5z" />
    <glyph glyph-name="uni0307" unicode="&#x307;" 
d="M50 615v115h99v-115h-99z" />
    <glyph glyph-name="uni0308" unicode="&#x308;" 
d="M71 615v110h92v-110h-92zM248 615v110h92v-110h-92z" />
    <glyph glyph-name="hookabovecomb" unicode="&#x309;" 
d="M257 692l-37 36q22 21 44.5 31t49.5 10q37 0 56.5 -21t19.5 -49q0 -24 -14.5 -47t-45.5 -48l-29 33q17 15 24 26.5t7 23.5t-8 20t-20 8q-13 0 -23 -5t-24 -18z" />
    <glyph glyph-name="uni030A" unicode="&#x30a;" 
d="M29 660q0 41 28 65.5t71 24.5q45 0 72.5 -24.5t27.5 -65.5q0 -40 -27.5 -63.5t-72.5 -23.5q-43 0 -71 23.5t-28 63.5zM129 706q-19 0 -32.5 -12t-13.5 -33q0 -19 13 -32.5t33 -13.5q18 0 32 13t14 32q0 22 -13.5 34t-32.5 12z" />
    <glyph glyph-name="uni030B" unicode="&#x30b;" 
d="M92 598l-55 22l51 110h89zM240 598l-56 22l51 110h90z" />
    <glyph glyph-name="uni030C" unicode="&#x30c;" 
d="M92 730l85 -63l85 63l59 -28l-104 -95h-79l-104 95z" />
    <glyph glyph-name="uni030F" unicode="&#x30f;" 
d="M174 730h89l51 -110l-55 -22zM26 730h90l51 -110l-56 -22z" />
    <glyph glyph-name="uni0311" unicode="&#x311;" 
d="M156 679q-23 0 -40.5 -21.5t-17.5 -49.5h-61q0 52 34 87t85 35t85 -35t34 -87h-61q-3 30 -19.5 50.5t-38.5 20.5z" />
    <glyph glyph-name="uni0312" unicode="&#x312;" 
d="M116 730l-23 -64h31v-80h-95v80l36 64h51z" />
    <glyph glyph-name="uni031B" unicode="&#x31b;" 
d="M50 488l2 78q35 0 54 5.5t30 17.5q11 13 13.5 28.5t3.5 34.5h84q0 -20 -3.5 -40t-11 -39.5t-23.5 -36.5q-14 -15 -37 -26t-51.5 -16.5t-60.5 -5.5z" />
    <glyph glyph-name="dotbelowcomb" unicode="&#x323;" 
d="M50 -193v116h99v-116h-99z" />
    <glyph glyph-name="uni0324" unicode="&#x324;" 
d="M71 -193v110h92v-110h-92zM248 -193v110h92v-110h-92z" />
    <glyph glyph-name="uni0326" unicode="&#x326;" 
d="M68 -213l23 77h-32v88h95v-88l-35 -77h-51z" />
    <glyph glyph-name="uni0327" unicode="&#x327;" 
d="M149 -193q-27 0 -58 7t-60 22l28 59q18 -10 34.5 -15.5t36.5 -5.5q28 0 44 12t16 35t-16 41.5t-46 37.5l38 26q41 -26 66.5 -54.5t25.5 -70.5t-28.5 -68t-80.5 -26z" />
    <glyph glyph-name="uni0328" unicode="&#x328;" 
d="M58 -109q0 34 24 66t74 63h32l19 -20q-40 -28 -58.5 -50.5t-18.5 -40.5q0 -19 20 -27.5t56 -10.5l-23 -65q-50 4 -77 17.5t-37.5 31.5t-10.5 36z" />
    <glyph glyph-name="uni032E" unicode="&#x32e;" 
d="M156 -125q22 0 38.5 20.5t19.5 50.5h61q0 -52 -34 -87t-85 -35t-85 35t-34 87h61q0 -28 17.5 -49.5t40.5 -21.5z" />
    <glyph glyph-name="uni0331" unicode="&#x331;" 
d="M58 -152v69h296v-69h-296z" />
    <glyph glyph-name="uni0335" unicode="&#x335;" 
d="M50 262v68h272v-68h-272z" />
    <glyph glyph-name="uni0394" unicode="&#x394;" horiz-adv-x="650" 
d="M371 710l258 -625v-85h-609v85l259 625h92zM139 99h373l-187 483z" />
    <glyph glyph-name="uni03A9" unicode="&#x3a9;" horiz-adv-x="767" 
d="M41 0v90h173q-51 28 -87.5 70t-56 95t-19.5 112q0 69 25 131.5t70 111t105.5 77t131.5 28.5q72 0 132.5 -28.5t105.5 -77t70 -111t25 -131.5q0 -59 -20 -112t-56.5 -95t-86.5 -70h173v-90h-298v90q40 14 72.5 42.5t55.5 66.5t35 81t12 87q0 46 -14.5 90t-43.5 79
t-70 56.5t-92 21.5q-50 0 -91 -21.5t-70 -56.5t-43.5 -79t-14.5 -90q0 -44 12 -87t35 -81t55 -66.5t73 -42.5v-90h-298z" />
    <glyph glyph-name="uni03BC" unicode="&#x3bc;" horiz-adv-x="617" 
d="M66 -212v735h110v-298q0 -70 25.5 -105.5t76.5 -35.5q30 0 59.5 13t54 38.5t39.5 61.5v326h110v-393q0 -18 7 -26.5t25 -9.5v-94q-18 -3 -30 -4t-22 -1q-32 0 -52 18.5t-21 44.5l-1 48q-14 -29 -41 -55.5t-62 -43.5t-72 -17q-29 0 -50 10t-33.5 25.5t-18.5 32.5l2 -270
h-106z" />
    <glyph glyph-name="pi" unicode="&#x3c0;" horiz-adv-x="625" 
d="M211 425v-425h-108v425h-78v97h554v-97h-104v-274q0 -29 15 -45.5t42 -16.5q11 0 26 4t28 9l16 -86q-25 -10 -57.5 -17t-58.5 -7q-55 0 -86.5 31.5t-31.5 87.5v314h-157z" />
    <glyph glyph-name="uni0400" unicode="&#x400;" horiz-adv-x="603" 
d="M567 99v-99h-487v710h478v-99h-366v-202h317v-93h-317v-217h375zM216 916h105l57 -110l-70 -22z" />
    <glyph glyph-name="uni0401" unicode="&#x401;" horiz-adv-x="603" 
d="M567 99v-99h-487v710h478v-99h-366v-202h317v-93h-317v-217h375zM196 802v110h92v-110h-92zM373 802v110h92v-110h-92z" />
    <glyph glyph-name="uni0402" unicode="&#x402;" horiz-adv-x="751" 
d="M477 -8q-24 0 -50 3.5t-52 11.5l27 89q16 -4 32.5 -8t32.5 -4q60 0 97 32.5t37 102.5q0 47 -19.5 79t-52.5 47.5t-76 15.5q-42 0 -86.5 -14.5t-87.5 -44.5v-302h-110v613h-154v97h540v-97h-276v-218q44 28 93 42.5t98 14.5q72 0 125.5 -28.5t83.5 -80.5t30 -124
q0 -112 -62.5 -169.5t-169.5 -57.5z" />
    <glyph glyph-name="uni0403" unicode="&#x403;" horiz-adv-x="529" 
d="M81 0v710h423v-99h-311v-611h-112zM362 785l-72 22l57 110h105z" />
    <glyph glyph-name="uni0404" unicode="&#x404;" horiz-adv-x="716" 
d="M379 -6q-77 0 -140.5 31t-109 83.5t-70 118t-24.5 133.5q0 66 23 129t67 113.5t109.5 81t150.5 30.5q99 0 170 -43.5t106 -111.5l-88 -59q-20 43 -51.5 68t-68 35t-72.5 10q-49 0 -88.5 -16.5t-67.5 -45t-45 -65.5t-23 -77h289v-92h-291q3 -45 22 -85.5t49.5 -71
t70.5 -48t86 -17.5q36 0 74.5 12t71 37.5t51.5 67.5l93 -53q-23 -53 -70.5 -90t-106.5 -56t-117 -19z" />
    <glyph glyph-name="uni0405" unicode="&#x405;" horiz-adv-x="611" 
d="M500 543q-10 11 -29 23.5t-45 23.5t-56 18t-62 7q-70 0 -104 -26t-34 -72q0 -34 19 -53.5t58 -32.5t98 -28q72 -17 125 -40.5t81 -62.5t28 -103q0 -54 -20 -93t-56 -63.5t-83 -36t-101 -11.5q-53 0 -105.5 11t-100 32.5t-87.5 52.5l51 96q13 -13 37.5 -28.5t57 -29.5
t71 -23.5t78.5 -9.5q67 0 102.5 23.5t35.5 67.5q0 36 -23 57.5t-67 36.5t-105 30q-70 19 -117 41.5t-70.5 58t-23.5 90.5q0 70 34 118.5t92.5 73t131.5 24.5q48 0 91 -10.5t80.5 -28.5t68.5 -41z" />
    <glyph glyph-name="uni0406" unicode="&#x406;" horiz-adv-x="272" 
d="M80 0v710h112v-710h-112z" />
    <glyph glyph-name="uni0407" unicode="&#x407;" horiz-adv-x="272" 
d="M80 0v710h112v-710h-112zM2 802v110h92v-110h-92zM179 802v110h92v-110h-92z" />
    <glyph glyph-name="uni0408" unicode="&#x408;" horiz-adv-x="488" 
d="M37 125q16 -12 49 -23.5t78 -11.5q44 0 71.5 14.5t42 44t20 75.5t5.5 109v377h113v-361q0 -79 -8.5 -145t-33.5 -114.5t-74.5 -74.5t-132.5 -26q-49 0 -87 11t-70 33z" />
    <glyph glyph-name="uni0409" unicode="&#x409;" horiz-adv-x="1022" 
d="M33 -4v98q37 3 64 23t45.5 67t28.5 130t13 210l4 186h435v-271h133q76 0 128 -27.5t79 -76.5t27 -116q0 -63 -26 -112t-76.5 -78t-124.5 -29h-252v611h-221l-1 -140q-2 -118 -14 -201t-32.5 -136.5t-51.5 -83.5t-70.5 -42t-87.5 -12zM623 93h125q45 0 73 17.5t41 46.5
t13 62t-12 62t-40 46.5t-77 17.5h-123v-252z" />
    <glyph glyph-name="uni040A" unicode="&#x40a;" horiz-adv-x="1024" 
d="M81 0v710h112v-290h320v290h113v-285h132q114 0 174 -57.5t60 -152.5q0 -62 -26 -110.5t-76.5 -76.5t-124.5 -28h-252v320h-320v-320h-112zM626 93h124q45 0 73 16.5t41 44.5t13 61q0 30 -12 56.5t-40 43t-76 16.5h-123v-238z" />
    <glyph glyph-name="uni040B" unicode="&#x40b;" horiz-adv-x="733" 
d="M169 0v613h-154v97h529v-97h-265v-201q38 16 82.5 25.5t92.5 9.5q114 0 174 -57t60 -180v-210h-110v197q0 74 -33 109.5t-110 35.5q-43 0 -85.5 -10.5t-70.5 -27.5v-304h-110z" />
    <glyph glyph-name="uni040C" unicode="&#x40c;" horiz-adv-x="669" 
d="M81 0v710h112v-297h83l223 297h128l-261 -344l280 -366h-137l-233 310h-83v-310h-112zM369 785l-72 22l57 110h105z" />
    <glyph glyph-name="uni040D" unicode="&#x40d;" horiz-adv-x="766" 
d="M85 0v710h112v-552l379 552h105v-710h-112v543l-375 -543h-109zM269 918h105l57 -110l-70 -22z" />
    <glyph glyph-name="uni040E" unicode="&#x40e;" horiz-adv-x="630" 
d="M152 -4v94h51q25 0 38 12t25 36l21 46l-289 526h124l216 -411l183 411h119l-288 -625q-24 -49 -52.5 -69t-77.5 -20h-70zM326 764q-74 0 -114.5 37t-40.5 93h72q0 -29 19.5 -48t63.5 -19q43 0 61.5 18t22.5 49h72q0 -56 -40.5 -93t-115.5 -37z" />
    <glyph glyph-name="uni040F" unicode="&#x40f;" horiz-adv-x="707" 
d="M306 -136v136h-226v710h112v-611h322v611h113v-710h-224v-136h-97z" />
    <glyph glyph-name="uni0410" unicode="&#x410;" horiz-adv-x="675" 
d="M285 710h106l276 -710h-118l-75 193h-274l-74 -193h-119zM452 276l-114 311l-118 -311h232z" />
    <glyph glyph-name="uni0411" unicode="&#x411;" horiz-adv-x="662" 
d="M81 0v710h499v-98h-387v-199h208q118 0 177 -55.5t59 -146.5q0 -61 -25.5 -108.5t-76 -75t-127.5 -27.5h-327zM193 98h200q46 0 74.5 17t41 43.5t12.5 55.5t-11 54t-39.5 40.5t-79.5 15.5h-198v-226z" />
    <glyph glyph-name="uni0412" unicode="&#x412;" horiz-adv-x="675" 
d="M638 183q0 -57 -29.5 -98t-79.5 -63t-110 -22h-339v710h366q50 0 86.5 -26.5t56 -68t19.5 -86.5q0 -52 -26.5 -97.5t-75.5 -67.5q61 -18 96.5 -65.5t35.5 -115.5zM523 204q0 30 -12.5 54.5t-34 40t-50.5 15.5h-234v-217h227q30 0 53.5 14.5t37 39t13.5 53.5zM192 613
v-209h206q28 0 50 13.5t35 37t13 53.5q0 31 -12 54.5t-32.5 37t-47.5 13.5h-212z" />
    <glyph glyph-name="uni0413" unicode="&#x413;" horiz-adv-x="529" 
d="M81 0v710h423v-99h-311v-611h-112z" />
    <glyph glyph-name="uni0414" unicode="&#x414;" horiz-adv-x="772" 
d="M33 -136v235h34q28 0 48.5 22t35 70t23 126.5t12.5 192.5l5 200h457v-611h90v-235h-99v136h-507v-136h-99zM209 99h326v512h-240l-3 -116q-3 -115 -12 -194.5t-26 -128.5t-45 -73z" />
    <glyph glyph-name="uni0415" unicode="&#x415;" horiz-adv-x="603" 
d="M567 99v-99h-487v710h478v-99h-366v-202h317v-93h-317v-217h375z" />
    <glyph glyph-name="uni0416" unicode="&#x416;" horiz-adv-x="1040" 
d="M23 0l274 367l-256 343h132l217 -297h74v297h112v-297h73l218 297h132l-257 -343l276 -367h-131l-235 310h-76v-310h-112v310h-76l-236 -310h-129z" />
    <glyph glyph-name="uni0417" unicode="&#x417;" horiz-adv-x="584" 
d="M291 -8q-81 0 -146.5 34t-102.5 94l86 53q24 -41 65.5 -63.5t95.5 -22.5q68 0 104.5 32t36.5 85q0 34 -15 60.5t-45 41t-73 14.5h-79v87h79q35 0 59.5 13.5t37.5 37t13 53.5q0 31 -14.5 54.5t-41.5 37t-66 13.5q-54 0 -92.5 -22t-60.5 -60l-82 57q37 58 95.5 92t144.5 34
q69 0 119.5 -22.5t78.5 -65t28 -102.5q0 -50 -24.5 -93.5t-75.5 -65.5q61 -17 94.5 -64t33.5 -110q0 -64 -33 -109.5t-89.5 -69t-130.5 -23.5z" />
    <glyph glyph-name="uni0418" unicode="&#x418;" horiz-adv-x="766" 
d="M85 0v710h112v-552l379 552h105v-710h-112v543l-375 -543h-109z" />
    <glyph glyph-name="uni0419" unicode="&#x419;" horiz-adv-x="766" 
d="M85 0v710h112v-552l379 552h105v-710h-112v543l-375 -543h-109zM383 758q-54 0 -93 17.5t-59 48t-20 67.5h81q0 -27 20.5 -49t70.5 -22q49 0 70 20t21 51h81q0 -37 -20 -67.5t-58.5 -48t-93.5 -17.5z" />
    <glyph glyph-name="uni041A" unicode="&#x41a;" horiz-adv-x="669" 
d="M81 0v710h112v-297h83l223 297h128l-261 -344l280 -366h-137l-233 310h-83v-310h-112z" />
    <glyph glyph-name="uni041B" unicode="&#x41b;" horiz-adv-x="734" 
d="M541 0v611h-237l-4 -132q-6 -143 -23 -236.5t-49 -147t-80 -76t-115 -22.5v98q37 0 65 17.5t47.5 62.5t31 126.5t15.5 208.5l7 200h455v-710h-113z" />
    <glyph glyph-name="uni041C" unicode="&#x41c;" horiz-adv-x="870" 
d="M677 0v506l-209 -384h-66l-210 384v-506h-112v710h120l235 -434l235 434h120v-710h-113z" />
    <glyph glyph-name="uni041D" unicode="&#x41d;" horiz-adv-x="743" 
d="M663 710v-710h-113v313h-358v-313h-112v710h112v-297h358v297h113z" />
    <glyph glyph-name="uni041E" unicode="&#x41e;" horiz-adv-x="752" 
d="M375 -5q-77 0 -139 30t-107 81.5t-69.5 116t-24.5 132.5q0 71 26 135.5t72 115t108.5 80t135.5 29.5q76 0 138.5 -31t107 -83t69 -116t24.5 -131q0 -71 -25.5 -135.5t-71.5 -115t-108.5 -79.5t-135.5 -29zM149 355q0 -50 16 -97t45.5 -83.5t71.5 -57.5t94 -21q54 0 96 22
t70.5 59.5t43.5 84t15 93.5q0 50 -15.5 96.5t-45.5 83t-71.5 57.5t-92.5 21q-54 0 -96 -22t-71 -59t-44.5 -83t-15.5 -94z" />
    <glyph glyph-name="uni041F" unicode="&#x41f;" horiz-adv-x="723" 
d="M81 0v710h561v-710h-113v611h-336v-611h-112z" />
    <glyph glyph-name="uni0420" unicode="&#x420;" horiz-adv-x="623" 
d="M80 0v710h298q48 0 88 -20t70 -53t46 -74t16 -84q0 -59 -26.5 -112.5t-75 -86.5t-112.5 -33h-192v-247h-112zM192 346h185q32 0 56 17.5t37.5 47.5t13.5 68q0 39 -16 69t-41.5 46.5t-55.5 16.5h-179v-265z" />
    <glyph glyph-name="uni0421" unicode="&#x421;" horiz-adv-x="684" 
d="M35 360q0 65 23 127.5t67.5 114t108.5 82t145 30.5q96 0 166 -43.5t104 -111.5l-88 -59q-20 43 -50.5 68t-66 35t-69.5 10q-56 0 -98 -22.5t-70.5 -59.5t-43 -83t-14.5 -92q0 -51 17 -98.5t47.5 -84t72.5 -57.5t92 -21q34 0 71 12t68.5 37.5t49.5 67.5l93 -53
q-22 -53 -68.5 -90t-104 -56t-113.5 -19q-75 0 -137 31.5t-107 84t-70 118t-25 132.5z" />
    <glyph glyph-name="uni0422" unicode="&#x422;" horiz-adv-x="616" 
d="M601 611h-236v-611h-113v611h-237v99h586v-99z" />
    <glyph glyph-name="uni0423" unicode="&#x423;" horiz-adv-x="630" 
d="M152 -4v94h51q25 0 38 12t25 36l21 46l-289 526h124l216 -411l183 411h119l-288 -625q-24 -49 -52.5 -69t-77.5 -20h-70z" />
    <glyph glyph-name="uni0424" unicode="&#x424;" horiz-adv-x="822" 
d="M357 0v65q-65 3 -123.5 26t-103 64t-70 97.5t-25.5 124.5q0 72 27 128.5t72 97t102.5 62.5t120.5 25v54h107v-54q64 -3 122 -26t103 -63t71 -97t26 -127t-26.5 -126.5t-71.5 -97t-103 -63t-121 -25.5v-65h-107zM360 156v443q-58 -3 -106.5 -30.5t-77 -75.5t-28.5 -116
q0 -51 17.5 -91.5t47 -68t68 -43.5t79.5 -18zM462 156q57 3 105 30.5t77 76t29 114.5q0 51 -16.5 91t-46.5 68.5t-68 44.5t-80 18v-443z" />
    <glyph glyph-name="uni0425" unicode="&#x425;" horiz-adv-x="641" 
d="M125 710l196 -279l196 279h124l-256 -360l248 -350h-124l-188 269l-188 -269h-125l248 350l-256 360h125z" />
    <glyph glyph-name="uni0426" unicode="&#x426;" horiz-adv-x="746" 
d="M613 -135v135h-533v710h112v-611h317v611h113v-611h90v-234h-99z" />
    <glyph glyph-name="uni0427" unicode="&#x427;" horiz-adv-x="661" 
d="M472 0v287q-15 -6 -39 -14.5t-56.5 -14.5t-74.5 -6q-121 0 -180 54t-59 172v232h109v-220q0 -70 35 -103t118 -33q39 0 79.5 9t67.5 23v324h110v-710h-110z" />
    <glyph glyph-name="uni0428" unicode="&#x428;" horiz-adv-x="983" 
d="M80 0v710h112v-611h243v611h113v-611h243v611h113v-710h-824z" />
    <glyph glyph-name="uni0429" unicode="&#x429;" horiz-adv-x="1028" 
d="M895 -135v135h-815v710h112v-611h243v611h113v-611h243v611h113v-611h90v-234h-99z" />
    <glyph glyph-name="uni042A" unicode="&#x42a;" horiz-adv-x="728" 
d="M194 0v616h-174v94h287v-262h150q78 0 131.5 -27.5t81 -77.5t27.5 -118q0 -64 -27 -115.5t-79 -80.5t-127 -29h-270zM307 93h142q47 0 76.5 18t43 48.5t13.5 65.5q0 34 -12.5 64t-42 48t-80.5 18h-140v-262z" />
    <glyph glyph-name="uni042B" unicode="&#x42b;" horiz-adv-x="895" 
d="M80 0v710h112v-262h159q78 0 131.5 -27.5t81 -77.5t27.5 -118q0 -64 -27 -115.5t-79 -80.5t-127 -29h-278zM192 93h150q47 0 77 18t43.5 48.5t13.5 65.5q0 34 -12.5 64t-42 48t-80.5 18h-149v-262zM703 0v709h113v-709h-113z" />
    <glyph glyph-name="uni042C" unicode="&#x42c;" horiz-adv-x="623" 
d="M81 0v710h112v-262h159q78 0 131 -27.5t81 -77.5t28 -118q0 -64 -27 -115.5t-79 -80.5t-127 -29h-278zM193 93h150q47 0 76.5 18t43.5 48.5t14 65.5q0 34 -12.5 64t-42.5 48t-80 18h-149v-262z" />
    <glyph glyph-name="uni042D" unicode="&#x42d;" horiz-adv-x="714" 
d="M331 -6q-66 0 -121.5 20t-98 57.5t-70.5 87.5l94 53q20 -38 50 -64t67.5 -39.5t78.5 -13.5q52 0 95 20.5t74 56.5t46.5 82.5t14.5 97.5l48 -33h-341v87h338l-45 -30q-1 45 -17 87.5t-45 76t-71 53.5t-97 20q-39 0 -75.5 -12.5t-65.5 -38t-48 -63.5l-91 60
q41 68 109 111.5t171 43.5q83 0 147.5 -30.5t109 -81t67.5 -114.5t23 -132q0 -71 -24.5 -136t-70.5 -116t-109.5 -80.5t-142.5 -29.5z" />
    <glyph glyph-name="uni042E" unicode="&#x42e;" horiz-adv-x="997" 
d="M632 -5q-89 0 -158 38.5t-111.5 109t-50.5 165.5h-120v-308h-112v710h112v-303h121q9 97 53 165.5t113.5 105.5t153.5 37q99 0 172.5 -46t114.5 -127t41 -188q0 -115 -43 -195t-117 -122t-169 -42zM633 96q68 0 115 33t72.5 92t25.5 134q0 80 -27 137.5t-74.5 89
t-112.5 31.5q-66 0 -113 -32.5t-71.5 -91t-24.5 -134.5q0 -79 25.5 -137.5t73 -90t111.5 -31.5z" />
    <glyph glyph-name="uni042F" unicode="&#x42f;" horiz-adv-x="664" 
d="M60 0l180 291q-70 20 -109 75t-39 130q0 61 29.5 109t82.5 76.5t123 28.5h257v-710h-112v277h-92h-12.5h-12.5l-166 -277h-129zM339 374h133v239h-130q-38 0 -69 -13.5t-48.5 -39.5t-17.5 -64t16 -65t45.5 -42t70.5 -15z" />
    <glyph glyph-name="uni0430" unicode="&#x430;" horiz-adv-x="564" 
d="M28 153q0 50 28.5 87.5t78.5 58t116 20.5q35 0 71.5 -5t64.5 -16v33q0 55 -33 86t-95 31q-44 0 -83 -15.5t-83 -43.5l-37 74q52 35 104.5 52t110.5 17q105 0 165.5 -55.5t60.5 -157.5v-195q0 -19 6.5 -27t22.5 -9v-88q-15 -3 -27 -4t-20 -1q-35 0 -53 17t-21 40l-3 30
q-34 -44 -87 -68t-107 -24q-52 0 -93 21.5t-64 58.5t-23 83zM361 121q12 13 19 26t7 23v60q-28 11 -59 16.5t-61 5.5q-60 0 -97.5 -24t-37.5 -66q0 -23 12.5 -44t36 -34t58.5 -13q36 0 69 14t53 36z" />
    <glyph glyph-name="uni0431" unicode="&#x431;" horiz-adv-x="618" 
d="M319 -10q-131 0 -199 79t-68 226q0 96 16.5 162.5t49 109.5t81 70.5t112.5 44.5l223 62l4 -92l-219 -62q-52 -16 -88.5 -42t-57.5 -67.5t-28 -104.5q28 51 80 80t123 29q73 0 126 -30.5t82 -84.5t29 -124q0 -76 -30.5 -133.5t-90 -90t-145.5 -32.5zM319 84q73 0 113.5 43
t40.5 114q0 68 -40.5 111.5t-113.5 43.5q-43 0 -78 -18.5t-55 -53t-20 -83.5q0 -46 18 -81.5t52 -55.5t83 -20z" />
    <glyph glyph-name="uni0432" unicode="&#x432;" horiz-adv-x="555" 
d="M66 0v523h280q50 0 82.5 -18.5t48.5 -47t16 -62.5q0 -43 -20 -76t-59 -50q45 -13 73.5 -45.5t28.5 -83.5q0 -46 -22 -77.5t-62.5 -47t-94.5 -15.5h-271zM170 76h164q21 0 38.5 10.5t27.5 28t10 37.5q0 22 -9.5 39t-26 27t-38.5 10h-166v-152zM170 299h148q21 0 37 10.5
t25 28.5t9 38q0 29 -19 50t-50 21h-150v-148z" />
    <glyph glyph-name="uni0433" unicode="&#x433;" horiz-adv-x="417" 
d="M66 0v523h334v-97h-224v-426h-110z" />
    <glyph glyph-name="uni0434" unicode="&#x434;" horiz-adv-x="611" 
d="M16 -125v222h12q21 0 39 12t32 41.5t23 82t11 132.5l6 158h373v-426h72v-222h-97v125h-375v-125h-96zM173 97h229v331h-166l-3 -73q-3 -76 -10.5 -128t-20 -83t-29.5 -47z" />
    <glyph glyph-name="uni0435" unicode="&#x435;" horiz-adv-x="595" 
d="M303 -10q-61 0 -110.5 21.5t-85.5 59t-55.5 86t-19.5 103.5q0 74 34 135.5t95 99t143 37.5t141.5 -37.5t92.5 -98.5t33 -131q0 -12 -1 -22.5t-2 -17.5h-419q3 -46 25.5 -80.5t57.5 -54t75 -19.5q44 0 83.5 22t53.5 58l94 -27q-17 -38 -51.5 -68.5t-81.5 -48t-102 -17.5z
M146 298h316q-3 45 -25.5 79.5t-57 54t-76.5 19.5q-41 0 -75.5 -19.5t-56.5 -54t-25 -79.5z" />
    <glyph glyph-name="uni0436" unicode="&#x436;" horiz-adv-x="830" 
d="M29 0l188 270l-173 253h123l142 -208h49v208h113v-208h51l140 208h123l-173 -253l189 -270h-125l-154 219h-51v-219h-113v219h-49l-155 -219h-125z" />
    <glyph glyph-name="uni0437" unicode="&#x437;" horiz-adv-x="483" 
d="M241 -8q-80 0 -134.5 29.5t-83.5 81.5l89 40q17 -29 48 -45.5t75 -16.5q53 0 82 22t29 58q0 33 -24 53.5t-68 21.5h-54v70h56q20 0 35 9t23.5 24.5t8.5 35.5q0 30 -22.5 48.5t-67.5 18.5q-39 0 -64 -14.5t-41 -42.5l-83 44q26 48 76 75t117 27q53 0 94.5 -16.5t65 -48
t23.5 -77.5q0 -36 -17 -67.5t-53 -46.5q48 -14 72.5 -48.5t24.5 -81.5q0 -48 -26.5 -82.5t-73.5 -52.5t-107 -18z" />
    <glyph glyph-name="uni0438" unicode="&#x438;" horiz-adv-x="606" 
d="M66 0v522h110v-375l265 376h100v-523h-110v367l-262 -367h-103z" />
    <glyph glyph-name="uni0439" unicode="&#x439;" horiz-adv-x="606" 
d="M66 0v522h110v-375l265 376h100v-523h-110v367l-262 -367h-103zM304 577q-74 0 -114.5 37t-40.5 93h72q0 -29 19.5 -48t63.5 -19q43 0 61.5 18t22.5 49h72q0 -56 -40.5 -93t-115.5 -37z" />
    <glyph glyph-name="uni043A" unicode="&#x43a;" horiz-adv-x="543" 
d="M66 0v523h109v-207h52l154 207h122l-191 -253l213 -270h-127l-172 217h-51v-217h-109z" />
    <glyph glyph-name="uni043B" unicode="&#x43b;" horiz-adv-x="586" 
d="M24 -5v98q25 0 45 12.5t35 42t24 82.5t12 135l7 158h373v-523h-110v426h-166l-2 -71q-4 -105 -19 -174.5t-41.5 -110t-66 -58t-91.5 -17.5z" />
    <glyph glyph-name="uni043C" unicode="&#x43c;" horiz-adv-x="719" 
d="M66 0v523h114l180 -323l181 323h112v-523h-105v368l-154 -275h-69l-155 275v-368h-104z" />
    <glyph glyph-name="uni043D" unicode="&#x43d;" horiz-adv-x="596" 
d="M66 0v523h110v-208h243v208h110v-523h-110v220h-243v-220h-110z" />
    <glyph glyph-name="uni043E" unicode="&#x43e;" horiz-adv-x="602" 
d="M301 -10q-62 0 -111 21.5t-84.5 59.5t-54.5 86.5t-19 103.5t19 104t54.5 86.5t85 59t110.5 21.5t110.5 -21.5t85 -59t54.5 -86.5t19 -104t-19 -103.5t-54.5 -86.5t-85 -59.5t-110.5 -21.5zM145 260q0 -50 21 -90t56 -63t79 -23q43 0 78.5 23.5t56.5 64t21 89.5
q0 50 -21 90t-56.5 63.5t-78.5 23.5q-44 0 -79 -24t-56 -63.5t-21 -90.5z" />
    <glyph glyph-name="uni043F" unicode="&#x43f;" horiz-adv-x="583" 
d="M66 0v523h450v-523h-110v426h-230v-426h-110z" />
    <glyph glyph-name="uni0440" unicode="&#x440;" horiz-adv-x="628" 
d="M363 -10q-63 0 -111 30t-76 78v-311h-110v736h97v-94q30 47 78 75t107 28q54 0 99 -21.5t78 -59.5t51.5 -86.5t18.5 -102.5q0 -75 -29.5 -137t-82 -98.5t-120.5 -36.5zM327 84q35 0 63.5 15t49 40t31.5 57t11 66q0 36 -12 68t-34.5 56t-52 38t-64.5 14q-21 0 -44 -8
t-43 -22t-35 -33t-21 -40v-137q14 -32 37 -57.5t53 -41t61 -15.5z" />
    <glyph glyph-name="uni0441" unicode="&#x441;" horiz-adv-x="559" 
d="M303 -10q-61 0 -110.5 21.5t-85.5 59.5t-55.5 87t-19.5 104q0 74 33.5 135t94 98t143.5 37q80 0 139.5 -35.5t87.5 -94.5l-107 -34q-18 33 -50.5 51.5t-71.5 18.5q-44 0 -79.5 -22.5t-56 -62t-20.5 -91.5q0 -50 21 -90.5t56.5 -64t79.5 -23.5q27 0 52.5 9.5t44.5 26
t27 36.5l108 -32q-17 -39 -50.5 -69t-79 -47.5t-101.5 -17.5z" />
    <glyph glyph-name="uni0442" unicode="&#x442;" horiz-adv-x="490" 
d="M190 0v426h-173v97h457v-97h-174v-426h-110z" />
    <glyph glyph-name="uni0443" unicode="&#x443;" horiz-adv-x="547" 
d="M137 -222q-18 0 -38 5t-42 15l28 82q12 -6 23 -9t20 -3q25 0 45.5 20.5t36.5 61.5l20 54l-221 519h115l160 -411l142 411h106l-230 -603q-17 -47 -42.5 -78t-56.5 -47.5t-66 -16.5z" />
    <glyph glyph-name="uni0444" unicode="&#x444;" horiz-adv-x="728" 
d="M309 -213v213h-18q-81 0 -139 36t-89 95.5t-31 129.5t31.5 129.5t89.5 95.5t138 36h18v208h110v-208h18q80 0 138 -36t89.5 -95.5t31.5 -129.5t-31 -129.5t-89 -95.5t-139 -36h-18v-213h-110zM291 89h23v344h-23q-44 0 -78 -23t-53.5 -62t-19.5 -88t19 -88t53 -61t79 -22
zM413 89h24q45 0 79 22t53.5 61t19.5 88t-19.5 88t-53.5 62t-79 23h-24v-344z" />
    <glyph glyph-name="uni0445" unicode="&#x445;" horiz-adv-x="522" 
d="M128 523l124 -179l9 -17l9 17l123 179h119l-188 -262l190 -261h-119l-125 178l-9 16l-9 -16l-125 -178h-119l190 260l-188 263h118z" />
    <glyph glyph-name="uni0446" unicode="&#x446;" horiz-adv-x="600" 
d="M476 -125v125h-410v523h110v-427h214v427h110v-427h73v-221h-97z" />
    <glyph glyph-name="uni0447" unicode="&#x447;" horiz-adv-x="538" 
d="M360 0v199q-30 -14 -62 -20.5t-72 -6.5q-84 0 -129.5 44.5t-45.5 132.5v174h110v-160q0 -55 23 -80.5t74 -25.5q28 0 56 6t46 16v244h111v-523h-111z" />
    <glyph glyph-name="uni0448" unicode="&#x448;" horiz-adv-x="837" 
d="M66 0v523h110v-427h187v427h111v-427h186v427h110v-523h-704z" />
    <glyph glyph-name="uni0449" unicode="&#x449;" horiz-adv-x="870" 
d="M746 -125v125h-680v523h110v-426h187v426h111v-426h186v426h110v-426h73v-222h-97z" />
    <glyph glyph-name="uni044A" unicode="&#x44a;" horiz-adv-x="607" 
d="M160 0v433h-143v90h251v-172h126q93 0 141 -47t48 -124q0 -52 -20.5 -93t-61.5 -64t-101 -23h-240zM268 85h116q32 0 52 12.5t30 34t10 46.5t-9 45.5t-29.5 33t-55.5 12.5h-114v-184z" />
    <glyph glyph-name="uni044B" unicode="&#x44b;" horiz-adv-x="729" 
d="M66 0v523h110v-172h99q93 0 142 -47t49 -124q0 -52 -21 -93t-61.5 -64t-100.5 -23h-217zM176 85h90q33 0 53 12.5t29.5 34t9.5 46.5t-9 45.5t-29.5 33t-54.5 12.5h-89v-184zM552 0v522h110v-522h-110z" />
    <glyph glyph-name="uni044C" unicode="&#x44c;" horiz-adv-x="515" 
d="M66 0v523h110v-172h125q93 0 141.5 -47t48.5 -124q0 -52 -21 -93t-61.5 -64t-100.5 -23h-242zM176 85h115q33 0 53 12.5t30 34t10 46.5t-9 45.5t-29.5 33t-55.5 12.5h-114v-184z" />
    <glyph glyph-name="uni044D" unicode="&#x44d;" horiz-adv-x="568" 
d="M268 -9q-51 0 -96 15t-80.5 43.5t-56.5 69.5l88 40q23 -40 59 -60t79 -20t77 20t57 54t28 75h-205v73h204q-6 38 -26.5 70t-54.5 52t-79 20q-42 0 -77 -17.5t-58 -58.5l-84 44q31 55 87.5 88t135.5 33q66 0 116 -22.5t84.5 -60.5t52 -86.5t17.5 -99.5q0 -52 -18 -101
t-53 -87.5t-84.5 -61t-112.5 -22.5z" />
    <glyph glyph-name="uni044E" unicode="&#x44e;" horiz-adv-x="809" 
d="M516 -10q-69 0 -122.5 29t-86 79.5t-41.5 114.5h-90v-213h-110v523h110v-214h90q9 66 42.5 116.5t86.5 78.5t121 28q82 0 140 -37t89 -98t31 -136q0 -77 -31.5 -138t-90 -97t-138.5 -36zM516 84q44 0 77 22.5t52 62t19 92.5q0 54 -19 93.5t-53 61.5t-76 22t-74.5 -22
t-50.5 -62t-18 -93q0 -54 18.5 -94t51 -61.5t73.5 -21.5z" />
    <glyph glyph-name="uni044F" unicode="&#x44f;" horiz-adv-x="544" 
d="M33 0l140 207q-49 12 -78 50t-29 102q0 49 22.5 86t63.5 58t95 21h230v-524h-110v189h-86l-128 -189h-120zM258 269h109v170h-102q-42 0 -66.5 -23t-24.5 -60t21.5 -62t62.5 -25z" />
    <glyph glyph-name="uni0450" unicode="&#x450;" horiz-adv-x="595" 
d="M303 -10q-61 0 -110.5 21.5t-85.5 59t-55.5 86t-19.5 103.5q0 74 34 135.5t95 99t143 37.5t141.5 -37.5t92.5 -98.5t33 -131q0 -12 -1 -22.5t-2 -17.5h-419q3 -46 25.5 -80.5t57.5 -54t75 -19.5q44 0 83.5 22t53.5 58l94 -27q-17 -38 -51.5 -68.5t-81.5 -48t-102 -17.5z
M146 298h316q-3 45 -25.5 79.5t-57 54t-76.5 19.5q-41 0 -75.5 -19.5t-56.5 -54t-25 -79.5zM185 731h105l57 -110l-70 -22z" />
    <glyph glyph-name="uni0451" unicode="&#x451;" horiz-adv-x="595" 
d="M303 -10q-61 0 -110.5 21.5t-85.5 59t-55.5 86t-19.5 103.5q0 74 34 135.5t95 99t143 37.5t141.5 -37.5t92.5 -98.5t33 -131q0 -12 -1 -22.5t-2 -17.5h-419q3 -46 25.5 -80.5t57.5 -54t75 -19.5q44 0 83.5 22t53.5 58l94 -27q-17 -38 -51.5 -68.5t-81.5 -48t-102 -17.5z
M146 298h316q-3 45 -25.5 79.5t-57 54t-76.5 19.5q-41 0 -75.5 -19.5t-56.5 -54t-25 -79.5zM166 616v110h92v-110h-92zM343 616v110h92v-110h-92z" />
    <glyph glyph-name="uni0452" unicode="&#x452;" horiz-adv-x="591" 
d="M334 -198q-31 0 -55.5 7.5t-42.5 17.5t-29 20t-15 14l75 56q9 -7 25.5 -15.5t34.5 -8.5q34 0 57.5 16t38.5 47.5t22 76t7 101.5q0 71 -12.5 116t-42 67.5t-78.5 22.5q-52 0 -85.5 -27.5t-51.5 -74.5v-238h-110v525h-77v67h77v138h110v-138h224v-67h-224v-179q31 44 73 68
t97 24q66 0 113.5 -31t72 -95.5t24.5 -164.5q0 -69 -12.5 -131.5t-40.5 -110.5t-71.5 -75.5t-103.5 -27.5z" />
    <glyph glyph-name="uni0453" unicode="&#x453;" horiz-adv-x="417" 
d="M66 0v523h334v-97h-224v-426h-110zM302 598l-72 22l57 110h105z" />
    <glyph glyph-name="uni0454" unicode="&#x454;" horiz-adv-x="569" 
d="M302 -9q-63 0 -113 22.5t-85 61t-53.5 87.5t-18.5 101q0 51 18 99.5t52.5 86.5t85 60.5t115.5 22.5q79 0 136 -33t86 -88l-83 -44q-23 41 -58 58.5t-77 17.5q-45 0 -79 -20t-54.5 -52t-27.5 -70h206v-73h-206q6 -41 28 -75t57 -54t77 -20t78.5 20t59.5 60l88 -40
q-31 -61 -94 -94.5t-138 -33.5z" />
    <glyph glyph-name="uni0455" unicode="&#x455;" horiz-adv-x="491" 
d="M252 -10q-66 0 -125 21.5t-101 64.5l41 74q45 -40 90.5 -58t90.5 -18q46 0 75 17.5t29 51.5q0 25 -15 37t-43.5 21t-68.5 20q-56 17 -94 35.5t-57 45.5t-19 69q0 51 26 87t72.5 55t107.5 19q57 0 105.5 -17.5t85.5 -54.5l-47 -73q-35 32 -71.5 47t-78.5 15
q-24 0 -46 -5.5t-36.5 -20t-14.5 -40.5q0 -21 12 -34t36 -22t59 -20q61 -18 104 -35.5t66.5 -45t23.5 -75.5q0 -76 -56.5 -118.5t-150.5 -42.5z" />
    <glyph glyph-name="uni0456" unicode="&#x456;" horiz-adv-x="242" 
d="M66 0v523h110v-523h-110zM66 609v121h110v-121h-110z" />
    <glyph glyph-name="uni0457" unicode="&#x457;" horiz-adv-x="242" 
d="M66 0v523h110v-523h-110zM-13 616v110h92v-110h-92zM164 616v110h92v-110h-92z" />
    <glyph glyph-name="uni0458" unicode="&#x458;" horiz-adv-x="248" 
d="M11 -191q-36 0 -68.5 11t-57.5 34l49 74q12 -12 29.5 -17.5t34.5 -5.5q20 0 36.5 10t27 27.5t10.5 38.5v542h110v-534q0 -52 -23.5 -93t-62 -64t-85.5 -23zM72 609v121h110v-121h-110z" />
    <glyph glyph-name="uni0459" unicode="&#x459;" horiz-adv-x="826" 
d="M24 -5v98q25 0 45 12.5t35 42t24 82.5t12 135l7 158h361v-188h103q93 0 142 -45t49 -118q0 -50 -21 -89t-62 -61t-101 -22h-220v426h-154l-2 -71q-4 -105 -19 -174.5t-41.5 -110t-66 -58t-91.5 -17.5zM508 85h93q33 0 53 11.5t29.5 31t9.5 42.5t-9 41.5t-29 30t-54 11.5
h-93v-168z" />
    <glyph glyph-name="uni045A" unicode="&#x45a;" horiz-adv-x="836" 
d="M66 0v523h110v-203h229v203h109v-188h108q93 0 141.5 -45t48.5 -118q0 -50 -20.5 -89t-61 -61t-101.5 -22h-224v224h-229v-224h-110zM514 85h98q33 0 53 11.5t29.5 31t9.5 42.5t-9 41.5t-29 30t-55 11.5h-97v-168z" />
    <glyph glyph-name="uni045B" unicode="&#x45b;" horiz-adv-x="601" 
d="M68 0v552h-77v67h77v111h110v-111h223v-67h-223v-176q30 43 75.5 67t104.5 24q98 0 139 -51t41 -147v-269h-110v242q0 64 -26 96t-83 32q-52 0 -87.5 -26.5t-53.5 -75.5v-268h-110z" />
    <glyph glyph-name="uni045C" unicode="&#x45c;" horiz-adv-x="543" 
d="M66 0v523h109v-207h52l154 207h122l-191 -253l213 -270h-127l-172 217h-51v-217h-109zM306 598l-72 22l57 110h105z" />
    <glyph glyph-name="uni045D" unicode="&#x45d;" horiz-adv-x="606" 
d="M66 0v522h110v-375l265 376h100v-523h-110v367l-262 -367h-103zM190 731h105l57 -110l-70 -22z" />
    <glyph glyph-name="uni045E" unicode="&#x45e;" horiz-adv-x="547" 
d="M137 -222q-18 0 -38 5t-42 15l28 82q12 -6 23 -9t20 -3q25 0 45.5 20.5t36.5 61.5l20 54l-221 519h115l160 -411l142 411h106l-230 -603q-17 -47 -42.5 -78t-56.5 -47.5t-66 -16.5zM273 577q-74 0 -114.5 37t-40.5 93h72q0 -29 19.5 -48t63.5 -19q43 0 61.5 18t22.5 49
h72q0 -56 -40.5 -93t-115.5 -37z" />
    <glyph glyph-name="uni045F" unicode="&#x45f;" horiz-adv-x="582" 
d="M243 -125v125h-177v523h110v-427h229v427h110v-523h-177v-125h-95z" />
    <glyph glyph-name="uni0462" unicode="&#x462;" horiz-adv-x="659" 
d="M10 553v77h394v-77h-394zM117 0v716h112v-268h159q78 0 131.5 -27.5t81 -77.5t27.5 -118q0 -64 -27 -115.5t-79 -80.5t-127 -29h-278zM229 93h150q47 0 76.5 18t43.5 48.5t14 65.5q0 34 -12.5 64t-42.5 48t-80 18h-149v-262z" />
    <glyph glyph-name="uni0463" unicode="&#x463;" horiz-adv-x="538" 
d="M89 0v508h-117v70h117v152h110v-152h178v-70h-178v-157h125q93 0 141.5 -47t48.5 -124q0 -52 -20.5 -93t-61.5 -64t-101 -23h-242zM199 85h116q32 0 52 12.5t30 34t10 46.5t-9 45.5t-29.5 33t-55.5 12.5h-114v-184z" />
    <glyph glyph-name="uni046A" unicode="&#x46a;" horiz-adv-x="1034" 
d="M23 0l274 362l-256 348h951l-256 -348l275 -362h-127l-235 305h-76v-305h-113v305h-75l-236 -305h-126zM387 408h260l170 233h-600z" />
    <glyph glyph-name="uni046B" unicode="&#x46b;" horiz-adv-x="850" 
d="M29 0l204 270l-184 253h752l-185 -253l205 -270h-132l-163 219h-45v-219h-112v219h-44l-163 -219h-133zM333 304h185l114 160h-414z" />
    <glyph glyph-name="uni0472" unicode="&#x472;" horiz-adv-x="761" 
d="M106 324v73h555v-73h-555zM375 -5q-77 0 -139 30t-107 81.5t-69.5 116t-24.5 132.5q0 71 26 135.5t72 115t108.5 80t135.5 29.5q76 0 138 -31t107 -83t69.5 -116t24.5 -131q0 -71 -25.5 -135.5t-71.5 -115t-108.5 -79.5t-135.5 -29zM149 355q0 -50 16 -97t45.5 -83.5
t71.5 -57.5t94 -21q54 0 96 22t70.5 59.5t43.5 84t15 94.5q0 50 -15.5 96t-45.5 82.5t-71.5 57.5t-92.5 21q-54 0 -96 -22t-71 -59t-44.5 -83t-15.5 -94z" />
    <glyph glyph-name="uni0473" unicode="&#x473;" horiz-adv-x="601" 
d="M101 240v49h425v-49h-425zM301 -10q-62 0 -111 21.5t-84.5 59.5t-54.5 86.5t-19 103.5t19 104t54.5 86.5t85 59t110.5 21.5t110.5 -21.5t85 -59t54.5 -86.5t19 -104t-19 -103.5t-54.5 -86.5t-85 -59.5t-110.5 -21.5zM145 260q0 -50 21 -90t56 -63t79 -23q43 0 78.5 23.5
t56.5 64t21 89.5q0 50 -21 90t-56.5 63.5t-78.5 23.5q-44 0 -79 -24t-56 -63.5t-21 -90.5z" />
    <glyph glyph-name="uni0474" unicode="&#x474;" horiz-adv-x="726" 
d="M291 0l-285 710h119l214 -563l173 444q22 62 55.5 90.5t98.5 28.5h53v-94h-38q-31 0 -47.5 -15t-29.5 -48l-224 -553h-89z" />
    <glyph glyph-name="uni0475" unicode="&#x475;" horiz-adv-x="576" 
d="M213 0l-200 523h110l150 -425l115 314q17 58 49.5 84.5t92.5 26.5h50v-85h-32q-30 0 -45.5 -13.5t-26.5 -47.5l-149 -377h-114z" />
    <glyph glyph-name="uni048A" unicode="&#x48a;" horiz-adv-x="780" 
d="M89 0v710h112v-552l379 552h105v-710h-112v543l-375 -543h-109zM387 758q-54 0 -93 17.5t-59 48t-20 67.5h81q0 -27 20.5 -49t70.5 -22q49 0 70 20t21 51h81q0 -37 -20 -67.5t-58.5 -48t-93.5 -17.5zM593 -141l56 191l63 -50h-140v99h189l-70 -240h-98z" />
    <glyph glyph-name="uni048B" unicode="&#x48b;" horiz-adv-x="624" 
d="M70 0v522h110v-375l265 376h100v-523h-110v367l-262 -367h-103zM308 577q-74 0 -114.5 37t-40.5 93h72q0 -29 19.5 -48t63.5 -19q43 0 61.5 18t22.5 49h72q0 -56 -40.5 -93t-115.5 -37zM455 -141l56 191l63 -50h-140v96h188l-69 -237h-98z" />
    <glyph glyph-name="uni048C" unicode="&#x48c;" horiz-adv-x="661" 
d="M20 562v68h360v-68h-360zM118 0v710h113v-266h158q79 0 132 -27.5t80.5 -77t27.5 -116.5q0 -64 -27 -114.5t-78.5 -79.5t-127.5 -29h-278zM231 93h150q47 0 76.5 18t43 48.5t13.5 65.5q0 34 -12.5 64t-42 48t-79.5 18h-149v-262z" />
    <glyph glyph-name="uni048D" unicode="&#x48d;" horiz-adv-x="574" 
d="M125 0v730h108v-381h127q93 0 141.5 -46.5t48.5 -122.5q0 -52 -20.5 -93t-61 -64t-101.5 -23h-242zM233 84h118q32 0 52 12.5t30 34t10 46.5t-9 45.5t-29.5 32.5t-55.5 12h-116v-183zM24 444v79h375v-79h-375z" />
    <glyph glyph-name="uni048E" unicode="&#x48e;" horiz-adv-x="630" 
d="M83 0v710h298q49 0 90 -19.5t71 -52t47 -74t17 -85.5q0 -61 -27.5 -114.5t-76.5 -85.5t-115 -32h-191v-247h-113zM196 342h184q34 0 59.5 17.5t40.5 48t15 69.5q0 40 -17 70.5t-44.5 47t-59.5 16.5h-178v-269zM351 425l50 39l187 -239l-49 -39z" />
    <glyph glyph-name="uni048F" unicode="&#x48f;" horiz-adv-x="626" 
d="M364 -10q-63 0 -111 30t-76 78v-311h-110v736h97v-94q30 47 78 75t107 28q54 0 98.5 -21.5t77 -59.5t50.5 -86.5t18 -102.5q0 -57 -17.5 -106t-48 -86.5t-72.5 -58.5t-91 -21zM330 80q35 0 63.5 14.5t49 40t31.5 58t11 67.5q0 37 -12 69.5t-34.5 57t-52 38t-64.5 13.5
q-22 0 -44.5 -8t-43.5 -22t-36 -33t-21 -40v-137q14 -33 37 -59.5t53.5 -42.5t62.5 -16zM352 167l45 41l182 -202l-46 -42z" />
    <glyph glyph-name="uni0490" unicode="&#x490;" horiz-adv-x="529" 
d="M80 0v710h325v151h99v-250h-311v-611h-113z" />
    <glyph glyph-name="uni0491" unicode="&#x491;" horiz-adv-x="417" 
d="M66 0v523h236v125h98v-222h-224v-426h-110z" />
    <glyph glyph-name="uni0492" unicode="&#x492;" horiz-adv-x="548" 
d="M3 295v75h387v-75h-387zM99 0v710h424v-99h-311v-611h-113z" />
    <glyph glyph-name="uni0493" unicode="&#x493;" horiz-adv-x="444" 
d="M8 223v67h340v-67h-340zM93 0v523h334v-97h-224v-426h-110z" />
    <glyph glyph-name="uni0494" unicode="&#x494;" horiz-adv-x="667" 
d="M390 -130q-52 0 -102 15l28 92q15 -4 31.5 -8t33.5 -4q58 0 94.5 39t36.5 124q0 80 -37.5 124t-116.5 44q-44 0 -83 -13t-83 -39v99q42 24 89.5 36t94.5 12q120 0 183 -70t63 -193q0 -127 -62 -192.5t-170 -65.5zM80 0v710h424v-99h-312v-611h-112z" />
    <glyph glyph-name="uni0495" unicode="&#x495;" horiz-adv-x="531" 
d="M303 -193q-32 0 -62 9t-54 27l42 72q13 -9 29 -13t30 -4q63 0 89 42.5t26 113.5q0 56 -15 91t-41.5 50.5t-62.5 15.5q-33 0 -60 -8.5t-60 -23.5v82q40 20 74.5 29.5t75.5 9.5q57 0 101.5 -26t70 -77.5t25.5 -126.5q0 -80 -24 -139.5t-70.5 -91.5t-113.5 -32zM66 0v523
h334v-97h-224v-426h-110z" />
    <glyph glyph-name="uni0496" unicode="&#x496;" horiz-adv-x="1033" 
d="M923 -135v135h-51v99h149v-234h-98zM23 0l274 367l-256 343h132l217 -297h74v297h112v-297h73l218 297h132l-257 -343l276 -367h-131l-235 310h-76v-310h-112v310h-76l-236 -310h-129z" />
    <glyph glyph-name="uni0497" unicode="&#x497;" horiz-adv-x="838" 
d="M733 -125v125h-53v92h146v-217h-93zM29 0l188 270l-173 253h123l142 -208h49v208h113v-208h51l140 208h123l-173 -253l189 -270h-125l-154 219h-51v-219h-113v219h-49l-155 -219h-125z" />
    <glyph glyph-name="uni0498" unicode="&#x498;" horiz-adv-x="584" 
d="M245 -138v210l94 5v-215h-94zM291 -8q-81 0 -146.5 34t-102.5 94l86 53q24 -41 65.5 -63.5t95.5 -22.5q68 0 104.5 32t36.5 85q0 34 -15 60.5t-45 41t-73 14.5h-79v87h79q35 0 59.5 13.5t37.5 37t13 53.5q0 31 -14.5 54.5t-41.5 37t-66 13.5q-54 0 -92.5 -22t-60.5 -60
l-82 57q37 58 95.5 92t144.5 34q69 0 119.5 -22.5t78.5 -65t28 -102.5q0 -50 -24.5 -93.5t-75.5 -65.5q61 -17 94.5 -64t33.5 -110q0 -64 -33 -109.5t-89.5 -69t-130.5 -23.5z" />
    <glyph glyph-name="uni0499" unicode="&#x499;" horiz-adv-x="483" 
d="M241 -8q-80 0 -134.5 29.5t-83.5 81.5l89 40q17 -29 48 -45.5t75 -16.5q53 0 82 22t29 58q0 33 -24 53.5t-68 21.5h-54v70h56q20 0 35 9t23.5 24.5t8.5 35.5q0 30 -22.5 48.5t-67.5 18.5q-39 0 -64 -14.5t-41 -42.5l-83 44q26 48 76 75t117 27q53 0 94.5 -16.5t65 -48
t23.5 -77.5q0 -36 -17 -67.5t-53 -46.5q48 -14 72.5 -48.5t24.5 -81.5q0 -48 -26.5 -82.5t-73.5 -52.5t-107 -18zM227 -193q-27 0 -58 7t-60 22l28 59q18 -10 34.5 -15.5t36.5 -5.5q28 0 44 12t16 35t-16 41.5t-46 37.5l38 26q41 -26 66.5 -54.5t25.5 -70.5t-28.5 -68
t-80.5 -26z" />
    <glyph glyph-name="uni049A" unicode="&#x49a;" horiz-adv-x="674" 
d="M564 -135v135h-49v99h147v-234h-98zM81 0v710h112v-297h83l223 297h128l-261 -344l280 -366h-137l-233 310h-83v-310h-112z" />
    <glyph glyph-name="uni049B" unicode="&#x49b;" horiz-adv-x="553" 
d="M448 -125v125h-48v92h141v-217h-93zM66 0v523h109v-207h52l154 207h122l-191 -253l213 -270h-127l-172 217h-51v-217h-109z" />
    <glyph glyph-name="uni049C" unicode="&#x49c;" horiz-adv-x="660" 
d="M80 0v710h111v-302h154l185 302h117l-207 -344l226 -366h-125l-194 316h-156v-316h-111zM322 194h-51v326h51v-326z" />
    <glyph glyph-name="uni049D" unicode="&#x49d;" horiz-adv-x="594" 
d="M66 0v523h109v-210h128l133 210h117l-158 -253l180 -270h-121l-151 220h-128v-220h-109zM279 127h-48v280h48v-280z" />
    <glyph glyph-name="uni049E" unicode="&#x49e;" horiz-adv-x="695" 
d="M22 562v68h272v-68h-272zM98 0v710h110v-297h96l222 297h127l-261 -344l280 -366h-136l-233 310h-95v-310h-110z" />
    <glyph glyph-name="uni049F" unicode="&#x49f;" horiz-adv-x="529" 
d="M67 0v730h110v-414h52l153 207h122l-190 -253l212 -270h-127l-171 217h-51v-217h-110zM-1 569v67h316v-67h-316z" />
    <glyph glyph-name="uni04A0" unicode="&#x4a0;" horiz-adv-x="736" 
d="M5 616v94h172v-94h-172zM177 0v710h112v-297h83l223 297h128l-261 -344l280 -366h-137l-233 310h-83v-310h-112z" />
    <glyph glyph-name="uni04A1" unicode="&#x4a1;" horiz-adv-x="608" 
d="M5 433v90h144v-90h-144zM149 0v523h109v-207h52l154 207h122l-191 -253l212 -270h-126l-172 217h-51v-217h-109z" />
    <glyph glyph-name="uni04A2" unicode="&#x4a2;" horiz-adv-x="817" 
d="M663 710v-710h-113v313h-358v-313h-112v710h112v-297h358v297h113zM685 -135v135h-103v99h201v-234h-98z" />
    <glyph glyph-name="uni04A3" unicode="&#x4a3;" horiz-adv-x="634" 
d="M66 0v523h110v-208h243v208h110v-523h-110v220h-243v-220h-110zM509 -125v125h-90v96h188v-221h-98z" />
    <glyph glyph-name="uni04A4" unicode="&#x4a4;" horiz-adv-x="998" 
d="M662 611l-112 99h423v-99h-311zM663 710v-710h-113v313h-358v-313h-112v710h112v-297h358v297h113z" />
    <glyph glyph-name="uni04A5" unicode="&#x4a5;" horiz-adv-x="771" 
d="M529 426l-110 97h334v-97h-224zM66 0v523h110v-208h243v208h110v-523h-110v220h-243v-220h-110z" />
    <glyph glyph-name="uni04A6" unicode="&#x4a6;" horiz-adv-x="1098" 
d="M80 0v710h543v-710h-113v611h-318v-611h-112zM821 -130q-52 0 -102 15l25 89q16 -4 32.5 -7.5t32.5 -3.5q62 0 98 42t36 128q0 85 -39.5 130t-116.5 45q-42 0 -82 -12.5t-82 -37.5v94q42 24 89.5 35.5t94.5 11.5q80 0 134.5 -32t83 -91.5t28.5 -141.5q0 -131 -62 -197.5
t-170 -66.5z" />
    <glyph glyph-name="uni04A7" unicode="&#x4a7;" horiz-adv-x="884" 
d="M656 -193q-33 0 -63 9t-54 27l42 72q13 -9 29 -13t31 -4q62 0 88 48t26 128q0 59 -15 95t-41.5 52.5t-62.5 16.5q-26 0 -56.5 -9t-63.5 -25v-204h-110v426h-230v-426h-110v523h450v-237q40 21 78 31t72 10q57 0 102 -26.5t70.5 -78.5t25.5 -127q0 -88 -24.5 -152.5
t-71 -100t-112.5 -35.5z" />
    <glyph glyph-name="uni04A8" unicode="&#x4a8;" horiz-adv-x="1126" 
d="M1090 83q-50 -43 -110 -66t-133 -23q-57 0 -112 10.5t-97 31.5q-50 -22 -101.5 -33t-108.5 -11q-79 0 -148.5 25.5t-122.5 74t-82.5 119t-29.5 159.5q0 72 25 136t69 113.5t105 75.5t133 22l-21 -98q-57 3 -102 -29t-70.5 -88t-25.5 -129q0 -89 35 -153.5t98.5 -99
t147.5 -34.5q23 0 43 3.5t40 9.5q-44 29 -75.5 71.5t-48 97t-16.5 115.5q0 95 40.5 169.5t112 116.5t165.5 42q72 0 130.5 -25.5t99.5 -69.5t63 -102.5t22 -125.5q0 -65 -24.5 -124t-74.5 -105.5t-127 -75.5q17 -2 32 -3t29 -1q71 0 117.5 21.5t83.5 50.5zM519 416
q-8 -59 4 -108.5t42.5 -86t76.5 -59.5q56 -2 106.5 18.5t85 61.5t41.5 101q11 74 -8 123t-56.5 77t-83.5 38q-54 11 -98 -8t-73 -59.5t-37 -97.5z" />
    <glyph glyph-name="uni04A9" unicode="&#x4a9;" horiz-adv-x="854" 
d="M830 36q-32 -22 -78.5 -33.5t-94.5 -11.5q-40 0 -76.5 8t-64.5 24q-37 -17 -75.5 -24t-80.5 -7q-92 -1 -161 35t-108 100t-39 145q0 54 20.5 103t56 86t82 57t99.5 15l-15 -82q-38 1 -67 -22.5t-46 -63.5t-17 -89q0 -53 23.5 -99.5t67.5 -75t106 -28.5q8 0 17 0.5t18 1.5
q-50 35 -77.5 88.5t-27.5 118.5q0 72 33 127.5t91.5 87.5t135.5 32q75 0 131.5 -30.5t87.5 -83t31 -118.5q0 -76 -41 -138t-125 -98q8 -1 15 -1.5t13 -0.5q46 0 79.5 13t64.5 31zM551 438q-47 0 -82 -20t-54 -56t-19 -83q0 -39 15.5 -76.5t45.5 -67t72 -43.5q48 11 86 38.5
t60.5 67.5t22.5 87q0 55 -21 88.5t-54.5 49t-71.5 15.5z" />
    <glyph glyph-name="uni04AA" unicode="&#x4aa;" horiz-adv-x="684" 
d="M332 -138v136q-67 8 -121 42t-93.5 85t-61 111.5t-21.5 123.5q0 65 23 127.5t67.5 114t108.5 82t145 30.5q96 0 166 -43.5t104 -111.5l-88 -59q-20 43 -50.5 68t-66 35t-69.5 10q-56 0 -98 -22.5t-70.5 -59.5t-43 -83t-14.5 -92q0 -51 17 -98.5t47.5 -84t72.5 -57.5
t92 -21q34 0 71 12t68.5 37.5t49.5 67.5l93 -53q-18 -45 -55 -78.5t-83.5 -54t-95.5 -28.5v-136h-94z" />
    <glyph glyph-name="uni04AB" unicode="&#x4ab;" horiz-adv-x="559" 
d="M253 -125v120q-67 11 -117 49.5t-77 95.5t-27 122q0 74 33.5 135t94 98t143.5 37q80 0 139.5 -35.5t87.5 -94.5l-107 -34q-18 33 -50.5 51.5t-71.5 18.5q-44 0 -79.5 -22.5t-56 -62t-20.5 -91.5q0 -50 21 -90.5t56.5 -64t79.5 -23.5q27 0 52.5 9.5t44.5 26t27 36.5
l108 -32q-14 -33 -41.5 -60.5t-64 -45.5t-81.5 -25v-118h-94z" />
    <glyph glyph-name="uni04AC" unicode="&#x4ac;" horiz-adv-x="616" 
d="M601 611h-236v-611h-113v611h-237v99h586v-99zM390 -135v135h-103v99h201v-234h-98z" />
    <glyph glyph-name="uni04AD" unicode="&#x4ad;" horiz-adv-x="490" 
d="M190 0v426h-173v97h457v-97h-174v-426h-110zM280 -125v125h-90v96h188v-221h-98z" />
    <glyph glyph-name="Ustraitcy" unicode="&#x4ae;" horiz-adv-x="657" 
d="M132 710l196 -353l198 353h123l-265 -456v-254h-112v256l-263 454h123z" />
    <glyph glyph-name="ustraitcy" unicode="&#x4af;" horiz-adv-x="545" 
d="M218 -213v214l-205 522h114l150 -430l150 430h104l-203 -522v-214h-110z" />
    <glyph glyph-name="Ustraitstrokecy" unicode="&#x4b0;" horiz-adv-x="642" 
d="M264 0v166h-154v73h154v17l-263 454h123l196 -356l198 356h123l-265 -456v-15h154v-73h-154v-166h-112z" />
    <glyph glyph-name="ustraitstrokecy" unicode="&#x4b1;" horiz-adv-x="549" 
d="M226 -213v161h-121v52h121v1l-205 522h111l151 -440l152 440h105l-204 -522v-1h117v-52h-117v-161h-110z" />
    <glyph glyph-name="uni04B2" unicode="&#x4b2;" horiz-adv-x="708" 
d="M576 -135v135h-49v99h147v-234h-98zM144 710l196 -279l195 279h125l-256 -360l248 -350h-125l-187 269l-188 -269h-126l248 350l-256 360h126z" />
    <glyph glyph-name="uni04B3" unicode="&#x4b3;" horiz-adv-x="558" 
d="M437 -125v125h-32v92h126v-217h-94zM128 523l124 -179l9 -17l9 17l123 179h119l-188 -262l190 -261h-119l-125 178l-9 16l-9 -16l-125 -178h-119l190 260l-188 263h118z" />
    <glyph glyph-name="uni04B4" unicode="&#x4b4;" horiz-adv-x="900" 
d="M563 611h-206h-113h-229v99h548v-99zM767 -135v135h-523v710h113v-611h306v611h113v-611h91v-234h-100z" />
    <glyph glyph-name="uni04B5" unicode="&#x4b5;" horiz-adv-x="709" 
d="M190 426h-173v97h411v-97h-130h-108zM585 -125v125h-395v523h108v-427h203v427h108v-427h73v-221h-97z" />
    <glyph glyph-name="uni04B6" unicode="&#x4b6;" horiz-adv-x="740" 
d="M472 0v287q-15 -6 -39 -14.5t-56.5 -14.5t-74.5 -6q-121 0 -180 54t-59 172v232h109v-220q0 -70 35 -103t118 -33q39 0 79.5 9t67.5 23v324h110v-710h-110zM608 -135v135h-103v99h201v-234h-98z" />
    <glyph glyph-name="uni04B7" unicode="&#x4b7;" horiz-adv-x="561" 
d="M360 0v199q-30 -14 -62 -20.5t-72 -6.5q-84 0 -129.5 44.5t-45.5 132.5v174h110v-160q0 -55 23 -80.5t74 -25.5q28 0 56 6t46 16v244h111v-523h-111zM436 -125v125h-90v96h188v-221h-98z" />
    <glyph glyph-name="uni04B8" unicode="&#x4b8;" horiz-adv-x="661" 
d="M472 0v287q-15 -6 -39 -14.5t-56.5 -14.5t-74.5 -6q-121 0 -180 54t-59 172v232h109v-220q0 -70 35 -103t118 -33q39 0 79.5 9t67.5 23v324h110v-710h-110zM339 152h-50v326h50v-326z" />
    <glyph glyph-name="uni04B9" unicode="&#x4b9;" horiz-adv-x="546" 
d="M369 0v199q-30 -14 -62.5 -20.5t-71.5 -6.5q-88 0 -136 44.5t-48 132.5v174h110v-160q0 -55 24.5 -80.5t80.5 -25.5q29 0 56.5 6t46.5 16v244h111v-523h-111zM290 87h-48v280h48v-280z" />
    <glyph glyph-name="uni04BA" unicode="&#x4ba;" horiz-adv-x="661" 
d="M190 710v-287q15 7 38.5 15t56.5 14t74 6q122 0 181 -54t59 -172v-232h-110v220q0 70 -35 103t-117 33q-40 0 -80 -9t-67 -23v-324h-110v710h110z" />
    <glyph glyph-name="uni04BB" unicode="&#x4bb;" horiz-adv-x="597" 
d="M535 0h-110v293q0 71 -26 106t-73 35q-29 0 -60 -16t-55 -43.5t-35 -63.5v-311h-110v730h110v-312q30 53 82 83.5t112 30.5q49 0 81 -17t50.5 -46.5t26 -68t7.5 -81.5v-319z" />
    <glyph glyph-name="uni04BC" unicode="&#x4bc;" horiz-adv-x="878" 
d="M24 447q0 25 11.5 52.5t35.5 58.5l65 -20q-16 -22 -23.5 -42t-7.5 -35q0 -29 21 -44t58 -15h142v-88h-107q-93 0 -144 35t-51 98zM503 715q73 0 135 -28.5t108 -78t71 -112.5t25 -133q0 -14 -0.5 -27.5t-2.5 -21.5h-549q5 -48 24 -87.5t48.5 -68.5t66.5 -45t78 -16
q43 0 81 15.5t66.5 43t39.5 63.5l106 -43q-26 -54 -72.5 -94.5t-105 -63.5t-122.5 -23q-72 0 -132.5 29t-105.5 79t-69.5 115.5t-24.5 138.5q0 72 24.5 137t70 114.5t106.5 78t134 28.5zM502 616q-57 0 -103.5 -27.5t-75 -76t-33.5 -110.5h433q-5 61 -35 109.5t-78.5 76.5
t-107.5 28z" />
    <glyph glyph-name="uni04BD" unicode="&#x4bd;" horiz-adv-x="679" 
d="M11 341q0 21 10 44t30 47l48 -21q-11 -17 -16 -31t-5 -27q0 -26 20.5 -41.5t52.5 -15.5h127v-71h-102q-77 0 -121 32t-44 84zM391 -10q-54 0 -100.5 21.5t-81 59t-53.5 86t-19 103.5t19 104.5t53.5 87t81 59t101.5 21.5q81 0 139.5 -37.5t90.5 -98.5t32 -131
q0 -12 -0.5 -22.5t-1.5 -17.5h-415q4 -46 27.5 -80.5t58.5 -54t73 -19.5q44 0 83 22t53 58l92 -27q-17 -38 -51 -68.5t-80.5 -48t-101.5 -17.5zM234 296h319q-4 46 -26.5 81t-56.5 54.5t-77 19.5q-39 0 -74.5 -19.5t-58 -54.5t-26.5 -81z" />
    <glyph glyph-name="uni04BE" unicode="&#x4be;" horiz-adv-x="890" 
d="M436 -135v135l98 52v-187h-98zM36 447q0 25 11.5 52.5t34.5 58.5l66 -20q-17 -22 -24 -42t-7 -35q0 -29 21 -44t58 -15h142v-88h-108q-92 0 -143 35t-51 98zM515 715q73 0 135 -28.5t108 -78t71 -112.5t25 -133q0 -14 -1 -27.5t-3 -21.5h-548q5 -48 23.5 -87.5
t48.5 -68.5t67 -45t78 -16q43 0 81 15.5t66.5 43t39.5 63.5l106 -43q-26 -54 -72.5 -94.5t-105 -63.5t-122.5 -23q-72 0 -133 29t-105.5 79t-69 115.5t-24.5 138.5q0 72 24.5 137t70 114.5t106.5 78t134 28.5zM514 616q-57 0 -103.5 -27.5t-75 -76t-33.5 -110.5h433
q-5 61 -35 109.5t-78.5 76.5t-107.5 28z" />
    <glyph glyph-name="uni04BF" unicode="&#x4bf;" horiz-adv-x="686" 
d="M341 -125v125l98 39v-164h-98zM18 341q0 21 10 44t31 47l47 -21q-10 -17 -15.5 -31t-5.5 -27q0 -26 20.5 -41.5t52.5 -15.5h127v-71h-102q-76 0 -120.5 32t-44.5 84zM398 -10q-54 0 -100.5 21.5t-81 59t-53.5 86t-19 103.5t19 104.5t53.5 87t81 59t101.5 21.5
q81 0 139.5 -37.5t91 -98.5t32.5 -131q0 -12 -1 -22.5t-2 -17.5h-415q4 -46 27.5 -80.5t58.5 -54t73 -19.5q44 0 83 22t53 58l92 -27q-17 -38 -51 -68.5t-80.5 -48t-101.5 -17.5zM241 296h319q-4 46 -26 81t-56.5 54.5t-76.5 19.5q-40 0 -75.5 -19.5t-58 -54.5t-26.5 -81z
" />
    <glyph glyph-name="uni04C0" unicode="&#x4c0;" horiz-adv-x="272" 
d="M80 0v710h112v-710h-112z" />
    <glyph glyph-name="uni04C1" unicode="&#x4c1;" horiz-adv-x="1040" 
d="M23 0l274 367l-256 343h132l217 -297h74v297h112v-297h73l218 297h132l-257 -343l276 -367h-131l-235 310h-76v-310h-112v310h-76l-236 -310h-129zM520 764q-74 0 -114.5 37t-40.5 93h72q0 -29 19.5 -48t63.5 -19q43 0 61.5 18t22.5 49h72q0 -56 -40.5 -93t-115.5 -37z
" />
    <glyph glyph-name="uni04C2" unicode="&#x4c2;" horiz-adv-x="830" 
d="M29 0l188 270l-173 253h123l142 -208h49v208h113v-208h51l140 208h123l-173 -253l189 -270h-125l-154 219h-51v-219h-113v219h-49l-155 -219h-125zM414 577q-74 0 -114.5 37t-40.5 93h72q0 -29 19.5 -48t63.5 -19q43 0 61.5 18t22.5 49h72q0 -56 -40.5 -93t-115.5 -37z
" />
    <glyph glyph-name="uni04C3" unicode="&#x4c3;" horiz-adv-x="659" 
d="M415 -218q-22 0 -47 4.5t-51 14.5l28 90q16 -6 29.5 -9t26.5 -3q31 0 54 18.5t36 55t13 90.5q0 53 -19.5 101.5t-53 85.5t-75.5 58.5t-86 21.5h-75v-310h-112v710h112v-297h55h14.5h14.5l223 297h127l-247 -323q67 -25 119.5 -76.5t83.5 -120.5t31 -147
q0 -82 -26.5 -140.5t-71.5 -89.5t-103 -31z" />
    <glyph glyph-name="uni04C4" unicode="&#x4c4;" horiz-adv-x="526" 
d="M328 292q51 -19 89.5 -60t59.5 -96.5t21 -120.5q0 -68 -22 -118.5t-60 -78t-88 -27.5q-20 0 -40 4.5t-39 12.5l27 87q21 -7 36 -7q40 0 59 32t19 88q0 62 -21 109t-57 73.5t-79 26.5h-58v-217h-109v523h109v-207h40h8.5h8.5l149 207h122z" />
    <glyph glyph-name="uni04C5" unicode="&#x4c5;" horiz-adv-x="745" 
d="M542 0v611h-237l-4 -132q-6 -143 -23 -236.5t-49 -147t-80 -76t-115 -22.5v98q37 0 65 17.5t47.5 62.5t31 126.5t15.5 208.5l7 200h455v-710h-113zM563 -141l56 191l63 -50h-140v99h189l-70 -240h-98z" />
    <glyph glyph-name="uni04C6" unicode="&#x4c6;" horiz-adv-x="600" 
d="M24 -5v98q25 0 45 12.5t35 42t24 82.5t12 135l7 158h373v-523h-110v426h-166l-2 -71q-4 -105 -19 -174.5t-41.5 -110t-66 -58t-91.5 -17.5zM431 -141l56 191l63 -50h-140v96h188l-69 -237h-98z" />
    <glyph glyph-name="uni04C7" unicode="&#x4c7;" horiz-adv-x="750" 
d="M663 710v-710h-113v313h-358v-313h-112v710h112v-297h358v297h113zM475 -220q-24 0 -49.5 5t-54.5 16l28 90q16 -5 30.5 -8t27.5 -3q33 0 52.5 18t27.5 52.5t8 83.5v65h113v-99q0 -68 -23 -117.5t-63.5 -76t-96.5 -26.5z" />
    <glyph glyph-name="uni04C8" unicode="&#x4c8;" horiz-adv-x="596" 
d="M66 0v523h110v-208h243v208h110v-523h-110v220h-243v-220h-110zM354 -210q-20 0 -42.5 4.5t-45.5 13.5l26 87q11 -2 21 -4t19 -2q42 0 64.5 33.5t22.5 99.5v74h110v-96q0 -105 -50 -157.5t-125 -52.5z" />
    <glyph glyph-name="uni04C9" unicode="&#x4c9;" horiz-adv-x="772" 
d="M668 710v-710h-113v313h-358v-313h-112v710h112v-297h358v297h113zM607 -141l56 191l63 -50h-140v99h189l-70 -240h-98z" />
    <glyph glyph-name="uni04CA" unicode="&#x4ca;" horiz-adv-x="613" 
d="M70 0v523h110v-208h243v208h110v-523h-110v220h-243v-220h-110zM444 -141l56 191l63 -50h-140v96h188l-69 -237h-98z" />
    <glyph glyph-name="uni04CB" unicode="&#x4cb;" horiz-adv-x="661" 
d="M472 0v296q-15 -6 -39 -14.5t-57.5 -14.5t-75.5 -6q-120 0 -178.5 53.5t-58.5 171.5v224h109v-211q0 -70 35.5 -103t114.5 -33q40 0 81.5 9t68.5 22v316h110v-710h-110zM460 -135h-98v221h172v-86h-74v-135z" />
    <glyph glyph-name="uni04CC" unicode="&#x4cc;" horiz-adv-x="529" 
d="M279 -125v179h76v160q-30 -12 -60.5 -19t-63.5 -7q-56 0 -96.5 21.5t-62 62.5t-21.5 98v153h104v-139q0 -57 24 -84.5t77 -27.5q27 0 53.5 7t45.5 18v226h107v-523h-89v-125h-94z" />
    <glyph glyph-name="uni04CD" unicode="&#x4cd;" horiz-adv-x="885" 
d="M682 0v506l-209 -384h-66l-210 384v-506h-112v710h120l235 -434l235 434h120v-710h-113zM703 -141l56 191l63 -50h-140v99h189l-70 -240h-98z" />
    <glyph glyph-name="uni04CE" unicode="&#x4ce;" horiz-adv-x="739" 
d="M70 0v523h114l180 -323l181 323h112v-523h-105v368l-154 -275h-69l-155 275v-368h-104zM573 -141l56 191l63 -50h-140v96h188l-69 -237h-98z" />
    <glyph glyph-name="uni04CF" unicode="&#x4cf;" horiz-adv-x="242" 
d="M66 0v523h110v-523h-110z" />
    <glyph glyph-name="uni04D0" unicode="&#x4d0;" horiz-adv-x="675" 
d="M285 710h106l276 -710h-118l-75 193h-274l-74 -193h-119zM452 276l-114 311l-118 -311h232zM338 764q-74 0 -114.5 37t-40.5 93h72q0 -29 19.5 -48t63.5 -19q43 0 61.5 18t22.5 49h72q0 -56 -40.5 -93t-115.5 -37z" />
    <glyph glyph-name="uni04D1" unicode="&#x4d1;" horiz-adv-x="564" 
d="M28 153q0 50 28.5 87.5t78.5 58t116 20.5q35 0 71.5 -5t64.5 -16v33q0 55 -33 86t-95 31q-44 0 -83 -15.5t-83 -43.5l-37 74q52 35 104.5 52t110.5 17q105 0 165.5 -55.5t60.5 -157.5v-195q0 -19 6.5 -27t22.5 -9v-88q-15 -3 -27 -4t-20 -1q-35 0 -53 17t-21 40l-3 30
q-34 -44 -87 -68t-107 -24q-52 0 -93 21.5t-64 58.5t-23 83zM361 121q12 13 19 26t7 23v60q-28 11 -59 16.5t-61 5.5q-60 0 -97.5 -24t-37.5 -66q0 -23 12.5 -44t36 -34t58.5 -13q36 0 69 14t53 36zM282 577q-74 0 -114.5 37t-40.5 93h72q0 -29 19.5 -48t63.5 -19
q43 0 61.5 18t22.5 49h72q0 -56 -40.5 -93t-115.5 -37z" />
    <glyph glyph-name="uni04D2" unicode="&#x4d2;" horiz-adv-x="675" 
d="M285 710h106l276 -710h-118l-75 193h-274l-74 -193h-119zM452 276l-114 311l-118 -311h232zM204 803v110h92v-110h-92zM381 803v110h92v-110h-92z" />
    <glyph glyph-name="uni04D3" unicode="&#x4d3;" horiz-adv-x="564" 
d="M28 153q0 50 28.5 87.5t78.5 58t116 20.5q35 0 71.5 -5t64.5 -16v33q0 55 -33 86t-95 31q-44 0 -83 -15.5t-83 -43.5l-37 74q52 35 104.5 52t110.5 17q105 0 165.5 -55.5t60.5 -157.5v-195q0 -19 6.5 -27t22.5 -9v-88q-15 -3 -27 -4t-20 -1q-35 0 -53 17t-21 40l-3 30
q-34 -44 -87 -68t-107 -24q-52 0 -93 21.5t-64 58.5t-23 83zM361 121q12 13 19 26t7 23v60q-28 11 -59 16.5t-61 5.5q-60 0 -97.5 -24t-37.5 -66q0 -23 12.5 -44t36 -34t58.5 -13q36 0 69 14t53 36zM148 616v110h92v-110h-92zM325 616v110h92v-110h-92z" />
    <glyph glyph-name="uni04D4" unicode="&#x4d4;" horiz-adv-x="963" 
d="M423 710h496v-99h-354v-200h300v-99h-300v-213h363v-99h-475v193h-239l-118 -193h-121zM445 293v288l-182 -288h182z" />
    <glyph glyph-name="uni04D5" unicode="&#x4d5;" horiz-adv-x="935" 
d="M204 -10q-50 0 -90 21.5t-63 59t-23 83.5q0 49 28 86t78 58t114 21q34 0 66 -5t58 -15q2 14 4.5 29t6.5 27q-5 47 -37 73t-88 26q-41 0 -81.5 -15t-83.5 -45l-35 70q103 68 210 68q63 0 109 -22.5t73 -62.5q33 38 82 61.5t109 23.5q82 0 142.5 -37t94 -98.5t33.5 -135.5
q0 -8 -1 -18.5t-2 -17.5h-427q4 -46 27 -80.5t59.5 -54t79.5 -19.5q44 0 83.5 22t53.5 58l94 -27q-17 -38 -51.5 -68.5t-81 -48t-102.5 -17.5q-72 0 -129 30.5t-92 80.5q-23 -40 -60 -64t-78.5 -35.5t-79.5 -11.5zM234 71q41 0 76.5 15t55.5 40q19 17 21 35q-7 16 -10.5 38
t-4.5 39q-24 8 -52 13t-54 5q-59 0 -97 -26t-38 -67q0 -25 13.5 -46.5t37 -33.5t52.5 -12zM801 295q-4 46 -25.5 81.5t-56.5 55t-80 19.5q-43 0 -78.5 -20t-57 -55t-24.5 -81h322z" />
    <glyph glyph-name="uni04D6" unicode="&#x4d6;" horiz-adv-x="603" 
d="M567 99v-99h-487v710h478v-99h-366v-202h317v-93h-317v-217h375zM330 763q-74 0 -114.5 37t-40.5 93h72q0 -29 19.5 -48t63.5 -19q43 0 61.5 18t22.5 49h72q0 -56 -40.5 -93t-115.5 -37z" />
    <glyph glyph-name="uni04D7" unicode="&#x4d7;" horiz-adv-x="595" 
d="M303 -10q-61 0 -110.5 21.5t-85.5 59t-55.5 86t-19.5 103.5q0 74 34 135.5t95 99t143 37.5t141.5 -37.5t92.5 -98.5t33 -131q0 -12 -1 -22.5t-2 -17.5h-419q3 -46 25.5 -80.5t57.5 -54t75 -19.5q44 0 83.5 22t53.5 58l94 -27q-17 -38 -51.5 -68.5t-81.5 -48t-102 -17.5z
M146 298h316q-3 45 -25.5 79.5t-57 54t-76.5 19.5q-41 0 -75.5 -19.5t-56.5 -54t-25 -79.5zM300 577q-74 0 -114.5 37t-40.5 93h72q0 -29 19.5 -48t63.5 -19q43 0 61.5 18t22.5 49h72q0 -56 -40.5 -93t-115.5 -37z" />
    <glyph glyph-name="uni04D8" unicode="&#x4d8;" horiz-adv-x="741" 
d="M366 -5q-74 0 -136.5 28.5t-108.5 78t-71.5 112.5t-25.5 133q0 14 1 27.5t2 21.5h554q-5 48 -24 87.5t-48.5 68.5t-66.5 45t-79 16t-80 -15.5t-66 -43t-40 -63.5l-110 43q26 54 72 94.5t105.5 63.5t124.5 23q73 0 134 -29t106 -79t70.5 -114.5t25.5 -136.5
q0 -73 -25 -139t-71 -115.5t-107.5 -78t-135.5 -28.5zM369 95q57 0 103.5 27t75.5 74t34 108h-436q5 -59 35.5 -106.5t79.5 -75t108 -27.5z" />
    <glyph glyph-name="uni04D9" unicode="&#x4d9;" horiz-adv-x="595" 
d="M294 -10q-81 0 -142 37t-94 99t-34 135q0 8 1 18.5t2 17.5h419q-4 47 -26 81t-56.5 53t-75.5 19q-44 0 -83 -21.5t-54 -57.5l-95 27q19 39 53.5 69.5t81 47.5t102.5 17q61 0 110.5 -21.5t85 -59t55 -86.5t19.5 -104q0 -74 -33 -135.5t-93.5 -98.5t-142.5 -37zM296 71
q42 0 75 20t53.5 55t23.5 81h-313q4 -47 26.5 -82t57.5 -54.5t77 -19.5z" />
    <glyph glyph-name="uni04DA" unicode="&#x4da;" horiz-adv-x="741" 
d="M366 -5q-74 0 -136.5 28.5t-108.5 78t-71.5 112.5t-25.5 133q0 14 1 27.5t2 21.5h554q-5 48 -24 87.5t-48.5 68.5t-66.5 45t-79 16t-80 -15.5t-66 -43t-40 -63.5l-110 43q26 54 72 94.5t105.5 63.5t124.5 23q73 0 134 -29t106 -79t70.5 -114.5t25.5 -136.5
q0 -73 -25 -139t-71 -115.5t-107.5 -78t-135.5 -28.5zM369 95q57 0 103.5 27t75.5 74t34 108h-436q5 -59 35.5 -106.5t79.5 -75t108 -27.5zM236 803v110h92v-110h-92zM413 803v110h92v-110h-92z" />
    <glyph glyph-name="uni04DB" unicode="&#x4db;" horiz-adv-x="595" 
d="M294 -10q-81 0 -142 37t-94 99t-34 135q0 8 1 18.5t2 17.5h419q-4 47 -26 81t-56.5 53t-75.5 19q-44 0 -83 -21.5t-54 -57.5l-95 27q19 39 53.5 69.5t81 47.5t102.5 17q61 0 110.5 -21.5t85 -59t55 -86.5t19.5 -104q0 -74 -33 -135.5t-93.5 -98.5t-142.5 -37zM296 71
q42 0 75 20t53.5 55t23.5 81h-313q4 -47 26.5 -82t57.5 -54.5t77 -19.5zM164 616v110h92v-110h-92zM341 616v110h92v-110h-92z" />
    <glyph glyph-name="uni04DC" unicode="&#x4dc;" horiz-adv-x="1040" 
d="M23 0l274 367l-256 343h132l217 -297h74v297h112v-297h73l218 297h132l-257 -343l276 -367h-131l-235 310h-76v-310h-112v310h-76l-236 -310h-129zM386 803v110h92v-110h-92zM563 803v110h92v-110h-92z" />
    <glyph glyph-name="uni04DD" unicode="&#x4dd;" horiz-adv-x="830" 
d="M29 0l188 270l-173 253h123l142 -208h49v208h113v-208h51l140 208h123l-173 -253l189 -270h-125l-154 219h-51v-219h-113v219h-49l-155 -219h-125zM280 616v110h92v-110h-92zM457 616v110h92v-110h-92z" />
    <glyph glyph-name="uni04DE" unicode="&#x4de;" horiz-adv-x="584" 
d="M291 -8q-81 0 -146.5 34t-102.5 94l86 53q24 -41 65.5 -63.5t95.5 -22.5q68 0 104.5 32t36.5 85q0 34 -15 60.5t-45 41t-73 14.5h-79v87h79q35 0 59.5 13.5t37.5 37t13 53.5q0 31 -14.5 54.5t-41.5 37t-66 13.5q-54 0 -92.5 -22t-60.5 -60l-82 57q37 58 95.5 92t144.5 34
q69 0 119.5 -22.5t78.5 -65t28 -102.5q0 -50 -24.5 -93.5t-75.5 -65.5q61 -17 94.5 -64t33.5 -110q0 -64 -33 -109.5t-89.5 -69t-130.5 -23.5zM165 803v110h92v-110h-92zM342 803v110h92v-110h-92z" />
    <glyph glyph-name="uni04DF" unicode="&#x4df;" horiz-adv-x="483" 
d="M241 -8q-80 0 -134.5 29.5t-83.5 81.5l89 40q17 -29 48 -45.5t75 -16.5q53 0 82 22t29 58q0 33 -24 53.5t-68 21.5h-54v70h56q20 0 35 9t23.5 24.5t8.5 35.5q0 30 -22.5 48.5t-67.5 18.5q-39 0 -64 -14.5t-41 -42.5l-83 44q26 48 76 75t117 27q53 0 94.5 -16.5t65 -48
t23.5 -77.5q0 -36 -17 -67.5t-53 -46.5q48 -14 72.5 -48.5t24.5 -81.5q0 -48 -26.5 -82.5t-73.5 -52.5t-107 -18zM102 616v110h92v-110h-92zM279 616v110h92v-110h-92z" />
    <glyph glyph-name="uni04E0" unicode="&#x4e0;" horiz-adv-x="590" 
d="M289 435q74 0 124.5 -19t80.5 -49.5t43.5 -68t13.5 -75.5q0 -72 -32.5 -123.5t-89 -79.5t-129.5 -28q-86 0 -153.5 34t-105.5 94l85 53q26 -41 69.5 -63.5t100.5 -22.5q46 0 77.5 17t48.5 46.5t17 70.5q0 58 -39 94.5t-120 36.5h-77v83h86zM203 435l178 176h-297v99h431
v-86l-254 -243z" />
    <glyph glyph-name="uni04E1" unicode="&#x4e1;" horiz-adv-x="487" 
d="M215 -221q-78 0 -142 33t-98 94l76 50q27 -43 68.5 -65.5t94.5 -22.5q50 0 84 18t51 50.5t17 75.5q0 70 -47 107t-133 37h-59v76l192 197h-309v94h430v-85l-205 -207l9 -1q109 -9 165 -68t56 -148q0 -56 -19.5 -99.5t-53.5 -74t-79.5 -46t-97.5 -15.5z" />
    <glyph glyph-name="uni04E2" unicode="&#x4e2;" horiz-adv-x="766" 
d="M85 0v710h112v-552l379 552h105v-710h-112v543l-375 -543h-109zM237 831v70h296v-70h-296z" />
    <glyph glyph-name="uni04E3" unicode="&#x4e3;" horiz-adv-x="606" 
d="M66 0v522h110v-375l265 376h100v-523h-110v367l-262 -367h-103zM157 644v70h296v-70h-296z" />
    <glyph glyph-name="uni04E4" unicode="&#x4e4;" horiz-adv-x="766" 
d="M85 0v710h112v-552l379 552h105v-710h-112v543l-375 -543h-109zM249 803v110h92v-110h-92zM426 803v110h92v-110h-92z" />
    <glyph glyph-name="uni04E5" unicode="&#x4e5;" horiz-adv-x="606" 
d="M66 0v522h110v-375l265 376h100v-523h-110v367l-262 -367h-103zM170 616v110h92v-110h-92zM347 616v110h92v-110h-92z" />
    <glyph glyph-name="uni04E6" unicode="&#x4e6;" horiz-adv-x="752" 
d="M375 -5q-77 0 -139 30t-107 81.5t-69.5 116t-24.5 132.5q0 71 26 135.5t72 115t108.5 80t135.5 29.5q76 0 138.5 -31t107 -83t69 -116t24.5 -131q0 -71 -25.5 -135.5t-71.5 -115t-108.5 -79.5t-135.5 -29zM149 355q0 -50 16 -97t45.5 -83.5t71.5 -57.5t94 -21q54 0 96 22
t70.5 59.5t43.5 84t15 93.5q0 50 -15.5 96.5t-45.5 83t-71.5 57.5t-92.5 21q-54 0 -96 -22t-71 -59t-44.5 -83t-15.5 -94zM243 802v110h92v-110h-92zM420 802v110h92v-110h-92z" />
    <glyph glyph-name="uni04E7" unicode="&#x4e7;" horiz-adv-x="602" 
d="M301 -10q-62 0 -111 21.5t-84.5 59.5t-54.5 86.5t-19 103.5t19 104t54.5 86.5t85 59t110.5 21.5t110.5 -21.5t85 -59t54.5 -86.5t19 -104t-19 -103.5t-54.5 -86.5t-85 -59.5t-110.5 -21.5zM145 260q0 -50 21 -90t56 -63t79 -23q43 0 78.5 23.5t56.5 64t21 89.5
q0 50 -21 90t-56.5 63.5t-78.5 23.5q-44 0 -79 -24t-56 -63.5t-21 -90.5zM166 616v110h92v-110h-92zM343 616v110h92v-110h-92z" />
    <glyph glyph-name="uni04E8" unicode="&#x4e8;" horiz-adv-x="761" 
d="M106 324v73h555v-73h-555zM375 -5q-77 0 -139 30t-107 81.5t-69.5 116t-24.5 132.5q0 71 26 135.5t72 115t108.5 80t135.5 29.5q76 0 138 -31t107 -83t69.5 -116t24.5 -131q0 -71 -25.5 -135.5t-71.5 -115t-108.5 -79.5t-135.5 -29zM149 355q0 -50 16 -97t45.5 -83.5
t71.5 -57.5t94 -21q54 0 96 22t70.5 59.5t43.5 84t15 94.5q0 50 -15.5 96t-45.5 82.5t-71.5 57.5t-92.5 21q-54 0 -96 -22t-71 -59t-44.5 -83t-15.5 -94z" />
    <glyph glyph-name="uni04E9" unicode="&#x4e9;" horiz-adv-x="601" 
d="M101 240v49h425v-49h-425zM301 -10q-62 0 -111 21.5t-84.5 59.5t-54.5 86.5t-19 103.5t19 104t54.5 86.5t85 59t110.5 21.5t110.5 -21.5t85 -59t54.5 -86.5t19 -104t-19 -103.5t-54.5 -86.5t-85 -59.5t-110.5 -21.5zM145 260q0 -50 21 -90t56 -63t79 -23q43 0 78.5 23.5
t56.5 64t21 89.5q0 50 -21 90t-56.5 63.5t-78.5 23.5q-44 0 -79 -24t-56 -63.5t-21 -90.5z" />
    <glyph glyph-name="uni04EA" unicode="&#x4ea;" horiz-adv-x="761" 
d="M106 324v73h555v-73h-555zM375 -5q-77 0 -139 30t-107 81.5t-69.5 116t-24.5 132.5q0 71 26 135.5t72 115t108.5 80t135.5 29.5q76 0 138 -31t107 -83t69.5 -116t24.5 -131q0 -71 -25.5 -135.5t-71.5 -115t-108.5 -79.5t-135.5 -29zM149 355q0 -50 16 -97t45.5 -83.5
t71.5 -57.5t94 -21q54 0 96 22t70.5 59.5t43.5 84t15 94.5q0 50 -15.5 96t-45.5 82.5t-71.5 57.5t-92.5 21q-54 0 -96 -22t-71 -59t-44.5 -83t-15.5 -94zM243 802v110h92v-110h-92zM420 802v110h92v-110h-92z" />
    <glyph glyph-name="uni04EB" unicode="&#x4eb;" horiz-adv-x="601" 
d="M101 240v49h425v-49h-425zM301 -10q-62 0 -111 21.5t-84.5 59.5t-54.5 86.5t-19 103.5t19 104t54.5 86.5t85 59t110.5 21.5t110.5 -21.5t85 -59t54.5 -86.5t19 -104t-19 -103.5t-54.5 -86.5t-85 -59.5t-110.5 -21.5zM145 260q0 -50 21 -90t56 -63t79 -23q43 0 78.5 23.5
t56.5 64t21 89.5q0 50 -21 90t-56.5 63.5t-78.5 23.5q-44 0 -79 -24t-56 -63.5t-21 -90.5zM166 616v110h92v-110h-92zM343 616v110h92v-110h-92z" />
    <glyph glyph-name="uni04EC" unicode="&#x4ec;" horiz-adv-x="714" 
d="M331 -6q-66 0 -121.5 20t-98 57.5t-70.5 87.5l94 53q20 -38 50 -64t67.5 -39.5t78.5 -13.5q52 0 95 20.5t74 56.5t46.5 82.5t14.5 97.5l48 -33h-341v87h338l-45 -30q-1 45 -17 87.5t-45 76t-71 53.5t-97 20q-39 0 -75.5 -12.5t-65.5 -38t-48 -63.5l-91 60
q41 68 109 111.5t171 43.5q83 0 147.5 -30.5t109 -81t67.5 -114.5t23 -132q0 -71 -24.5 -136t-70.5 -116t-109.5 -80.5t-142.5 -29.5zM226 803v110h92v-110h-92zM403 803v110h92v-110h-92z" />
    <glyph glyph-name="uni04ED" unicode="&#x4ed;" horiz-adv-x="568" 
d="M268 -9q-51 0 -96 15t-80.5 43.5t-56.5 69.5l88 40q23 -40 59 -60t79 -20t77 20t57 54t28 75h-205v73h204q-6 38 -26.5 70t-54.5 52t-79 20q-42 0 -77 -17.5t-58 -58.5l-84 44q31 55 87.5 88t135.5 33q66 0 116 -22.5t84.5 -60.5t52 -86.5t17.5 -99.5q0 -52 -18 -101
t-53 -87.5t-84.5 -61t-112.5 -22.5zM148 616v110h92v-110h-92zM325 616v110h92v-110h-92z" />
    <glyph glyph-name="uni04EE" unicode="&#x4ee;" horiz-adv-x="630" 
d="M152 -4v94h51q25 0 38 12t25 36l21 46l-289 526h124l216 -411l183 411h119l-288 -625q-24 -49 -52.5 -69t-77.5 -20h-70zM180 831v70h296v-70h-296z" />
    <glyph glyph-name="uni04EF" unicode="&#x4ef;" horiz-adv-x="547" 
d="M137 -222q-18 0 -38 5t-42 15l28 82q12 -6 23 -9t20 -3q25 0 45.5 20.5t36.5 61.5l20 54l-221 519h115l160 -411l142 411h106l-230 -603q-17 -47 -42.5 -78t-56.5 -47.5t-66 -16.5zM127 644v70h296v-70h-296z" />
    <glyph glyph-name="uni04F0" unicode="&#x4f0;" horiz-adv-x="630" 
d="M152 -4v94h51q25 0 38 12t25 36l21 46l-289 526h124l216 -411l183 411h119l-288 -625q-24 -49 -52.5 -69t-77.5 -20h-70zM192 803v110h92v-110h-92zM369 803v110h92v-110h-92z" />
    <glyph glyph-name="uni04F1" unicode="&#x4f1;" horiz-adv-x="547" 
d="M137 -222q-18 0 -38 5t-42 15l28 82q12 -6 23 -9t20 -3q25 0 45.5 20.5t36.5 61.5l20 54l-221 519h115l160 -411l142 411h106l-230 -603q-17 -47 -42.5 -78t-56.5 -47.5t-66 -16.5zM139 616v110h92v-110h-92zM316 616v110h92v-110h-92z" />
    <glyph glyph-name="uni04F2" unicode="&#x4f2;" horiz-adv-x="630" 
d="M152 -4v94h51q25 0 38 12t25 36l21 46l-289 526h124l216 -411l183 411h119l-288 -625q-24 -49 -52.5 -69t-77.5 -20h-70zM263 786l-55 22l51 110h89zM411 786l-56 22l51 110h90z" />
    <glyph glyph-name="uni04F3" unicode="&#x4f3;" horiz-adv-x="547" 
d="M137 -222q-18 0 -38 5t-42 15l28 82q12 -6 23 -9t20 -3q25 0 45.5 20.5t36.5 61.5l20 54l-221 519h115l160 -411l142 411h106l-230 -603q-17 -47 -42.5 -78t-56.5 -47.5t-66 -16.5zM210 599l-55 22l51 110h89zM358 599l-56 22l51 110h90z" />
    <glyph glyph-name="uni04F4" unicode="&#x4f4;" horiz-adv-x="661" 
d="M472 0v287q-15 -6 -39 -14.5t-56.5 -14.5t-74.5 -6q-121 0 -180 54t-59 172v232h109v-220q0 -70 35 -103t118 -33q39 0 79.5 9t67.5 23v324h110v-710h-110zM198 803v110h92v-110h-92zM375 803v110h92v-110h-92z" />
    <glyph glyph-name="uni04F5" unicode="&#x4f5;" horiz-adv-x="538" 
d="M360 0v199q-30 -14 -62 -20.5t-72 -6.5q-84 0 -129.5 44.5t-45.5 132.5v174h110v-160q0 -55 23 -80.5t74 -25.5q28 0 56 6t46 16v244h111v-523h-111zM133 616v110h92v-110h-92zM310 616v110h92v-110h-92z" />
    <glyph glyph-name="uni04F6" unicode="&#x4f6;" horiz-adv-x="529" 
d="M81 0v710h423v-99h-311v-611h-112zM218 -135v135h-103v99h201v-234h-98z" />
    <glyph glyph-name="uni04F7" unicode="&#x4f7;" horiz-adv-x="417" 
d="M66 0v523h334v-97h-224v-426h-110zM165 -125v125h-90v96h188v-221h-98z" />
    <glyph glyph-name="uni04F8" unicode="&#x4f8;" horiz-adv-x="895" 
d="M80 0v710h112v-262h159q78 0 131.5 -27.5t81 -77.5t27.5 -118q0 -64 -27 -115.5t-79 -80.5t-127 -29h-278zM192 93h150q47 0 77 18t43.5 48.5t13.5 65.5q0 34 -12.5 64t-42 48t-80.5 18h-149v-262zM703 0v709h113v-709h-113zM314 803v110h92v-110h-92zM491 803v110h92
v-110h-92z" />
    <glyph glyph-name="uni04F9" unicode="&#x4f9;" horiz-adv-x="729" 
d="M66 0v523h110v-172h99q93 0 142 -47t49 -124q0 -52 -21 -93t-61.5 -64t-100.5 -23h-217zM176 85h90q33 0 53 12.5t29.5 34t9.5 46.5t-9 45.5t-29.5 33t-54.5 12.5h-89v-184zM552 0v522h110v-522h-110zM230 616v110h92v-110h-92zM407 616v110h92v-110h-92z" />
    <glyph glyph-name="uni04FA" unicode="&#x4fa;" horiz-adv-x="562" 
d="M152 -220q-24 0 -50 5.5t-54 17.5l26 82q18 -5 33.5 -9t29.5 -4q50 0 74 33.5t24 94.5h-112v86h211v-86q0 -68 -22.5 -117.5t-63 -76t-96.5 -26.5zM117 0v710h424v-99h-312v-611h-112zM21 295v75h386v-75h-386z" />
    <glyph glyph-name="uni04FB" unicode="&#x4fb;" horiz-adv-x="440" 
d="M109 -210q-23 0 -48 5t-51 17l24 78q18 -5 34 -8.5t29 -3.5q49 0 72.5 33t23.5 89h-75v79h172v-79q0 -66 -22.5 -113t-63 -72t-95.5 -25zM96 0v523h334v-97h-224v-426h-110zM11 223v67h340v-67h-340z" />
    <glyph glyph-name="uni04FC" unicode="&#x4fc;" horiz-adv-x="677" 
d="M464 -220q-25 0 -52.5 5t-55.5 16l28 91q29 -13 57 -13q25 0 44.5 10.5t30 28.5t10.5 43q0 21 -8.5 45.5t-27.5 51.5l-150 211l-188 -269h-126l248 350l-256 360h126l196 -279l195 279h125l-256 -360l179 -249q30 -42 42.5 -80t12.5 -71q0 -49 -23.5 -87.5t-63 -60.5
t-87.5 -22z" />
    <glyph glyph-name="uni04FD" unicode="&#x4fd;" horiz-adv-x="521" 
d="M341 -208q-17 0 -35.5 4t-35.5 11l24 88q8 -4 16.5 -5.5t15.5 -1.5q28 0 47.5 21.5t19.5 54.5t-14 63t-43 66l-67 86l-9 14l-8 -15l-125 -178h-119l190 260l-188 263h118l124 -179l9 -17l9 17l123 179h119l-186 -259l89 -112q40 -52 62.5 -99.5t22.5 -97.5
q0 -48 -21.5 -85t-57.5 -57.5t-80 -20.5z" />
    </font>
</defs>
</svg>
